osu file format v14

[General]
AudioFilename: audio.mp3
AudioLeadIn: 0
PreviewTime: -1
Countdown: 1
SampleSet: None
StackLeniency: 0.7
Mode: 0
LetterboxInBreaks: 0
WidescreenStoryboard: 0

[Editor]
DistanceSpacing: 6
BeatDivisor: 16
GridSize: 4
TimelineZoom: 1

[Metadata]
Title:The Jazz Piano
TitleUnicode:The Jazz Piano
Artist:Bensound
ArtistUnicode:Bensound
Creator:JiruPiru
Version:how to ddos any youtuber
Source:nm20xx
Tags:
BeatmapID:1863070
BeatmapSetID:891267

[Difficulty]
HPDrainRate:0
CircleSize:3.9
OverallDifficulty:0
ApproachRate:6
SliderMultiplier:1.4
SliderTickRate:1

[Events]
//Background and Video events
//Break Periods
2,156571,158998
//Storyboard Layer 0 (Background)
//Storyboard Layer 1 (Fail)
//Storyboard Layer 2 (Pass)
//Storyboard Layer 3 (Foreground)
//Storyboard Sound Samples

[TimingPoints]
0,582.52427184466,4,1,0,100,1,0

[HitObjects]
96,208,145,5,0,0:0:0:0:
96,208,145,1,0,0:0:0:0:
4,244,254,1,0,0:0:0:0:
50,225,327,1,0,0:0:0:0:
145,207,436,1,0,0:0:0:0:
172,200,473,1,0,0:0:0:0:
207,173,618,1,0,0:0:0:0:
265,171,691,1,0,0:0:0:0:
157,135,946,1,0,0:0:0:0:
145,207,1019,1,0,0:0:0:0:
207,173,1092,1,8,0:0:0:0:
103,215,1201,1,0,0:0:0:0:
151,189,1274,1,8,0:0:0:0:
116,257,1347,1,0,0:0:0:0:
157,135,1456,1,0,0:0:0:0:
488,58,2766,1,0,0:0:0:0:
259,117,3640,1,0,0:0:0:0:
254,211,5024,1,0,0:0:0:0:
229,150,5970,1,0,0:0:0:0:
315,171,7354,1,0,0:0:0:0:
92,164,8228,1,0,0:0:0:0:
449,162,9611,1,0,0:0:0:0:
203,177,10558,1,0,0:0:0:0:
248,107,11868,1,0,0:0:0:0:
78,282,12815,1,0,0:0:0:0:
288,179,13689,1,0,0:0:0:0:
250,162,13834,1,0,0:0:0:0:
205,161,13980,1,0,0:0:0:0:
248,160,14126,1,0,0:0:0:0:
256,192,16310,12,0,18058,0:0:0:0:
126,117,18640,6,0,L|413:106,1,280
390,259,20388,2,0,L|145:272,1,245
152,176,21771,2,0,P|389:145|390:301,1,455
341,269,23883,1,0,0:0:0:0:
271,211,24247,1,0,0:0:0:0:
249,190,24393,1,0,0:0:0:0:
251,159,24538,1,0,0:0:0:0:
259,137,24611,1,0,0:0:0:0:
288,100,24757,1,0,0:0:0:0:
288,100,24975,1,0,0:0:0:0:
444,173,25631,1,0,0:0:0:0:
401,170,25776,1,0,0:0:0:0:
361,167,25922,1,0,0:0:0:0:
313,164,26140,1,0,0:0:0:0:
279,164,26286,1,0,0:0:0:0:
241,168,26432,1,0,0:0:0:0:
206,188,26577,1,0,0:0:0:0:
255,206,26796,1,0,0:0:0:0:
295,210,26941,1,0,0:0:0:0:
330,166,27160,1,0,0:0:0:0:
305,132,27305,1,0,0:0:0:0:
154,183,27961,1,0,0:0:0:0:
313,161,28616,1,0,0:0:0:0:
253,121,28907,1,0,0:0:0:0:
223,248,29417,1,0,0:0:0:0:
264,245,29563,1,0,0:0:0:0:
278,143,30000,1,0,0:0:0:0:
241,135,30145,1,0,0:0:0:0:
187,228,30582,1,0,0:0:0:0:
223,238,30728,1,0,0:0:0:0:
263,166,31092,1,0,0:0:0:0:
241,148,31237,1,0,0:0:0:0:
163,179,31601,1,0,0:0:0:0:
177,213,31747,1,0,0:0:0:0:
269,183,32111,1,0,0:0:0:0:
263,135,32330,1,0,0:0:0:0:
124,186,32912,1,0,0:0:0:0:
262,197,33422,1,0,0:0:0:0:
274,145,33640,1,0,0:0:0:0:
149,155,34150,1,0,0:0:0:0:
207,226,34514,1,0,0:0:0:0:
248,228,34660,1,0,0:0:0:0:
142,102,35315,1,0,0:0:0:0:
113,185,35679,1,0,0:0:0:0:
152,208,35898,1,0,0:0:0:0:
222,156,36262,1,0,0:0:0:0:
200,133,36407,1,0,0:0:0:0:
163,144,36553,1,0,0:0:0:0:
158,189,36771,1,0,0:0:0:0:
191,208,36917,1,0,0:0:0:0:
152,62,37500,1,0,0:0:0:0:
257,192,38155,1,0,0:0:0:0:
122,95,38810,1,0,0:0:0:0:
256,163,39393,1,0,0:0:0:0:
105,140,39975,1,0,0:0:0:0:
245,170,40558,1,0,0:0:0:0:
105,138,41140,1,0,0:0:0:0:
246,167,41723,1,0,0:0:0:0:
173,219,41796,1,0,0:0:0:0:
179,255,41941,1,0,0:0:0:0:
316,140,42087,1,0,0:0:0:0:
217,35,42233,1,0,0:0:0:0:
230,288,42451,1,0,0:0:0:0:
213,96,42597,1,0,0:0:0:0:
296,302,42815,1,0,0:0:0:0:
254,156,42961,1,0,0:0:0:0:
69,195,43106,1,0,0:0:0:0:
246,175,43252,1,0,0:0:0:0:
263,189,43470,1,0,0:0:0:0:
48,180,43689,1,0,0:0:0:0:
141,118,43980,1,0,0:0:0:0:
355,170,44199,1,0,0:0:0:0:
205,204,44344,1,0,0:0:0:0:
59,325,44490,1,0,0:0:0:0:
180,139,44708,1,0,0:0:0:0:
315,148,44854,1,0,0:0:0:0:
205,204,45000,1,0,0:0:0:0:
77,65,45145,1,0,0:0:0:0:
249,168,45291,1,0,0:0:0:0:
239,215,45509,1,0,0:0:0:0:
239,215,45655,1,0,0:0:0:0:
239,215,45873,1,0,0:0:0:0:
239,215,46019,1,0,0:0:0:0:
239,215,46237,1,0,0:0:0:0:
299,167,46383,1,0,0:0:0:0:
321,329,46529,1,0,0:0:0:0:
299,167,46601,1,0,0:0:0:0:
112,218,46747,1,0,0:0:0:0:
277,140,46893,1,0,0:0:0:0:
242,123,46966,1,0,0:0:0:0:
467,227,47111,1,0,0:0:0:0:
297,252,47257,1,0,0:0:0:0:
212,251,47330,1,0,0:0:0:0:
90,122,47475,1,0,0:0:0:0:
125,154,47548,1,0,0:0:0:0:
263,116,47621,1,0,0:0:0:0:
115,215,47766,1,0,0:0:0:0:
227,165,47912,1,0,0:0:0:0:
343,307,48058,1,0,0:0:0:0:
236,123,48276,1,0,0:0:0:0:
329,228,48422,1,0,0:0:0:0:
183,113,48567,1,0,0:0:0:0:
99,304,48786,1,0,0:0:0:0:
167,159,48932,1,0,0:0:0:0:
138,159,49004,1,0,0:0:0:0:
309,334,49150,1,0,0:0:0:0:
291,326,49223,1,0,0:0:0:0:
272,180,49296,1,0,0:0:0:0:
210,215,49368,1,0,0:0:0:0:
254,98,49441,1,0,0:0:0:0:
215,227,49587,1,0,0:0:0:0:
210,215,49733,1,0,0:0:0:0:
81,43,49951,1,0,0:0:0:0:
88,218,50097,1,0,0:0:0:0:
338,218,50315,1,0,0:0:0:0:
101,145,50533,1,0,0:0:0:0:
425,157,50825,1,0,0:0:0:0:
246,131,50970,1,0,0:0:0:0:
10,207,51189,1,0,0:0:0:0:
197,162,51334,1,0,0:0:0:0:
197,162,51553,1,0,0:0:0:0:
390,102,51735,1,0,0:0:0:0:
197,162,51771,1,0,0:0:0:0:
200,161,51808,1,8,0:0:0:0:
197,229,51881,1,0,0:0:0:0:
197,162,51917,1,0,0:0:0:0:
172,126,51990,1,8,0:0:0:0:
212,174,52063,1,0,0:0:0:0:
172,126,52172,1,8,0:0:0:0:
197,109,52245,1,0,0:0:0:0:
342,56,52281,1,0,0:0:0:0:
206,121,52317,1,8,0:0:0:0:
246,90,52390,1,0,0:0:0:0:
189,162,52427,1,0,0:0:0:0:
273,112,52500,1,8,0:0:0:0:
305,302,52645,1,0,0:0:0:0:
197,162,52791,1,0,0:0:0:0:
92,365,52864,1,0,0:0:0:0:
126,244,53009,1,0,0:0:0:0:
50,248,53155,1,0,0:0:0:0:
388,76,53228,1,0,0:0:0:0:
303,128,53300,1,0,0:0:0:0:
189,138,53446,1,0,0:0:0:0:
229,146,53519,1,0,0:0:0:0:
117,19,53665,1,0,0:0:0:0:
123,188,53810,1,0,0:0:0:0:
160,195,53883,1,0,0:0:0:0:
320,266,54029,1,0,0:0:0:0:
496,248,54101,1,0,0:0:0:0:
362,228,54247,1,0,0:0:0:0:
276,166,54320,1,0,0:0:0:0:
187,207,54393,1,0,0:0:0:0:
189,138,54466,1,0,0:0:0:0:
150,264,54611,1,0,0:0:0:0:
313,302,54684,1,0,0:0:0:0:
230,270,54757,1,0,0:0:0:0:
300,133,54830,1,0,0:0:0:0:
187,207,54975,1,0,0:0:0:0:
48,222,55048,1,0,0:0:0:0:
187,207,55121,1,0,0:0:0:0:
201,206,55339,1,0,0:0:0:0:
424,192,55558,1,0,0:0:0:0:
215,131,55703,1,0,0:0:0:0:
385,128,55849,1,0,0:0:0:0:
353,147,55922,1,0,0:0:0:0:
178,240,56067,1,0,0:0:0:0:
192,233,56140,1,0,0:0:0:0:
352,164,56213,1,0,0:0:0:0:
304,183,56286,1,0,0:0:0:0:
143,253,56432,1,0,0:0:0:0:
314,177,56577,1,0,0:0:0:0:
103,169,56759,1,0,0:0:0:0:
213,173,56868,1,0,0:0:0:0:
396,181,57050,1,0,0:0:0:0:
246,174,57196,1,0,0:0:0:0:
246,174,57342,1,0,0:0:0:0:
246,174,57487,1,0,0:0:0:0:
164,197,57560,1,0,0:0:0:0:
246,174,57633,1,0,0:0:0:0:
246,174,57779,1,0,0:0:0:0:
246,174,57924,1,0,0:0:0:0:
246,174,58070,1,0,0:0:0:0:
246,174,58216,1,0,0:0:0:0:
246,174,58398,1,0,0:0:0:0:
164,197,58507,1,0,0:0:0:0:
164,197,58580,1,8,0:0:0:0:
164,197,58689,1,0,0:0:0:0:
164,197,58762,1,8,0:0:0:0:
164,197,58871,1,0,0:0:0:0:
396,214,58907,1,0,0:0:0:0:
164,197,58944,1,8,0:0:0:0:
164,197,59053,1,0,0:0:0:0:
164,197,59089,1,8,0:0:0:0:
164,197,59199,1,0,0:0:0:0:
164,197,59271,1,8,0:0:0:0:
164,197,59344,1,0,0:0:0:0:
164,197,59453,1,8,0:0:0:0:
164,197,59526,1,0,0:0:0:0:
164,197,59599,1,8,0:0:0:0:
164,197,59635,1,0,0:0:0:0:
164,197,59745,1,8,0:0:0:0:
164,197,59817,1,0,0:0:0:0:
164,197,59890,1,8,0:0:0:0:
164,197,60036,1,0,0:0:0:0:
164,197,60072,1,8,0:0:0:0:
164,197,60145,1,0,0:0:0:0:
164,197,60182,1,8,0:0:0:0:
164,197,60254,1,0,0:0:0:0:
164,197,60400,1,0,0:0:0:0:
164,197,60473,1,8,0:0:0:0:
164,197,60582,1,0,0:0:0:0:
164,197,60618,1,8,0:0:0:0:
164,197,60728,1,0,0:0:0:0:
164,197,60800,1,8,0:0:0:0:
164,197,60873,1,0,0:0:0:0:
164,197,60983,1,8,0:0:0:0:
164,197,61055,1,0,0:0:0:0:
179,198,61092,1,0,0:0:0:0:
164,197,61128,1,8,0:0:0:0:
164,197,61201,1,0,0:0:0:0:
179,198,61274,1,0,0:0:0:0:
164,197,61310,1,8,0:0:0:0:
164,197,61383,1,0,0:0:0:0:
164,197,61456,1,8,0:0:0:0:
164,197,61565,1,0,0:0:0:0:
164,197,61711,1,0,0:0:0:0:
317,188,61747,1,0,0:0:0:0:
195,182,61820,1,8,0:0:0:0:
195,182,61893,1,0,0:0:0:0:
195,182,61966,1,8,0:0:0:0:
201,209,62002,1,0,0:0:0:0:
195,182,62038,1,0,0:0:0:0:
243,153,62111,1,0,0:0:0:0:
195,182,62148,1,8,0:0:0:0:
252,213,62184,1,8,0:0:0:0:
195,182,62220,1,0,0:0:0:0:
195,182,62293,1,8,0:0:0:0:
195,182,62366,1,0,0:0:0:0:
195,182,62439,1,8,0:0:0:0:
221,36,62475,1,0,0:0:0:0:
195,182,62548,1,0,0:0:0:0:
195,182,62621,1,8,0:0:0:0:
195,182,62694,1,0,0:0:0:0:
195,182,62730,1,8,0:0:0:0:
123,110,62803,1,0,0:0:0:0:
195,182,62876,1,0,0:0:0:0:
195,182,62876,1,8,0:0:0:0:
108,168,62949,1,0,0:0:0:0:
195,182,62985,1,0,0:0:0:0:
184,211,63058,1,8,0:0:0:0:
195,182,63131,1,0,0:0:0:0:
183,209,63203,1,8,0:0:0:0:
185,207,63240,1,8,0:0:0:0:
178,240,63276,1,0,0:0:0:0:
203,234,63313,1,0,0:0:0:0:
270,237,63385,1,8,0:0:0:0:
205,210,63458,1,0,0:0:0:0:
212,198,63495,1,0,0:0:0:0:
261,198,63567,1,8,0:0:0:0:
246,171,63640,1,0,0:0:0:0:
317,158,63713,1,8,0:0:0:0:
228,205,63822,1,0,0:0:0:0:
247,175,63895,1,8,0:0:0:0:
265,251,64004,1,0,0:0:0:0:
261,208,64077,1,8,0:0:0:0:
314,207,64150,1,0,0:0:0:0:
220,209,64259,1,8,0:0:0:0:
267,161,64332,1,0,0:0:0:0:
249,232,64405,1,8,0:0:0:0:
197,229,64478,1,0,0:0:0:0:
267,161,64587,1,8,0:0:0:0:
213,219,64660,1,0,0:0:0:0:
189,159,64733,1,8,0:0:0:0:
271,230,64842,1,0,0:0:0:0:
190,175,64951,1,8,0:0:0:0:
215,142,65024,1,0,0:0:0:0:
72,154,65169,1,8,0:0:0:0:
104,140,65242,1,0,0:0:0:0:
171,214,65351,1,0,0:0:0:0:
288,179,65461,1,8,0:0:0:0:
231,243,65570,1,0,0:0:0:0:
221,201,65643,1,8,0:0:0:0:
290,223,65716,1,0,0:0:0:0:
252,229,65788,1,8,0:0:0:0:
288,159,65861,1,0,0:0:0:0:
256,194,65934,1,8,0:0:0:0:
293,72,66043,1,0,0:0:0:0:
285,153,66116,1,8,0:0:0:0:
185,138,66225,1,0,0:0:0:0:
243,129,66298,1,8,0:0:0:0:
161,192,66407,1,0,0:0:0:0:
206,162,66480,1,8,0:0:0:0:
263,223,66589,1,0,0:0:0:0:
290,223,66662,1,8,0:0:0:0:
272,161,66735,1,0,0:0:0:0:
339,171,66808,1,8,0:0:0:0:
288,252,66917,1,0,0:0:0:0:
273,180,66990,1,8,0:0:0:0:
288,252,67099,1,0,0:0:0:0:
222,269,67172,1,8,0:0:0:0:
206,175,67281,1,0,0:0:0:0:
230,145,67317,1,8,0:0:0:0:
274,200,67427,1,0,0:0:0:0:
206,162,67500,1,8,0:0:0:0:
300,156,67609,1,0,0:0:0:0:
311,223,67682,1,8,0:0:0:0:
222,269,67754,1,0,0:0:0:0:
178,176,67864,1,8,0:0:0:0:
209,156,67936,1,0,0:0:0:0:
243,247,68046,1,8,0:0:0:0:
193,223,68118,1,0,0:0:0:0:
261,166,68228,1,8,0:0:0:0:
304,252,68337,1,0,0:0:0:0:
276,293,68373,1,8,0:0:0:0:
243,223,68446,1,0,0:0:0:0:
243,223,68519,1,8,0:0:0:0:
243,223,68628,1,0,0:0:0:0:
243,223,68701,1,8,0:0:0:0:
243,223,68774,1,0,0:0:0:0:
243,223,68847,1,8,0:0:0:0:
243,223,69320,1,0,0:0:0:0:
4,63,69575,1,8,0:0:0:0:
202,142,69757,1,0,0:0:0:0:
244,336,69939,1,8,0:0:0:0:
252,78,70157,1,0,0:0:0:0:
320,267,70339,1,8,0:0:0:0:
179,156,70521,1,0,0:0:0:0:
319,215,70667,1,8,0:0:0:0:
128,261,70849,1,0,0:0:0:0:
336,166,71067,1,8,0:0:0:0:
277,300,71286,1,0,0:0:0:0:
179,156,71468,1,8,0:0:0:0:
336,166,71650,1,0,0:0:0:0:
40,221,71905,1,8,0:0:0:0:
336,166,72233,1,0,0:0:0:0:
109,246,72451,1,8,0:0:0:0:
287,143,72633,1,0,0:0:0:0:
240,300,72779,1,8,0:0:0:0:
291,131,72924,1,0,0:0:0:0:
242,296,73106,1,8,0:0:0:0:
276,182,73398,1,0,0:0:0:0:
276,182,73543,1,8,0:0:0:0:
276,182,73725,1,0,0:0:0:0:
276,182,73871,1,8,0:0:0:0:
276,182,74053,1,0,0:0:0:0:
276,182,74199,1,8,0:0:0:0:
504,231,74417,1,0,0:0:0:0:
276,182,74599,1,8,0:0:0:0:
143,112,74745,1,0,0:0:0:0:
208,344,74963,1,0,0:0:0:0:
207,276,75036,1,0,0:0:0:0:
229,228,75109,1,8,0:0:0:0:
229,228,75254,1,0,0:0:0:0:
202,156,75327,1,8,0:0:0:0:
304,175,75436,1,0,0:0:0:0:
298,200,75473,1,8,0:0:0:0:
259,111,75582,1,0,0:0:0:0:
298,200,75655,1,8,0:0:0:0:
244,220,75728,1,0,0:0:0:0:
282,152,75800,1,8,0:0:0:0:
253,242,75910,1,0,0:0:0:0:
253,242,75946,1,8,0:0:0:0:
258,164,76019,1,0,0:0:0:0:
252,232,76092,1,8,0:0:0:0:
213,164,77876,1,0,0:0:0:0:
265,155,77949,1,8,0:0:0:0:
325,242,78058,1,0,0:0:0:0:
278,246,78131,1,8,0:0:0:0:
213,164,78203,1,0,0:0:0:0:
239,118,78276,1,8,0:0:0:0:
278,246,78385,1,0,0:0:0:0:
244,217,78458,1,8,0:0:0:0:
193,175,78531,1,0,0:0:0:0:
253,212,78604,1,8,0:0:0:0:
278,246,78677,1,0,0:0:0:0:
312,201,79114,1,8,0:0:0:0:
312,201,79332,1,8,0:0:0:0:
272,184,79441,1,0,0:0:0:0:
312,201,79478,1,8,0:0:0:0:
171,207,79550,1,0,0:0:0:0:
215,142,79623,1,8,0:0:0:0:
312,201,79696,1,8,0:0:0:0:
184,272,79769,1,0,0:0:0:0:
182,262,79805,1,8,0:0:0:0:
312,201,79878,1,8,0:0:0:0:
260,189,79915,1,0,0:0:0:0:
312,201,79951,1,0,0:0:0:0:
221,226,79987,1,8,0:0:0:0:
312,201,80060,1,8,0:0:0:0:
312,201,80133,1,0,0:0:0:0:
312,201,80242,1,8,0:0:0:0:
312,201,80315,1,0,0:0:0:0:
278,199,80388,1,0,0:0:0:0:
312,201,80424,1,8,0:0:0:0:
238,272,80461,1,8,0:0:0:0:
312,201,80570,1,8,0:0:0:0:
312,201,80716,1,0,0:0:0:0:
312,201,80752,1,8,0:0:0:0:
312,201,80825,1,0,0:0:0:0:
312,201,80970,1,0,0:0:0:0:
312,201,81080,1,8,0:0:0:0:
312,201,81152,1,0,0:0:0:0:
312,201,81262,1,8,0:0:0:0:
312,201,81334,1,0,0:0:0:0:
312,201,81444,1,8,0:0:0:0:
312,201,81516,1,0,0:0:0:0:
239,242,81553,1,0,0:0:0:0:
239,242,81589,1,8,0:0:0:0:
312,201,81626,1,0,0:0:0:0:
242,139,81699,1,0,0:0:0:0:
312,201,81771,1,0,0:0:0:0:
312,201,81771,1,8,0:0:0:0:
198,135,81844,1,0,0:0:0:0:
312,201,81917,1,8,0:0:0:0:
285,169,81953,1,8,0:0:0:0:
312,201,81990,1,0,0:0:0:0:
289,231,82026,1,0,0:0:0:0:
289,231,82063,1,8,0:0:0:0:
239,242,82135,1,0,0:0:0:0:
198,186,82208,1,8,0:0:0:0:
203,182,82281,1,8,0:0:0:0:
188,218,82354,1,0,0:0:0:0:
314,195,82427,1,8,0:0:0:0:
207,157,82463,1,8,0:0:0:0:
261,214,82500,1,0,0:0:0:0:
289,231,82536,1,0,0:0:0:0:
261,214,82572,1,8,0:0:0:0:
256,212,82609,1,8,0:0:0:0:
185,203,82645,1,0,0:0:0:0:
285,169,82718,1,0,0:0:0:0:
276,214,82754,1,8,0:0:0:0:
239,242,82827,1,8,0:0:0:0:
215,206,82864,1,8,0:0:0:0:
230,182,82936,1,0,0:0:0:0:
215,206,82973,1,0,0:0:0:0:
289,231,83009,1,8,0:0:0:0:
215,206,83046,1,8,0:0:0:0:
188,218,83082,1,0,0:0:0:0:
215,206,83118,1,0,0:0:0:0:
270,180,83191,1,8,0:0:0:0:
215,206,83228,1,8,0:0:0:0:
285,187,83264,1,0,0:0:0:0:
215,206,83300,1,0,0:0:0:0:
234,222,83337,1,8,0:0:0:0:
218,162,83373,1,0,0:0:0:0:
215,206,83410,1,0,0:0:0:0:
215,206,83446,1,8,0:0:0:0:
259,216,83519,1,8,0:0:0:0:
178,108,83555,1,8,0:0:0:0:
289,254,83555,1,0,0:0:0:0:
261,214,83665,1,8,0:0:0:0:
204,211,83701,1,8,0:0:0:0:
276,214,83737,1,0,0:0:0:0:
193,159,83774,1,0,0:0:0:0:
193,159,83883,1,0,0:0:0:0:
193,159,83883,1,8,0:0:0:0:
262,233,83992,1,0,0:0:0:0:
262,233,83992,1,8,0:0:0:0:
208,161,84101,1,0,0:0:0:0:
304,225,84211,1,8,0:0:0:0:
352,62,84575,1,0,0:0:0:0:
350,79,84611,1,8,0:0:0:0:
252,127,84720,1,0,0:0:0:0:
286,126,84793,1,8,0:0:0:0:
323,222,84902,1,0,0:0:0:0:
345,266,84975,1,8,0:0:0:0:
318,213,85048,1,0,0:0:0:0:
326,239,85121,1,8,0:0:0:0:
292,230,86905,1,8,0:0:0:0:
292,230,86978,1,0,0:0:0:0:
273,113,87050,1,8,0:0:0:0:
269,294,87233,1,8,0:0:0:0:
253,265,87269,1,0,0:0:0:0:
129,228,87378,1,8,0:0:0:0:
117,112,87487,1,0,0:0:0:0:
185,96,87560,1,8,0:0:0:0:
290,139,87669,1,0,0:0:0:0:
222,173,87742,1,8,0:0:0:0:
156,273,87851,1,0,0:0:0:0:
178,213,87924,1,8,0:0:0:0:
178,213,88033,1,0,0:0:0:0:
178,213,88143,1,8,0:0:0:0:
178,213,88179,1,0,0:0:0:0:
178,213,88288,1,8,0:0:0:0:
178,213,88361,1,0,0:0:0:0:
178,213,88434,1,8,0:0:0:0:
178,213,88543,1,0,0:0:0:0:
178,213,88616,1,8,0:0:0:0:
178,213,88689,1,0,0:0:0:0:
178,213,88798,1,8,0:0:0:0:
178,213,88871,1,0,0:0:0:0:
178,213,88944,1,8,0:0:0:0:
246,193,89016,1,0,0:0:0:0:
336,199,89126,1,8,0:0:0:0:
408,229,89199,1,0,0:0:0:0:
319,219,89308,1,8,0:0:0:0:
263,175,89381,1,0,0:0:0:0:
263,175,89563,1,0,0:0:0:0:
175,216,89672,1,8,0:0:0:0:
106,157,89781,1,0,0:0:0:0:
148,141,89854,1,8,0:0:0:0:
227,145,89927,1,0,0:0:0:0:
315,201,90036,1,8,0:0:0:0:
206,231,90145,1,0,0:0:0:0:
175,216,90218,1,8,0:0:0:0:
227,145,90327,1,0,0:0:0:0:
314,137,90436,1,8,0:0:0:0:
299,140,90473,1,0,0:0:0:0:
299,140,90546,1,8,0:0:0:0:
299,140,90655,1,0,0:0:0:0:
374,181,90764,1,8,0:0:0:0:
374,181,90800,1,0,0:0:0:0:
262,242,90946,1,8,0:0:0:0:
246,240,90983,1,0,0:0:0:0:
180,170,91092,1,8,0:0:0:0:
269,129,91201,1,0,0:0:0:0:
299,186,91274,1,8,0:0:0:0:
190,196,91383,1,0,0:0:0:0:
221,125,91456,1,8,0:0:0:0:
267,100,91529,1,0,0:0:0:0:
374,181,91638,1,8,0:0:0:0:
290,232,91747,1,0,0:0:0:0:
233,234,91820,1,8,0:0:0:0:
180,170,91893,1,0,0:0:0:0:
249,155,91966,1,8,0:0:0:0:
249,155,92439,1,0,0:0:0:0:
23,144,92657,1,8,0:0:0:0:
410,184,92985,1,0,0:0:0:0:
152,180,93203,1,8,0:0:0:0:
447,233,93458,1,0,0:0:0:0:
206,59,93713,1,8,0:0:0:0:
122,191,94077,1,0,0:0:0:0:
308,232,94259,1,8,0:0:0:0:
256,215,94332,1,0,0:0:0:0:
205,174,94405,1,8,0:0:0:0:
300,195,94514,1,0,0:0:0:0:
300,195,94514,1,8,0:0:0:0:
298,360,94660,1,0,0:0:0:0:
262,327,94733,1,8,0:0:0:0:
224,244,94842,1,0,0:0:0:0:
249,201,94915,1,8,0:0:0:0:
332,201,94987,1,0,0:0:0:0:
364,266,95060,1,8,0:0:0:0:
267,246,95169,1,0,0:0:0:0:
234,216,95242,1,8,0:0:0:0:
473,139,95461,1,0,0:0:0:0:
226,164,95679,1,0,0:0:0:0:
443,181,95861,1,8,0:0:0:0:
238,177,96043,1,0,0:0:0:0:
416,208,96225,1,8,0:0:0:0:
254,201,96371,1,0,0:0:0:0:
281,5,96553,1,8,0:0:0:0:
52,247,96990,1,0,0:0:0:0:
412,157,97317,1,8,0:0:0:0:
184,188,97536,1,0,0:0:0:0:
180,241,98009,1,8,0:0:0:0:
108,57,98191,1,0,0:0:0:0:
384,321,98519,1,8,0:0:0:0:
210,190,98701,1,0,0:0:0:0:
271,289,99065,1,8,0:0:0:0:
118,108,99283,1,0,0:0:0:0:
249,265,99648,1,8,0:0:0:0:
210,190,99720,1,0,0:0:0:0:
312,159,99830,1,8,0:0:0:0:
234,175,99902,1,0,0:0:0:0:
298,162,99975,1,8,0:0:0:0:
192,190,100084,1,0,0:0:0:0:
242,178,100157,1,8,0:0:0:0:
301,169,100230,1,0,0:0:0:0:
237,180,100303,1,8,0:0:0:0:
318,166,100376,1,0,0:0:0:0:
235,180,100449,1,8,0:0:0:0:
324,165,100558,1,0,0:0:0:0:
270,174,100631,1,8,0:0:0:0:
270,174,100703,1,0,0:0:0:0:
270,174,100776,1,8,0:0:0:0:
270,174,100885,1,0,0:0:0:0:
270,174,100922,1,8,0:0:0:0:
404,247,101395,1,0,0:0:0:0:
350,273,101468,1,8,0:0:0:0:
281,253,101577,1,0,0:0:0:0:
213,238,101650,1,8,0:0:0:0:
268,199,101723,1,0,0:0:0:0:
371,232,101832,1,8,0:0:0:0:
242,185,101978,1,0,0:0:0:0:
221,133,102014,1,8,0:0:0:0:
274,313,102196,1,0,0:0:0:0:
274,313,102196,1,8,0:0:0:0:
357,190,102633,1,0,0:0:0:0:
281,146,103216,1,8,0:0:0:0:
260,253,103798,1,0,0:0:0:0:
346,275,104126,1,8,0:0:0:0:
411,22,104344,1,0,0:0:0:0:
231,128,104526,1,8,0:0:0:0:
30,264,104745,1,0,0:0:0:0:
242,241,104927,1,8,0:0:0:0:
242,241,105145,1,0,0:0:0:0:
321,79,105327,1,8,0:0:0:0:
151,99,105473,1,0,0:0:0:0:
195,257,106055,1,8,0:0:0:0:
166,231,106638,1,0,0:0:0:0:
294,268,107148,1,8,0:0:0:0:
256,56,107330,1,0,0:0:0:0:
223,208,107475,1,8,0:0:0:0:
434,301,107694,1,0,0:0:0:0:
352,228,108240,1,8,0:0:0:0:
157,109,108458,1,0,0:0:0:0:
245,204,108567,1,8,0:0:0:0:
121,224,108713,1,0,0:0:0:0:
258,199,108859,1,8,0:0:0:0:
66,149,109041,1,0,0:0:0:0:
263,185,109223,1,8,0:0:0:0:
59,240,109405,1,0,0:0:0:0:
220,202,109550,1,8,0:0:0:0:
322,312,109696,1,0,0:0:0:0:
301,245,109769,1,8,0:0:0:0:
370,185,109878,1,0,0:0:0:0:
301,245,109915,1,8,0:0:0:0:
288,201,110533,1,0,0:0:0:0:
360,213,110606,1,8,0:0:0:0:
259,149,110716,1,0,0:0:0:0:
187,173,110788,1,8,0:0:0:0:
187,173,110898,1,0,0:0:0:0:
128,206,110970,1,8,0:0:0:0:
209,273,111080,1,0,0:0:0:0:
288,201,111152,1,8,0:0:0:0:
339,110,111262,1,0,0:0:0:0:
143,262,111662,1,0,0:0:0:0:
212,166,112063,1,8,0:0:0:0:
52,133,112208,1,0,0:0:0:0:
250,193,112390,1,8,0:0:0:0:
116,41,112572,1,0,0:0:0:0:
254,144,112718,1,8,0:0:0:0:
123,215,113483,2,0,B|320:148|146:146|316:158,1,210
332,119,113628,1,8,0:0:0:0:
332,119,113810,1,8,0:0:0:0:
332,119,113992,1,8,0:0:0:0:
332,119,114138,1,8,0:0:0:0:
332,119,114283,1,8,0:0:0:0:
332,119,114429,1,8,0:0:0:0:
332,119,114575,1,8,0:0:0:0:
332,119,114720,1,8,0:0:0:0:
332,119,114866,1,8,0:0:0:0:
332,119,115012,1,8,0:0:0:0:
330,121,115157,1,8,0:0:0:0:
65,15,115194,1,0,0:0:0:0:
330,121,115303,1,8,0:0:0:0:
330,121,115449,1,8,0:0:0:0:
330,121,115594,1,8,0:0:0:0:
123,215,116067,2,0,B|320:148|146:146|316:158,1,210
123,215,116213,2,0,B|320:148|146:146|316:158,1,210
79,33,116322,1,8,0:0:0:0:
79,33,116504,1,8,0:0:0:0:
79,33,116614,1,8,0:0:0:0:
79,33,116759,1,8,0:0:0:0:
79,33,116868,1,8,0:0:0:0:
79,33,117014,1,8,0:0:0:0:
79,33,117123,1,8,0:0:0:0:
102,56,117160,1,8,0:0:0:0:
79,33,117269,1,8,0:0:0:0:
84,38,117305,1,0,0:0:0:0:
122,84,117378,1,8,0:0:0:0:
195,171,117487,1,0,0:0:0:0:
229,196,117560,1,0,0:0:0:0:
194,135,117633,1,0,0:0:0:0:
229,196,117706,1,8,0:0:0:0:
79,33,117742,1,8,0:0:0:0:
91,82,117815,1,0,0:0:0:0:
88,155,117888,1,8,0:0:0:0:
126,239,117997,1,8,0:0:0:0:
113,206,118033,1,0,0:0:0:0:
113,206,118143,1,8,0:0:0:0:
113,206,118216,1,0,0:0:0:0:
113,206,118325,1,8,0:0:0:0:
147,172,118398,1,0,0:0:0:0:
159,144,118434,1,0,0:0:0:0:
159,144,118434,1,8,0:0:0:0:
182,133,118507,1,8,0:0:0:0:
200,196,118580,1,0,0:0:0:0:
200,196,118580,1,0,0:0:0:0:
200,196,118580,1,8,0:0:0:0:
112,165,118689,1,8,0:0:0:0:
154,118,118762,1,0,0:0:0:0:
154,118,118762,1,0,0:0:0:0:
154,118,118762,1,8,0:0:0:0:
253,199,118907,1,8,0:0:0:0:
200,196,118944,1,0,0:0:0:0:
200,196,118944,1,0,0:0:0:0:
154,118,118980,1,8,0:0:0:0:
262,110,119089,1,8,0:0:0:0:
269,114,119126,1,0,0:0:0:0:
269,114,119126,1,0,0:0:0:0:
269,114,119126,1,8,0:0:0:0:
261,178,119199,1,8,0:0:0:0:
198,93,119308,1,0,0:0:0:0:
198,93,119308,1,0,0:0:0:0:
200,90,119344,1,8,0:0:0:0:
204,90,119381,1,8,0:0:0:0:
280,222,119526,1,0,0:0:0:0:
280,222,119526,1,0,0:0:0:0:
265,223,119599,1,8,0:0:0:0:
244,198,119672,1,8,0:0:0:0:
287,132,119745,1,0,0:0:0:0:
306,124,119781,1,0,0:0:0:0:
318,132,119817,1,8,0:0:0:0:
233,232,119963,1,8,0:0:0:0:
218,211,120036,1,0,0:0:0:0:
212,161,120072,1,0,0:0:0:0:
231,187,120109,1,8,0:0:0:0:
318,229,120218,1,8,0:0:0:0:
229,275,120327,1,0,0:0:0:0:
225,273,120400,1,0,0:0:0:0:
225,273,120400,1,8,0:0:0:0:
293,87,120582,1,8,0:0:0:0:
361,136,120691,1,0,0:0:0:0:
383,181,120728,1,0,0:0:0:0:
375,229,120800,1,8,0:0:0:0:
201,163,120983,1,8,0:0:0:0:
226,97,121055,1,0,0:0:0:0:
383,181,121201,1,0,0:0:0:0:
383,181,121201,1,8,0:0:0:0:
177,200,121419,1,8,0:0:0:0:
156,175,121492,1,0,0:0:0:0:
175,128,121565,1,0,0:0:0:0:
214,117,121601,1,8,0:0:0:0:
271,256,121747,1,8,0:0:0:0:
167,153,121893,1,0,0:0:0:0:
179,106,121929,1,0,0:0:0:0:
179,106,121929,1,8,0:0:0:0:
271,256,122111,1,8,0:0:0:0:
218,248,122184,1,0,0:0:0:0:
218,248,122184,1,8,0:0:0:0:
193,200,122730,1,8,0:0:0:0:
208,172,122766,1,0,0:0:0:0:
208,172,122766,1,0,0:0:0:0:
208,172,122766,1,8,0:0:0:0:
145,198,123058,1,8,0:0:0:0:
182,155,123131,1,0,0:0:0:0:
182,155,123131,1,0,0:0:0:0:
209,149,123167,1,8,0:0:0:0:
270,96,123567,1,8,0:0:0:0:
292,100,123640,1,0,0:0:0:0:
331,124,123677,1,0,0:0:0:0:
331,124,123677,1,8,0:0:0:0:
353,163,124041,1,8,0:0:0:0:
414,198,124114,1,0,0:0:0:0:
403,213,124150,1,8,0:0:0:0:
209,195,124623,1,8,0:0:0:0:
209,195,124733,1,0,0:0:0:0:
209,195,124842,1,8,0:0:0:0:
209,195,124915,1,0,0:0:0:0:
209,195,124987,1,8,0:0:0:0:
209,195,125060,1,0,0:0:0:0:
209,195,125169,1,8,0:0:0:0:
209,195,125242,1,0,0:0:0:0:
209,195,125315,1,8,0:0:0:0:
209,195,125351,1,0,0:0:0:0:
209,195,125497,1,8,0:0:0:0:
209,195,125570,1,0,0:0:0:0:
209,195,125643,1,8,0:0:0:0:
276,212,125752,1,0,0:0:0:0:
226,198,125825,1,8,0:0:0:0:
226,198,125934,1,0,0:0:0:0:
226,198,126007,1,8,0:0:0:0:
226,198,126043,1,0,0:0:0:0:
226,198,126116,1,8,0:0:0:0:
226,198,126189,1,0,0:0:0:0:
226,198,126225,1,0,0:0:0:0:
226,198,126298,1,8,0:0:0:0:
226,198,126371,1,0,0:0:0:0:
226,198,126407,1,0,0:0:0:0:
226,198,126516,1,8,0:0:0:0:
226,198,126589,1,0,0:0:0:0:
226,198,126626,1,0,0:0:0:0:
226,198,126699,1,8,0:0:0:0:
226,198,126735,1,0,0:0:0:0:
226,198,126735,1,0,0:0:0:0:
226,198,126844,1,8,0:0:0:0:
251,209,126881,1,0,0:0:0:0:
350,206,126990,1,8,0:0:0:0:
350,206,127063,1,0,0:0:0:0:
350,206,127099,1,0,0:0:0:0:
330,222,127135,1,8,0:0:0:0:
249,192,127245,1,0,0:0:0:0:
249,192,127245,1,0,0:0:0:0:
268,128,127317,1,8,0:0:0:0:
257,216,127427,1,0,0:0:0:0:
257,216,127427,1,0,0:0:0:0:
222,203,127500,1,8,0:0:0:0:
268,128,127609,1,0,0:0:0:0:
268,128,127609,1,0,0:0:0:0:
201,167,127718,1,8,0:0:0:0:
214,141,127754,1,0,0:0:0:0:
234,139,127791,1,0,0:0:0:0:
144,221,127900,1,8,0:0:0:0:
148,201,127936,1,0,0:0:0:0:
157,189,128009,1,0,0:0:0:0:
198,190,128082,1,8,0:0:0:0:
220,239,128118,1,0,0:0:0:0:
220,239,128118,1,0,0:0:0:0:
179,224,128191,1,8,0:0:0:0:
201,167,128228,1,0,0:0:0:0:
201,167,128228,1,0,0:0:0:0:
239,213,128774,1,8,0:0:0:0:
239,213,128810,1,8,0:0:0:0:
321,215,128919,1,0,0:0:0:0:
321,215,128919,1,0,0:0:0:0:
321,215,128919,1,8,0:0:0:0:
281,279,129029,1,8,0:0:0:0:
220,239,129065,1,0,0:0:0:0:
220,239,129065,1,0,0:0:0:0:
224,147,129174,1,8,0:0:0:0:
285,170,129247,1,8,0:0:0:0:
187,230,129356,1,8,0:0:0:0:
239,213,129429,1,0,0:0:0:0:
239,213,129466,1,0,0:0:0:0:
242,181,129502,1,8,0:0:0:0:
242,181,129575,1,0,0:0:0:0:
242,181,129575,1,8,0:0:0:0:
242,181,129575,1,0,0:0:0:0:
242,181,129575,1,8,0:0:0:0:
239,213,129757,1,8,0:0:0:0:
87,331,129793,1,0,0:0:0:0:
87,331,129793,1,8,0:0:0:0:
143,239,129902,1,8,0:0:0:0:
224,147,129939,1,0,0:0:0:0:
285,170,129975,1,0,0:0:0:0:
285,170,129975,1,8,0:0:0:0:
240,290,130121,1,8,0:0:0:0:
187,230,130157,1,8,0:0:0:0:
242,126,130266,1,8,0:0:0:0:
266,175,130339,1,0,0:0:0:0:
283,205,130376,1,0,0:0:0:0:
283,205,130376,1,8,0:0:0:0:
220,286,130485,1,8,0:0:0:0:
193,239,130558,1,0,0:0:0:0:
285,170,130667,1,8,0:0:0:0:
159,226,130885,1,8,0:0:0:0:
224,147,130958,1,0,0:0:0:0:
224,147,130958,1,0,0:0:0:0:
224,147,130958,1,8,0:0:0:0:
273,209,131031,1,8,0:0:0:0:
277,228,131067,1,8,0:0:0:0:
258,234,131140,1,0,0:0:0:0:
243,220,131177,1,8,0:0:0:0:
236,166,131250,1,0,0:0:0:0:
236,166,131286,1,0,0:0:0:0:
236,166,131286,1,8,0:0:0:0:
285,237,131395,1,8,0:0:0:0:
250,186,131468,1,0,0:0:0:0:
250,186,131468,1,0,0:0:0:0:
250,186,131504,1,8,0:0:0:0:
250,186,131577,1,8,0:0:0:0:
273,209,131650,1,0,0:0:0:0:
273,209,131686,1,0,0:0:0:0:
273,209,131723,1,8,0:0:0:0:
195,192,131832,1,8,0:0:0:0:
157,168,131868,1,0,0:0:0:0:
171,170,131905,1,0,0:0:0:0:
171,170,131905,1,8,0:0:0:0:
273,209,131978,1,0,0:0:0:0:
273,209,131978,1,8,0:0:0:0:
202,226,132087,1,0,0:0:0:0:
185,167,132160,1,8,0:0:0:0:
191,163,132196,1,0,0:0:0:0:
250,186,132233,1,0,0:0:0:0:
250,186,132233,1,8,0:0:0:0:
191,228,132342,1,8,0:0:0:0:
168,191,132415,1,0,0:0:0:0:
215,165,132487,1,8,0:0:0:0:
190,273,132597,1,0,0:0:0:0:
184,267,132633,1,8,0:0:0:0:
178,261,132669,1,0,0:0:0:0:
204,174,132779,1,0,0:0:0:0:
204,174,132779,1,0,0:0:0:0:
204,174,132779,1,8,0:0:0:0:
190,273,132888,1,8,0:0:0:0:
138,192,132997,1,0,0:0:0:0:
138,192,132997,1,0,0:0:0:0:
169,143,133033,1,8,0:0:0:0:
177,138,133070,1,8,0:0:0:0:
174,222,133179,1,0,0:0:0:0:
104,232,133216,1,0,0:0:0:0:
106,198,133288,1,8,0:0:0:0:
156,180,133361,1,0,0:0:0:0:
156,180,133361,1,0,0:0:0:0:
193,197,133398,1,8,0:0:0:0:
112,170,133507,1,8,0:0:0:0:
273,168,133652,1,8,0:0:0:0:
174,222,133762,1,8,0:0:0:0:
138,192,133798,1,0,0:0:0:0:
161,196,133834,1,0,0:0:0:0:
310,229,134271,1,0,0:0:0:0:
310,229,134344,1,0,0:0:0:0:
310,229,134453,1,0,0:0:0:0:
310,229,134490,1,0,0:0:0:0:
310,229,134563,1,0,0:0:0:0:
310,229,134635,1,0,0:0:0:0:
310,229,134745,1,0,0:0:0:0:
222,195,135473,1,0,0:0:0:0:
222,195,135473,1,0,0:0:0:0:
222,195,135546,1,0,0:0:0:0:
222,195,135655,1,0,0:0:0:0:
222,195,135728,1,0,0:0:0:0:
222,195,135837,1,0,0:0:0:0:
222,195,135910,1,0,0:0:0:0:
222,195,135983,1,0,0:0:0:0:
222,195,136092,1,0,0:0:0:0:
222,195,136165,1,0,0:0:0:0:
222,195,136274,1,0,0:0:0:0:
222,195,136347,1,0,0:0:0:0:
222,195,136456,1,0,0:0:0:0:
222,195,136565,1,0,0:0:0:0:
252,277,136674,1,0,0:0:0:0:
195,272,136747,1,0,0:0:0:0:
162,199,136820,1,0,0:0:0:0:
236,285,136929,1,0,0:0:0:0:
309,229,137257,1,0,0:0:0:0:
309,229,137293,1,0,0:0:0:0:
309,229,137366,1,0,0:0:0:0:
309,229,137439,1,0,0:0:0:0:
309,229,137548,1,0,0:0:0:0:
309,229,137621,1,0,0:0:0:0:
309,229,137694,1,0,0:0:0:0:
309,229,137766,1,0,0:0:0:0:
309,229,137839,1,0,0:0:0:0:
309,229,137912,1,0,0:0:0:0:
309,229,137985,1,0,0:0:0:0:
309,229,138058,1,0,0:0:0:0:
328,95,138458,1,0,0:0:0:0:
328,95,138458,1,0,0:0:0:0:
181,130,138604,1,0,0:0:0:0:
241,120,138677,1,0,0:0:0:0:
214,188,138750,1,0,0:0:0:0:
214,134,138822,1,0,0:0:0:0:
264,229,138932,1,0,0:0:0:0:
224,211,139004,1,0,0:0:0:0:
264,143,139077,1,0,0:0:0:0:
257,197,139150,1,0,0:0:0:0:
245,93,139259,1,0,0:0:0:0:
245,92,139296,1,0,0:0:0:0:
162,179,139441,1,0,0:0:0:0:
170,167,139478,1,0,0:0:0:0:
237,207,139550,1,0,0:0:0:0:
170,167,139660,1,0,0:0:0:0:
262,188,142063,1,0,0:0:0:0:
262,188,142099,1,0,0:0:0:0:
154,252,142208,1,0,0:0:0:0:
123,191,142281,1,0,0:0:0:0:
164,143,142354,1,0,0:0:0:0:
262,188,142427,1,0,0:0:0:0:
188,125,142500,1,0,0:0:0:0:
326,143,142609,1,0,0:0:0:0:
276,244,142718,1,0,0:0:0:0:
278,179,142791,1,0,0:0:0:0:
364,210,142864,1,0,0:0:0:0:
248,245,142973,1,0,0:0:0:0:
248,171,143046,1,0,0:0:0:0:
364,210,143155,1,0,0:0:0:0:
304,210,143228,1,0,0:0:0:0:
280,154,143300,1,0,0:0:0:0:
364,210,143373,1,0,0:0:0:0:
247,229,143483,1,0,0:0:0:0:
214,138,143555,1,0,0:0:0:0:
293,125,143628,1,0,0:0:0:0:
211,208,143737,1,0,0:0:0:0:
230,189,143774,1,0,0:0:0:0:
280,154,143883,1,0,0:0:0:0:
280,154,143956,1,0,0:0:0:0:
280,154,144029,1,0,0:0:0:0:
280,154,144138,1,0,0:0:0:0:
280,154,144174,1,0,0:0:0:0:
247,229,144283,1,0,0:0:0:0:
186,211,144356,1,0,0:0:0:0:
212,182,144393,1,0,0:0:0:0:
328,329,144538,1,8,0:0:0:0:
247,229,144575,1,0,0:0:0:0:
265,147,144648,1,8,0:0:0:0:
346,240,144757,1,0,0:0:0:0:
248,186,144866,1,8,0:0:0:0:
248,147,144902,1,0,0:0:0:0:
248,147,144902,1,0,0:0:0:0:
346,240,145012,1,8,0:0:0:0:
289,238,145084,1,0,0:0:0:0:
257,224,145121,1,0,0:0:0:0:
248,147,145230,1,8,0:0:0:0:
364,116,145266,1,0,0:0:0:0:
364,116,145266,1,0,0:0:0:0:
247,229,145339,1,8,0:0:0:0:
247,229,145339,1,0,0:0:0:0:
247,229,145339,1,8,0:0:0:0:
247,229,145594,1,8,0:0:0:0:
303,284,145667,1,0,0:0:0:0:
225,276,145740,1,8,0:0:0:0:
220,175,145849,1,0,0:0:0:0:
220,175,145849,1,0,0:0:0:0:
260,184,145922,1,8,0:0:0:0:
223,191,145995,1,8,0:0:0:0:
194,136,146031,1,0,0:0:0:0:
194,136,146031,1,0,0:0:0:0:
231,157,146067,1,8,0:0:0:0:
89,300,146250,1,0,0:0:0:0:
89,300,146250,1,8,0:0:0:0:
89,300,146250,1,0,0:0:0:0:
5,71,146286,1,8,0:0:0:0:
56,86,146359,1,8,0:0:0:0:
94,115,146395,1,0,0:0:0:0:
94,115,146395,1,8,0:0:0:0:
303,284,146432,1,0,0:0:0:0:
194,136,146541,1,0,0:0:0:0:
194,136,146541,1,8,0:0:0:0:
256,147,146614,1,8,0:0:0:0:
288,244,146723,1,0,0:0:0:0:
288,244,146723,1,8,0:0:0:0:
222,284,146759,1,0,0:0:0:0:
239,239,146832,1,8,0:0:0:0:
297,250,146905,1,0,0:0:0:0:
297,250,146905,1,8,0:0:0:0:
320,296,146941,1,0,0:0:0:0:
400,154,147087,1,8,0:0:0:0:
483,172,147123,1,0,0:0:0:0:
394,192,147160,1,0,0:0:0:0:
394,192,147160,1,8,0:0:0:0:
308,135,147269,1,8,0:0:0:0:
308,135,147269,1,8,0:0:0:0:
303,70,147305,1,0,0:0:0:0:
400,154,147342,1,0,0:0:0:0:
334,205,147451,1,0,0:0:0:0:
334,205,147451,1,8,0:0:0:0:
263,163,147487,1,0,0:0:0:0:
263,163,147487,1,8,0:0:0:0:
309,172,147560,1,8,0:0:0:0:
288,244,147597,1,0,0:0:0:0:
288,244,147597,1,8,0:0:0:0:
205,296,147633,1,0,0:0:0:0:
205,296,147633,1,8,0:0:0:0:
269,174,147669,1,0,0:0:0:0:
181,199,147742,1,0,0:0:0:0:
181,199,147742,1,8,0:0:0:0:
269,174,147779,1,8,0:0:0:0:
269,174,147815,1,0,0:0:0:0:
203,209,147851,1,8,0:0:0:0:
140,142,147961,1,8,0:0:0:0:
269,174,147997,1,0,0:0:0:0:
174,140,148033,1,0,0:0:0:0:
187,190,148106,1,8,0:0:0:0:
185,194,148143,1,0,0:0:0:0:
185,194,148143,1,8,0:0:0:0:
269,174,148143,1,8,0:0:0:0:
269,174,148179,1,0,0:0:0:0:
332,238,148288,1,0,0:0:0:0:
332,238,148288,1,8,0:0:0:0:
328,244,148325,1,8,0:0:0:0:
269,174,148325,1,8,0:0:0:0:
269,174,148398,1,0,0:0:0:0:
269,174,148434,1,8,0:0:0:0:
309,172,148507,1,0,0:0:0:0:
309,172,148507,1,0,0:0:0:0:
309,172,148507,1,8,0:0:0:0:
269,174,148543,1,0,0:0:0:0:
269,174,148543,1,8,0:0:0:0:
175,77,148652,1,0,0:0:0:0:
175,77,148652,1,8,0:0:0:0:
266,53,148689,1,0,0:0:0:0:
271,59,148762,1,8,0:0:0:0:
209,111,148834,1,8,0:0:0:0:
175,77,148907,1,0,0:0:0:0:
175,77,148907,1,8,0:0:0:0:
292,111,148944,1,0,0:0:0:0:
269,204,149053,1,8,0:0:0:0:
187,190,149089,1,0,0:0:0:0:
260,155,149126,1,0,0:0:0:0:
260,155,149126,1,8,0:0:0:0:
229,284,149271,1,0,0:0:0:0:
229,284,149271,1,8,0:0:0:0:
229,284,149271,1,0,0:0:0:0:
105,266,149308,1,8,0:0:0:0:
110,257,149344,1,8,0:0:0:0:
130,244,149417,1,0,0:0:0:0:
201,264,149453,1,0,0:0:0:0:
201,264,149453,1,8,0:0:0:0:
285,175,150291,1,0,0:0:0:0:
285,175,150327,1,0,0:0:0:0:
285,175,150473,1,0,0:0:0:0:
285,175,150509,1,0,0:0:0:0:
285,175,150618,1,0,0:0:0:0:
285,175,150691,1,0,0:0:0:0:
285,175,150764,1,0,0:0:0:0:
285,175,150837,1,0,0:0:0:0:
285,175,151565,1,0,0:0:0:0:
285,175,151638,1,0,0:0:0:0:
285,175,151747,1,0,0:0:0:0:
285,175,151820,1,0,0:0:0:0:
285,175,151893,1,0,0:0:0:0:
285,175,151966,1,0,0:0:0:0:
285,175,152803,1,0,0:0:0:0:
285,175,152876,1,0,0:0:0:0:
285,175,152985,1,0,0:0:0:0:
285,175,153058,1,0,0:0:0:0:
285,175,153167,1,0,0:0:0:0:
285,175,153240,1,0,0:0:0:0:
285,175,153349,1,0,0:0:0:0:
285,175,153422,1,0,0:0:0:0:
285,175,154077,1,0,0:0:0:0:
285,175,154150,1,0,0:0:0:0:
285,175,154259,1,0,0:0:0:0:
285,175,154332,1,0,0:0:0:0:
285,175,154441,1,0,0:0:0:0:
285,175,154550,1,0,0:0:0:0:
285,175,154660,1,0,0:0:0:0:
285,175,154733,1,0,0:0:0:0:
285,175,154842,1,0,0:0:0:0:
285,175,154915,1,0,0:0:0:0:
285,175,155060,1,0,0:0:0:0:
285,175,155097,1,0,0:0:0:0:
285,175,155242,1,0,0:0:0:0:
285,175,155351,1,0,0:0:0:0:
285,175,155461,1,0,0:0:0:0:
285,175,155533,1,0,0:0:0:0:
285,175,155679,1,0,0:0:0:0:
285,175,155752,1,0,0:0:0:0:
285,175,155898,1,0,0:0:0:0:
285,175,155934,1,0,0:0:0:0:
285,175,156116,1,0,0:0:0:0:
285,175,156152,1,0,0:0:0:0:
285,175,156334,1,0,0:0:0:0:
285,175,156371,1,0,0:0:0:0:
383,255,160048,5,8,0:0:0:0:
378,276,160121,1,0,0:0:0:0:
300,289,160157,1,0,0:0:0:0:
329,210,160230,1,0,0:0:0:0:
329,210,160230,1,8,0:0:0:0:
152,173,160376,1,8,0:0:0:0:
152,173,160376,1,8,0:0:0:0:
