osu file format v14

[General]
AudioFilename: audio.ogg
AudioLeadIn: 0
PreviewTime: 17619
Countdown: 0
SampleSet: Normal
StackLeniency: 0.7
Mode: 1
LetterboxInBreaks: 0
WidescreenStoryboard: 1

[Editor]
DistanceSpacing: 0.8
BeatDivisor: 12
GridSize: 32
TimelineZoom: 2.799999

[Metadata]
Title:Ongaku
TitleUnicode:音楽
Artist:Benshi Cantabileo
ArtistUnicode:弁士カンタビレオ
Creator:Eyenine
Version:Futsuu
Source:pop'n music 17 THE MOVIE
Tags:classical instrumental video game silent virkato wakhmaninov wakita jun wac 脇田潤 popn beatmania IIDX 20 tricoro reflec beat サイレント
BeatmapID:3272862
BeatmapSetID:1565079

[Difficulty]
HPDrainRate:8
CircleSize:5
OverallDifficulty:4
ApproachRate:5
SliderMultiplier:1.4
SliderTickRate:1

[Events]
//Background and Video events
0,0,"haikyotopiano.jpg",0,-75
//Break Periods
//Storyboard Layer 0 (Background)
//Storyboard Layer 1 (Fail)
//Storyboard Layer 2 (Pass)
//Storyboard Layer 3 (Foreground)
//Storyboard Layer 4 (Overlay)
//Storyboard Sound Samples

[TimingPoints]
354,489.795918367347,5,1,0,20,1,0
2559,489.795918367347,3,1,0,15,1,0
8427,489.795918367347,4,1,0,20,1,0
8427,-100,4,1,0,20,0,0
10141,428.571428571429,16,1,0,25,1,0
10141,-83.3333333333333,4,1,0,25,0,0
13569,489.795918367347,16,1,0,30,1,8
14058,489.795918367347,16,1,0,25,1,0
14058,-72.9166667426215,16,1,0,25,0,1
15536,521.739130434783,16,1,0,20,1,9
17619,521.739130434783,4,1,0,20,1,0
23792,-100,2,1,0,50,0,0
23879,500,4,1,0,50,1,0
23879,-100,2,1,0,50,0,0
30879,480,4,1,0,50,1,8
30879,-104.166666666667,2,1,0,50,0,0
31839,461.538461538462,4,1,0,60,1,0
31839,-92.8571428591327,2,1,0,60,0,0
39108,-92.8571428591327,2,1,0,70,0,0
46608,428.571428571429,4,1,0,70,1,0
46608,-100,4,1,0,70,0,0
46822,-111.111111111111,2,1,0,30,0,0
53465,-111.111111111111,2,1,0,50,0,0
56143,-111.111111111111,2,1,0,50,0,0
56304,-111.111111111111,2,1,0,50,0,0
56572,-111.111111111111,2,1,0,50,0,0
56786,-111.111111111111,2,1,0,60,0,0
59411,-111.111111111111,2,1,0,60,0,0
59572,-111.111111111111,2,1,0,60,0,0
59786,-111.111111111111,2,1,0,60,0,0
60000,-111.111111111111,2,1,0,60,0,0
60268,-111.111111111111,2,1,0,80,0,0
60322,-90.9090909090909,2,1,0,80,0,1
63643,-90.9090909090909,2,1,0,20,0,1
63750,444.444444444444,4,1,0,20,1,0
63750,-87.6623377192613,2,1,0,20,0,0
63972,-100,2,1,0,20,0,0
66379,-100,2,1,0,45,0,0
67305,428.571428571429,4,1,0,70,1,1
67305,-90.9090909090909,2,1,0,70,0,1
72447,428.571428571429,4,1,0,70,1,9
72447,-90.9090909090909,4,1,0,70,0,9
73305,428.571428571429,4,1,0,70,1,1
73305,-90.9090909090909,4,1,0,70,0,1
75019,-90.9090909090909,2,1,0,70,0,0
75197,-90.9090909090909,2,1,0,55,0,0
76733,428.571428571429,4,1,0,80,1,1
76733,-90.9090909090909,2,1,0,80,0,1
79304,444.444444444444,4,1,0,80,1,0
79304,-87.6623377192613,2,1,0,80,0,0
79415,-111.111111111111,2,1,0,20,0,0
83081,-111.111111111111,2,1,0,30,0,0
85674,-111.111111111111,2,1,0,50,0,0
86415,-87.6623377192613,2,1,0,80,0,1
89970,-87.6623377192613,4,1,0,70,0,0
93526,-87.6623377192613,2,1,0,80,0,1
97081,-87.6623377192613,2,1,0,80,0,0
104192,491.803278688525,4,1,0,70,1,0
104192,-79.9220280694155,4,1,0,70,0,0
104680,-90.90909,4,1,0,30,0,0
105411,-82.77901,4,1,0,30,0,8
105421,514.13881748072,4,1,0,30,1,8
105421,-86.95977,4,1,0,30,0,8
105675,-86.95977,4,1,0,30,0,8
106192,571.428571428571,4,1,0,30,1,0
106192,-78.24143,4,1,0,30,0,0
106763,550.45871559633,4,1,0,30,1,8
107313,594.059405940594,4,1,0,30,1,8
107313,-75.26081,4,1,0,30,0,8
107907,571.428571428571,4,1,0,30,1,8
108477,461.538461538462,4,1,0,50,1,1
108477,-88.43537420982,2,1,0,50,0,1
115861,461.538461538462,2,1,0,50,1,9
115935,413.793103448276,4,1,0,50,1,0
115935,-99.145366937003,4,1,0,50,0,0
116046,-96.4285714320153,4,1,0,50,0,0
116555,463.320463320463,4,1,0,20,1,8
116555,-92.8571428591327,4,1,0,50,0,0
117712,461.538461538462,4,1,0,50,1,0
117712,-92.8571428591327,4,1,0,50,0,0
119558,428.571428571429,4,1,0,55,1,0
122986,413.793103448276,3,1,0,60,1,0
122986,-103.571428719388,3,1,0,60,0,0
124838,387.096774193548,3,1,0,60,1,8
124838,-110.714285714483,3,1,0,60,0,8
125235,387.096774193548,3,1,0,60,1,8
125428,387.096774193548,3,1,0,70,1,0
125428,-110.714285714483,2,1,0,70,0,0
127750,363.636363636364,3,1,0,80,1,1
128840,352.941176470588,3,1,0,80,1,1
129898,342.857142857143,3,1,0,80,1,1
130926,333.333333333333,3,1,0,80,1,1
131926,363.636363636363,3,1,0,80,1,0
131926,-91.6666666666667,3,1,0,80,0,0
132471,405.405405405405,3,1,0,30,1,8
132471,-81.1111111111111,3,1,0,30,0,0
133079,535.714285714286,3,1,0,30,1,0
133079,-76.9230769230769,3,1,0,30,0,0

[HitObjects]
160,128,2559,5,0,0:0:0:0:
160,128,3293,1,0,0:0:0:0:
160,128,4028,1,0,0:0:0:0:
160,128,4763,1,0,0:0:0:0:
160,128,5497,1,0,0:0:0:0:
352,128,5987,1,8,0:0:0:0:
352,128,6232,1,8,0:0:0:0:
160,128,6722,1,0,0:0:0:0:
352,128,6967,1,8,0:0:0:0:
352,128,7456,1,8,0:0:0:0:
160,128,7701,1,0,0:0:0:0:
352,128,8191,1,8,0:0:0:0:
160,128,8427,1,0,0:0:0:0:
160,128,8916,1,0,0:0:0:0:
352,128,9406,1,8,0:0:0:0:
352,256,10141,1,12,0:0:0:0:
256,160,10355,2,0,L|256:224,29,41.9999987182618
160,256,14058,1,4,0:0:0:0:
160,128,17619,1,0,0:0:0:0:
160,128,18140,1,0,0:0:0:0:
352,128,18662,1,8,0:0:0:0:
352,128,19184,1,8,0:0:0:0:
352,128,19705,1,8,0:0:0:0:
160,128,20227,1,0,0:0:0:0:
352,128,21010,1,8,0:0:0:0:
352,128,21271,1,8,0:0:0:0:
160,128,21792,1,0,0:0:0:0:
352,128,22836,1,8,0:0:0:0:
160,128,23358,1,0,0:0:0:0:
160,128,23879,1,0,0:0:0:0:
160,128,24379,1,0,0:0:0:0:
352,128,24879,1,8,0:0:0:0:
352,128,25379,1,8,0:0:0:0:
352,128,25879,1,8,0:0:0:0:
160,128,26379,1,0,0:0:0:0:
352,128,27129,1,8,0:0:0:0:
352,128,27379,1,8,0:0:0:0:
160,128,27879,1,0,0:0:0:0:
160,128,28379,1,0,0:0:0:0:
352,128,29129,1,8,0:0:0:0:
352,128,29379,1,8,0:0:0:0:
160,128,29879,1,0,0:0:0:0:
160,128,30379,1,0,0:0:0:0:
352,128,30879,1,8,0:0:0:0:
352,128,31359,1,8,0:0:0:0:
352,128,31839,1,8,0:0:0:0:
160,128,32069,1,0,0:0:0:0:
352,128,32300,1,8,0:0:0:0:
160,128,32992,1,0,0:0:0:0:
160,128,33223,1,0,0:0:0:0:
352,128,33685,1,8,0:0:0:0:
352,128,33915,1,8,0:0:0:0:
160,128,34146,1,0,0:0:0:0:
160,128,34608,1,0,0:0:0:0:
352,128,35069,1,8,0:0:0:0:
352,128,35300,1,8,0:0:0:0:
160,128,35531,1,0,0:0:0:0:
352,128,35992,1,8,0:0:0:0:
352,128,36454,1,8,0:0:0:0:
160,128,36915,1,0,0:0:0:0:
160,128,37146,1,0,0:0:0:0:
352,128,37377,1,8,0:0:0:0:
352,128,37839,1,8,0:0:0:0:
160,128,38300,1,0,0:0:0:0:
352,128,39223,1,8,0:0:0:0:
352,128,39454,1,8,0:0:0:0:
352,128,40146,1,8,0:0:0:0:
160,128,40377,1,0,0:0:0:0:
352,128,41069,1,8,0:0:0:0:
352,128,41300,1,8,0:0:0:0:
352,128,41992,1,8,0:0:0:0:
160,128,42223,1,0,0:0:0:0:
352,128,42915,1,8,0:0:0:0:
160,128,43146,1,0,0:0:0:0:
160,128,43839,1,0,0:0:0:0:
352,128,44300,1,8,0:0:0:0:
160,128,44531,1,0,0:0:0:0:
352,128,44762,1,8,0:0:0:0:
352,128,45223,1,8,0:0:0:0:
352,128,45685,1,8,0:0:0:0:
352,128,46146,1,8,0:0:0:0:
352,128,46608,1,8,0:0:0:0:
160,128,47465,1,0,0:0:0:0:
160,128,47893,1,0,0:0:0:0:
160,128,48322,1,0,0:0:0:0:
160,128,49179,1,0,0:0:0:0:
160,128,49608,1,0,0:0:0:0:
352,128,50036,1,8,0:0:0:0:
352,128,50679,1,8,0:0:0:0:
160,128,50893,1,0,0:0:0:0:
160,128,51536,1,0,0:0:0:0:
160,128,51750,1,0,0:0:0:0:
352,128,52393,1,8,0:0:0:0:
160,128,52608,1,0,0:0:0:0:
160,128,53036,1,0,0:0:0:0:
352,128,53465,1,8,0:0:0:0:
352,128,53679,1,8,0:0:0:0:
160,128,54322,1,0,0:0:0:0:
352,128,54536,1,8,0:0:0:0:
352,128,55179,1,8,0:0:0:0:
352,128,55393,1,8,0:0:0:0:
352,128,56036,1,8,0:0:0:0:
160,128,56250,1,0,0:0:0:0:
160,128,56893,1,0,0:0:0:0:
352,128,57108,1,8,0:0:0:0:
352,128,57750,1,8,0:0:0:0:
160,128,58179,1,0,0:0:0:0:
160,128,58393,1,0,0:0:0:0:
352,128,58608,1,8,0:0:0:0:
352,128,59036,1,8,0:0:0:0:
160,128,59465,1,0,0:0:0:0:
160,128,59679,1,0,0:0:0:0:
160,128,59893,1,0,0:0:0:0:
352,256,60322,1,12,0:0:0:0:
160,128,60750,1,0,0:0:0:0:
160,128,61179,1,0,0:0:0:0:
352,128,61608,1,8,0:0:0:0:
352,128,61822,1,8,0:0:0:0:
160,128,62036,1,0,0:0:0:0:
160,128,62465,1,0,0:0:0:0:
160,128,62893,1,0,0:0:0:0:
352,128,63322,1,8,0:0:0:0:
160,128,63536,1,0,0:0:0:0:
352,128,63750,1,8,0:0:0:0:
352,128,64638,1,8,0:0:0:0:
352,128,65527,1,8,0:0:0:0:
160,128,66416,1,0,0:0:0:0:
160,128,66861,1,0,0:0:0:0:
352,256,67305,1,12,0:0:0:0:
160,128,67733,1,0,0:0:0:0:
160,128,67947,1,0,0:0:0:0:
352,128,68162,1,8,0:0:0:0:
160,128,68590,1,0,0:0:0:0:
352,128,69019,1,8,0:0:0:0:
160,128,69447,1,0,0:0:0:0:
160,128,69662,1,0,0:0:0:0:
352,128,69876,1,8,0:0:0:0:
160,128,70305,1,0,0:0:0:0:
352,128,70733,1,8,0:0:0:0:
160,128,71162,1,0,0:0:0:0:
160,128,71376,1,0,0:0:0:0:
352,128,71590,1,8,0:0:0:0:
352,128,72019,1,8,0:0:0:0:
160,128,72447,1,0,0:0:0:0:
160,128,72875,1,0,0:0:0:0:
352,128,73305,1,8,0:0:0:0:
352,128,73733,1,8,0:0:0:0:
352,128,73947,1,8,0:0:0:0:
160,128,74162,1,0,0:0:0:0:
352,128,74590,1,8,0:0:0:0:
160,128,74805,1,0,0:0:0:0:
160,128,75019,1,0,0:0:0:0:
352,128,75876,1,8,0:0:0:0:
352,256,76733,1,12,0:0:0:0:
160,128,77161,1,0,0:0:0:0:
160,128,77375,1,0,0:0:0:0:
352,128,77590,1,8,0:0:0:0:
160,128,78018,1,0,0:0:0:0:
352,128,78447,1,8,0:0:0:0:
352,128,78875,1,8,0:0:0:0:
352,128,79304,1,8,0:0:0:0:
352,128,80192,1,8,0:0:0:0:
160,128,81081,1,0,0:0:0:0:
352,128,81970,1,8,0:0:0:0:
160,128,82859,1,0,0:0:0:0:
352,128,83748,1,8,0:0:0:0:
160,128,84637,1,0,0:0:0:0:
352,128,85081,1,8,0:0:0:0:
160,128,85526,1,0,0:0:0:0:
352,128,85970,1,8,0:0:0:0:
352,256,86415,1,12,0:0:0:0:
160,128,87081,1,0,0:0:0:0:
352,256,87303,1,12,0:0:0:0:
160,256,87970,1,8,0:0:0:0:
352,256,88192,1,12,0:0:0:0:
160,256,88637,1,4,0:0:0:0:
352,256,89081,1,12,0:0:0:0:
352,128,89526,1,12,0:0:0:0:
160,256,89970,1,4,0:0:0:0:
160,128,90415,1,0,0:0:0:0:
160,128,90859,1,0,0:0:0:0:
160,128,91303,1,0,0:0:0:0:
352,128,91748,1,8,0:0:0:0:
352,128,92192,1,8,0:0:0:0:
352,128,92637,1,8,0:0:0:0:
160,128,93081,1,0,0:0:0:0:
160,128,93303,1,0,0:0:0:0:
352,256,93526,1,12,0:0:0:0:
160,128,94192,1,0,0:0:0:0:
352,256,94415,1,12,0:0:0:0:
352,128,95081,1,8,0:0:0:0:
352,256,95303,1,12,0:0:0:0:
160,256,95748,1,4,0:0:0:0:
352,256,96192,1,12,0:0:0:0:
352,256,96637,1,12,0:0:0:0:
160,128,97081,1,0,0:0:0:0:
352,128,97526,1,8,0:0:0:0:
352,128,97748,1,8,0:0:0:0:
160,128,97970,1,0,0:0:0:0:
352,128,98415,1,8,0:0:0:0:
160,128,98859,1,0,0:0:0:0:
160,128,99526,1,0,0:0:0:0:
160,128,99748,1,0,0:0:0:0:
352,128,100415,1,8,0:0:0:0:
160,128,100637,1,0,0:0:0:0:
352,128,101303,1,8,0:0:0:0:
160,128,101526,1,0,0:0:0:0:
352,128,102192,1,8,0:0:0:0:
160,128,102415,1,0,0:0:0:0:
160,128,102859,1,0,0:0:0:0:
160,128,103303,1,0,0:0:0:0:
352,128,103748,1,8,0:0:0:0:
352,128,104192,1,8,0:0:0:0:
160,128,104683,1,0,0:0:0:0:
160,128,105421,1,0,0:0:0:0:
160,128,105678,1,0,0:0:0:0:
352,128,106192,1,8,0:0:0:0:
160,128,107313,1,0,0:0:0:0:
160,128,108477,1,0,0:0:0:0:
160,128,108938,1,0,0:0:0:0:
352,128,109400,1,8,0:0:0:0:
352,128,109861,1,8,0:0:0:0:
352,128,110323,1,8,0:0:0:0:
160,128,110784,1,0,0:0:0:0:
352,128,111477,1,8,0:0:0:0:
352,128,111707,1,8,0:0:0:0:
160,128,112169,1,0,0:0:0:0:
160,128,112630,1,0,0:0:0:0:
352,128,113323,1,8,0:0:0:0:
352,128,113553,1,8,0:0:0:0:
160,128,114015,1,0,0:0:0:0:
160,128,114477,1,0,0:0:0:0:
352,128,114938,1,8,0:0:0:0:
352,128,115400,1,8,0:0:0:0:
352,128,115935,1,8,0:0:0:0:
160,128,116786,1,0,0:0:0:0:
160,128,117249,1,0,0:0:0:0:
352,128,117712,1,8,0:0:0:0:
160,128,118635,1,0,0:0:0:0:
352,128,119096,1,8,0:0:0:0:
160,128,119558,1,0,0:0:0:0:
160,128,120200,1,0,0:0:0:0:
160,128,120629,1,0,0:0:0:0:
352,128,120843,1,8,0:0:0:0:
160,128,121272,1,0,0:0:0:0:
160,128,121700,1,0,0:0:0:0:
352,128,121915,1,8,0:0:0:0:
160,128,122343,1,0,0:0:0:0:
352,128,122986,1,8,0:0:0:0:
352,128,123399,1,8,0:0:0:0:
160,128,123606,1,0,0:0:0:0:
160,128,124020,1,0,0:0:0:0:
352,128,124227,1,8,0:0:0:0:
352,128,124641,1,8,0:0:0:0:
160,128,124838,1,0,0:0:0:0:
160,128,125428,1,0,0:0:0:0:
160,128,126008,1,0,0:0:0:0:
352,128,126589,1,8,0:0:0:0:
352,128,126976,1,8,0:0:0:0:
352,128,127169,1,8,0:0:0:0:
352,128,127557,1,8,0:0:0:0:
352,256,127750,1,12,0:0:0:0:
160,128,128295,1,0,0:0:0:0:
160,128,128840,1,0,0:0:0:0:
352,128,129369,1,12,0:0:0:0:
160,256,129898,1,4,0:0:0:0:
160,128,130240,1,0,0:0:0:0:
352,256,130412,1,12,0:0:0:0:
160,128,130755,1,0,0:0:0:0:
352,256,130926,1,12,0:0:0:0:
160,128,131259,1,0,0:0:0:0:
352,256,131426,1,12,0:0:0:0:
352,128,131592,1,8,0:0:0:0:
352,128,131759,1,8,0:0:0:0:
160,256,131926,1,4,0:0:0:0:
352,128,132471,1,8,0:0:0:0:
160,128,133079,1,0,0:0:0:0:
