osu file format v14

[General]
AudioFilename: audio.mp3
AudioLeadIn: 0
PreviewTime: 13104
Countdown: 0
SampleSet: Soft
StackLeniency: 0.7
Mode: 0
LetterboxInBreaks: 0
WidescreenStoryboard: 1

[Editor]
Bookmarks: 1752,13331,42278,59646,82804
DistanceSpacing: 1
BeatDivisor: 4
GridSize: 32
TimelineZoom: 0.9999998

[Metadata]
Title:Kay Muumilaaksoon (TV Size)
TitleUnicode:Käy Muumilaaksoon (TV Size)
Artist:Benny Tornroos
ArtistUnicode:Benny Törnroos
Creator:finnish bn
Version:Normal
Source:Muumilaakson tarinoita
Tags:aakki pop folk male vocals finnish moomin anime cartoon opening xandit iceluin een persoon butylcyclobutyn enneya keywee reisevia roda totsuki pache knowledge shirahane suou hivie Lasten ikioma Muumi 楽しいムーミン一家 Tanoshii Muumin Ikka Delightful Moomin Family mumin bite you death byd antti
BeatmapID:3595651
BeatmapSetID:1757046

[Difficulty]
HPDrainRate:3
CircleSize:3.6
OverallDifficulty:4
ApproachRate:5
SliderMultiplier:0.999999999999999
SliderTickRate:1

[Events]
//Background and Video events
0,0,"bg.jpg",0,0
Video,403,"muumiop.mp4"
//Break Periods
//Storyboard Layer 0 (Background)
//Storyboard Layer 1 (Fail)
//Storyboard Layer 2 (Pass)
//Storyboard Layer 3 (Foreground)
//Storyboard Layer 4 (Overlay)
//Storyboard Sound Samples

[TimingPoints]
305,361.838137739718,4,2,1,80,1,8
666,-100,4,2,1,80,0,0
1028,-100,4,2,1,80,0,0
1390,-100,4,2,1,80,0,0
1752,361.838137739718,4,2,1,80,1,0
1752,-100,4,2,1,80,0,0
13330,-100,4,2,1,80,0,0
59646,-100,4,2,1,80,0,1
82803,-100,4,2,1,80,0,0
83527,-100,4,2,1,70,0,0
84975,-100,4,2,1,60,0,0
86060,-100,4,2,1,50,0,0
86784,-100,4,2,1,40,0,0
87507,-100,4,2,1,30,0,0
88231,-100,4,2,1,20,0,0
88593,-100,4,2,1,20,0,0

[Colours]
Combo1 : 192,192,192
Combo2 : 128,255,128
Combo3 : 255,184,149

[HitObjects]
426,162,666,6,0,L|439:56,2,99.9999999999999,10|10|10,0:0|0:0|0:0,0:0:0:0:
361,238,1752,6,0,P|317:262|266:255,1,99.9999999999999,2|10,1:2|0:0,0:0:0:0:
227,229,2294,1,2,1:0:0:0:
227,229,2475,1,2,1:0:0:0:
158,156,2837,1,8,0:0:0:0:
158,156,3018,2,0,L|183:47,2,99.9999999999999,10|2|2,0:0|0:0|1:0,0:0:0:0:
117,185,3923,1,2,1:0:0:0:
58,265,4284,1,10,0:0:0:0:
130,333,4646,6,0,B|180:321|182:361|249:346,1,99.9999999999999,2|10,1:2|0:0,0:0:0:0:
270,324,5189,1,2,1:0:0:0:
270,324,5370,1,2,1:0:0:0:
363,358,5732,1,8,0:0:0:0:
363,358,5913,2,0,P|405:366|472:378,2,99.9999999999999,10|2|2,0:0|0:0|1:0,0:0:0:0:
351,309,6817,2,0,P|347:278|356:249,1,50,2|0,1:0|0:0,0:0:0:0:
387,225,7179,1,10,0:0:0:0:
453,150,7541,6,0,P|439:105|439:35,1,99.9999999999999,2|8,1:2|0:0,0:0:0:0:
397,21,8084,1,0,1:0:0:0:
397,21,8265,2,0,P|355:44|298:51,1,99.9999999999999,0|8,1:0|0:0,0:0:0:0:
256,36,8807,1,8,0:0:0:0:
194,114,9169,1,2,0:0:0:0:
250,196,9531,1,2,1:0:0:0:
250,196,9712,2,0,L|261:301,1,99.9999999999999,2|10,1:0|0:0,0:0:0:0:
177,352,10436,6,0,P|135:354|81:312,1,99.9999999999999,2|8,1:2|0:0,0:0:0:0:
63,279,10978,1,0,1:0:0:0:
63,279,11159,1,0,1:0:0:0:
27,185,11521,1,8,0:0:0:0:
100,117,11883,6,0,P|132:113|162:103,1,50,0|0,1:0|0:0,0:0:0:0:
189,78,12245,1,8,0:0:0:0:
280,38,12607,1,0,1:0:0:0:
324,127,12968,2,0,L|311:194,1,50,8|10,0:0|0:0,0:0:0:0:
337,220,13330,6,0,P|391:215|451:239,1,99.9999999999999,2|10,1:2|0:0,0:0:0:0:
503,156,14054,1,2,1:0:0:0:
450,70,14416,1,10,0:0:0:0:
350,80,14778,2,0,P|311:86|241:100,1,99.9999999999999,2|10,1:0|0:0,0:0:0:0:
225,139,15320,2,0,P|213:182|248:239,1,99.9999999999999,2|0,1:0|0:0,0:0:0:0:
271,265,15863,1,8,0:0:0:0:
194,329,16225,6,0,P|166:301|140:228,2,99.9999999999999,2|10|2,1:2|0:0|1:0,0:0:0:0:
286,368,17311,1,10,0:0:0:0:
365,308,17672,1,2,1:0:0:0:
365,308,17853,2,0,P|415:303|422:301,1,50,2|8,0:0|0:0,0:0:0:0:
452,270,18215,2,0,P|476:234|467:177,1,99.9999999999999,2|0,1:0|0:0,0:0:0:0:
433,144,18758,1,8,0:0:0:0:
343,99,19120,6,0,P|352:53|368:-1,2,99.9999999999999,2|10|2,1:2|0:0|1:0,0:0:0:0:
269,167,20205,1,10,0:0:0:0:
198,96,20567,2,0,P|156:110|136:167,1,99.9999999999999,2|10,1:0|0:0,0:0:0:0:
91,183,21110,2,0,P|70:212|93:272,1,99.9999999999999,2|0,1:0|0:0,0:0:0:0:
125,303,21653,1,8,0:0:0:0:
222,282,22014,6,0,L|326:269,1,99.9999999999999,2|10,1:2|0:0,0:0:0:0:
390,197,22738,1,2,1:0:0:0:
390,197,22919,2,0,P|380:165|378:148,1,50,2|8,0:0|0:0,0:0:0:0:
314,71,23462,2,0,P|290:93|287:162,1,99.9999999999999,2|10,1:0|0:0,0:0:0:0:
274,206,24005,2,0,P|228:205|167:233,1,99.9999999999999,2|2,1:0|0:0,0:0:0:0:
128,217,24547,2,0,P|110:186|108:158,1,50,10|10,0:0|0:0,0:0:0:0:
60,156,24909,5,2,1:2:0:0:
95,62,25271,2,0,L|144:52,1,50,10|0,0:0|1:0,0:0:0:0:
189,73,25633,1,0,1:0:0:0:
223,167,25995,1,8,0:0:0:0:
172,253,26356,6,0,P|166:304|166:366,1,99.9999999999999,0|8,1:0|0:0,0:0:0:0:
208,377,26899,1,0,1:0:0:0:
208,377,27080,1,0,1:0:0:0:
303,346,27442,2,0,P|342:339|373:335,1,50,10|10,0:0|0:0,0:0:0:0:
390,304,27804,6,0,P|406:273|371:207,1,99.9999999999999,2|10,1:2|0:0,0:0:0:0:
335,202,28347,1,0,1:0:0:0:
335,202,28528,1,0,1:0:0:0:
249,252,28889,1,8,0:0:0:0:
173,186,29251,6,0,P|123:172|71:170,2,99.9999999999999,0|8|0,1:0|0:0|1:0,0:0:0:0:
232,105,30337,1,8,0:0:0:0:
186,15,30699,6,0,P|156:32|141:96,1,99.9999999999999,2|10,1:2|0:0,0:0:0:0:
173,186,31422,1,2,1:0:0:0:
173,186,31603,2,0,L|185:252,1,50,2|8,0:0|0:0,0:0:0:0:
126,318,32146,1,2,1:0:0:0:
126,318,32327,2,0,P|83:327|62:328,1,50,2|8,0:0|0:0,0:0:0:0:
27,318,32689,2,0,P|22:274|31:212,1,99.9999999999999,2|0,1:0|0:0,0:0:0:0:
52,175,33231,1,8,0:0:0:0:
105,90,33593,6,0,P|74:66|16:18,2,99.9999999999999,2|10|2,1:2|0:0|1:0,0:0:0:0:
167,168,34679,1,8,0:0:0:0:
245,106,35041,2,0,P|285:97|356:58,1,99.9999999999999,2|10,1:0|0:0,0:0:0:0:
387,70,35583,2,0,P|413:89|493:109,1,99.9999999999999,2|0,1:0|0:0,0:0:0:0:
502,152,36126,1,8,0:0:0:0:
421,210,36488,6,0,P|400:257|397:321,1,99.9999999999999,2|10,1:2|0:0,0:0:0:0:
306,350,37212,1,2,1:0:0:0:
306,350,37393,2,0,P|299:314|298:286,1,50,2|8,0:0|0:0,0:0:0:0:
245,215,37935,2,0,P|261:184|269:111,2,99.9999999999999,2|10|2,1:0|0:0|1:0,0:0:0:0:
149,246,39021,1,8,0:0:0:0:
59,202,39383,6,0,B|72:138|50:159|71:91,1,99.9999999999999,2|10,1:2|0:0,0:0:0:0:
101,66,39925,2,0,P|145:62|179:110,1,99.9999999999999,2|0,1:0|0:0,0:0:0:0:
189,151,40468,1,10,0:0:0:0:
259,221,40830,6,0,B|281:225|281:225|305:225|305:225|329:235|329:235|364:241,1,99.9999999999999,2|10,1:0|0:0,0:0:0:0:
399,214,41373,1,2,1:0:0:0:
463,290,41735,2,0,L|475:346,2,50,2|10|8,0:0|0:0|0:0,0:0:0:0:
479,242,42277,5,2,1:2:0:0:
425,157,42639,2,0,L|434:107,1,50,10|0,0:0|1:0,0:0:0:0:
456,62,43001,1,0,1:0:0:0:
365,18,43363,1,8,0:0:0:0:
312,103,43724,6,0,P|261:109|199:109,1,99.9999999999999,0|8,1:0|0:0,0:0:0:0:
166,130,44267,1,0,1:0:0:0:
166,130,44448,1,0,1:0:0:0:
104,51,44810,2,0,L|77:-5,1,50,10|10,0:0|0:0,0:0:0:0:
34,21,45172,6,0,P|17:68|4:124,1,99.9999999999999,2|10,1:2|0:0,0:0:0:0:
28,161,45715,1,0,1:0:0:0:
28,161,45896,1,0,1:0:0:0:
88,240,46257,1,8,0:0:0:0:
178,197,46619,5,0,1:0:0:0:
178,197,46800,2,0,L|244:181,2,50,0|8|0,0:0|0:0|1:0,0:0:0:0:
170,246,47343,2,0,P|166:273|202:339,1,99.9999999999999,0|10,1:0|0:0,0:0:0:0:
100,359,48067,6,0,P|93:322|74:250,1,99.9999999999999,2|10,1:2|0:0,0:0:0:0:
39,237,48610,1,0,1:0:0:0:
39,237,48790,1,0,1:0:0:0:
74,149,49152,2,0,P|85:122|90:100,1,50,8|8,0:0|0:0,0:0:0:0:
71,55,49514,5,0,1:0:0:0:
71,55,49695,2,0,L|7:42,2,50,0|8|0,0:0|0:0|1:0,0:0:0:0:
114,30,50238,2,0,P|144:22|207:62,1,99.9999999999999,0|10,1:0|0:0,0:0:0:0:
262,132,50961,6,0,P|254:172|243:243,1,99.9999999999999,2|10,1:2|0:0,0:0:0:0:
275,270,51504,1,0,1:0:0:0:
275,270,51685,2,0,P|316:276|375:285,1,99.9999999999999,0|8,1:0|0:0,0:0:0:0:
455,227,52409,5,0,1:0:0:0:
455,227,52590,2,0,L|515:244,2,50,0|8|0,0:0|0:0|1:0,0:0:0:0:
421,189,53133,2,0,P|410:153|444:95,1,99.9999999999999,0|10,1:0|0:0,0:0:0:0:
495,18,53856,6,0,P|455:9|387:0,1,99.9999999999999,2|10,1:2|0:0,0:0:0:0:
348,15,54399,1,0,1:0:0:0:
348,15,54580,1,0,1:0:0:0:
264,70,54942,2,0,L|277:124,1,50,8|8,0:0|0:0,0:0:0:0:
310,154,55304,5,0,1:0:0:0:
310,154,55484,2,0,P|347:145|375:137,2,50,0|8|0,0:0|0:0|1:0,0:0:0:0:
277,192,56027,2,0,P|248:207|180:246,1,99.9999999999999,0|10,1:0|0:0,0:0:0:0:
93,269,56751,6,0,P|67:239|85:180,1,99.9999999999999,2|10,1:2|0:0,0:0:0:0:
120,153,57294,1,0,1:0:0:0:
120,153,57475,1,0,1:0:0:0:
187,79,57836,1,8,0:0:0:0:
117,6,58198,6,0,L|56:16,1,50,0|0,1:0|0:0,0:0:0:0:
29,46,58560,2,0,P|16:78|23:104,1,50,8|0,0:0|1:0,0:0:0:0:
3,140,58922,2,0,P|16:165|28:236,1,99.9999999999999,0|8,1:0|0:0,0:0:0:0:
100,304,59646,6,0,L|207:288,1,99.9999999999999,2|10,1:2|0:0,0:0:0:0:
235,255,60188,1,2,1:0:0:0:
235,255,60369,2,0,L|219:148,1,99.9999999999999,2|10,1:0|0:0,0:0:0:0:
210,106,60912,1,10,0:0:0:0:
285,40,61274,1,2,0:0:0:0:
368,95,61636,1,2,1:0:0:0:
368,95,61817,2,0,L|436:87,1,50,2|0,1:0|0:0,0:0:0:0:
464,107,62178,2,0,L|472:174,1,50,10|8,0:0|0:0,0:0:0:0:
473,206,62540,6,0,P|437:228|371:207,1,99.9999999999999,2|10,1:2|0:0,0:0:0:0:
339,192,63083,1,2,1:0:0:0:
339,192,63264,2,0,P|291:180|248:203,1,99.9999999999999,2|10,1:0|0:0,0:0:0:0:
224,247,63807,1,10,0:0:0:0:
280,329,64169,1,2,0:0:0:0:
375,299,64530,1,2,1:0:0:0:
375,299,64711,2,0,P|389:264|386:240,1,50,2|0,1:0|0:0,0:0:0:0:
358,211,65073,2,0,P|344:176|347:152,1,50,10|8,0:0|0:0,0:0:0:0:
366,118,65435,6,0,L|388:12,1,99.9999999999999,2|10,1:2|0:0,0:0:0:0:
352,0,65978,1,2,1:0:0:0:
352,0,66159,2,0,L|254:20,1,99.9999999999999,2|10,1:0|0:0,0:0:0:0:
212,48,66701,6,0,P|205:80|212:103,1,50,10|0,0:0|1:0,0:0:0:0:
230,141,67063,1,2,0:0:0:0:
291,219,67425,1,2,1:0:0:0:
291,219,67606,2,0,P|298:251|291:274,1,50,2|0,1:0|0:0,0:0:0:0:
258,303,67968,2,0,P|226:310|203:303,1,50,10|8,0:0|0:0,0:0:0:0:
165,281,68330,6,0,P|133:260|71:291,1,99.9999999999999,2|8,1:2|0:0,0:0:0:0:
49,319,68872,1,0,1:0:0:0:
49,319,69053,1,0,1:0:0:0:
131,374,69415,2,0,L|201:375,1,50,8|8,0:0|0:0,0:0:0:0:
226,353,69777,5,0,1:0:0:0:
226,353,69958,2,0,P|240:286|249:245,1,99.9999999999999,0|0,0:0|1:0,0:0:0:0:
285,223,70501,2,0,P|278:190|274:167,1,50,0|0,1:0|0:0,0:0:0:0:
241,136,70863,1,8,0:0:0:0:
275,42,71224,6,0,L|382:58,1,99.9999999999999,2|10,1:0|0:0,0:0:0:0:
412,88,71766,1,10,0:0:0:0:
412,88,71947,2,0,L|393:196,1,99.9999999999999,2|10,1:0|0:0,0:0:0:0:
412,233,72490,1,2,1:0:0:0:
328,287,72852,1,2,0:0:0:0:
258,215,73214,1,10,0:0:0:0:
258,215,73395,2,0,L|266:147,1,50,2|0,1:2|0:0,0:0:0:0:
232,126,73756,2,0,L|240:59,1,50,10|0,0:0|1:0,0:0:0:0:
265,34,74118,6,0,P|312:22|355:45,1,99.9999999999999,2|10,1:0|0:0,0:0:0:0:
378,90,74661,1,10,0:0:0:0:
378,90,74842,2,0,P|421:113|468:101,1,99.9999999999999,2|10,1:0|0:0,0:0:0:0:
496,143,75385,1,2,1:0:0:0:
463,237,75747,1,2,0:0:0:0:
375,281,76108,1,10,0:0:0:0:
375,281,76289,2,0,P|340:295|316:292,1,50,2|0,1:0|0:0,0:0:0:0:
285,267,76651,2,0,P|287:242|298:220,1,50,10|8,0:0|0:0,0:0:0:0:
344,199,77013,6,0,L|323:101,1,99.9999999999999,2|10,1:0|0:0,0:0:0:0:
305,59,77556,1,2,1:0:0:0:
305,59,77737,2,0,L|207:38,1,99.9999999999999,2|10,1:0|0:0,0:0:0:0:
159,54,78279,6,0,P|155:78|162:102,1,50,10|0,0:0|1:2,0:0:0:0:
184,147,78641,1,2,0:0:0:0:
259,220,79003,1,2,1:0:0:0:
259,220,79184,2,0,P|266:252|259:275,1,50,2|0,1:0|0:0,0:0:0:0:
238,312,79546,2,0,P|213:315|189:308,1,50,10|8,0:0|0:0,0:0:0:0:
147,281,79908,6,0,P|140:243|156:182,1,99.9999999999999,2|8,1:0|0:0,0:0:0:0:
137,142,80450,1,0,1:0:0:0:
137,142,80631,1,0,1:0:0:0:
163,45,80993,2,0,L|233:44,1,50,8|8,0:0|0:0,0:0:0:0:
260,60,81355,5,0,1:0:0:0:
260,60,81536,2,0,P|274:127|283:168,1,99.9999999999999,0|8,0:0|0:0,0:0:0:0:
320,188,82080,2,0,P|313:221|309:244,1,50,0|0,1:0|0:0,0:0:0:0:
265,259,82441,2,0,P|272:292|276:315,1,50,8|0,0:0|1:0,0:0:0:0:
249,351,82803,5,2,1:0:0:0:
256,192,82984,12,2,88593,1:2:0:0:
