osu file format v14

[General]
AudioFilename: audio.mp3
AudioLeadIn: 0
PreviewTime: 13104
Countdown: 0
SampleSet: Soft
StackLeniency: 0.7
Mode: 0
LetterboxInBreaks: 0
WidescreenStoryboard: 0

[Editor]
Bookmarks: 13331,30699,42278,50962,59646,71225,82804
DistanceSpacing: 0.9
BeatDivisor: 4
GridSize: 32
TimelineZoom: 1.3

[Metadata]
Title:Kay Muumilaaksoon (TV Size)
TitleUnicode:Käy Muumilaaksoon (TV Size)
Artist:Benny Tornroos
ArtistUnicode:Benny Törnroos
Creator:finnish bn
Version:Muumilaakson Asukkaat (feat. Iceluin)
Source:Muumilaakson tarinoita
Tags:aakki pop folk male vocals finnish moomin anime cartoon opening xandit iceluin een persoon butylcyclobutyn enneya keywee reisevia roda totsuki pache knowledge shirahane suou hivie Lasten ikioma Muumi 楽しいムーミン一家 Tanoshii Muumin Ikka Delightful Moomin Family mumin bite you death byd antti
BeatmapID:3595650
BeatmapSetID:1757046

[Difficulty]
HPDrainRate:6
CircleSize:5
OverallDifficulty:9
ApproachRate:9
SliderMultiplier:1.7
SliderTickRate:1

[Events]
//Background and Video events
0,0,"bg.jpg",0,0
Video,403,"muumiop.mp4"
//Break Periods
//Storyboard Layer 0 (Background)
//Storyboard Layer 1 (Fail)
//Storyboard Layer 2 (Pass)
//Storyboard Layer 3 (Foreground)
//Storyboard Layer 4 (Overlay)
//Storyboard Sound Samples

[TimingPoints]
305,361.838137739718,4,2,1,80,1,8
1752,361.838137739718,4,2,1,80,1,0
1752,-111.111111111111,4,2,1,80,0,0
13331,-125,4,2,1,80,0,0
21291,-200,4,2,1,80,0,0
21653,-83.3333333333333,4,2,1,80,0,0
22015,-125,4,2,1,80,0,0
23100,-153.846153846154,4,2,1,80,0,0
23462,-125,4,2,1,80,0,0
30337,-153.846153846153,4,2,1,80,0,0
30699,-125,4,2,1,80,0,0
38659,-200,4,2,1,80,0,0
39021,-83.3333333333333,4,2,1,80,0,0
39383,-125,4,2,1,80,0,0
40468,-153.846153846154,4,2,1,80,0,0
40830,-80.0000000000001,4,2,1,80,0,0
41192,-125,4,2,1,80,0,0
44720,-125,4,2,1,5,0,0
44810,-125,4,2,1,80,0,0
44901,-125,4,2,1,5,0,0
44991,-125,4,2,1,80,0,0
45082,-125,4,2,1,5,0,0
45172,-125,4,2,1,80,0,0
59646,-90.9090909090909,4,2,1,80,0,1
82803,-90.9090909090909,4,2,1,80,0,0
83527,-90.9090909090909,4,2,1,70,0,0
84975,-90.9090909090909,4,2,1,60,0,0
86060,-90.9090909090909,4,2,1,50,0,0
86784,-90.9090909090909,4,2,1,40,0,0
87507,-90.9090909090909,4,2,1,30,0,0
88231,-90.9090909090909,4,2,1,20,0,0

[Colours]
Combo1 : 192,192,192
Combo2 : 128,255,128
Combo3 : 255,184,149

[HitObjects]
253,1,666,5,10,0:0:0:0:
246,19,1028,5,10,0:0:0:0:
257,39,1390,5,10,0:0:0:0:
248,58,1752,6,0,P|200:69|85:88,1,152.999995330811,2|10,1:2|0:0,0:0:0:0:
66,245,2295,1,2,1:0:0:0:
16,177,2476,6,0,P|57:172|98:161,1,76.4999976654053,2|0,1:0|0:0,0:0:0:0:
276,202,2837,1,8,0:0:0:0:
257,101,3018,1,10,0:0:0:0:
281,220,3199,5,0,1:0:0:0:
261,295,3380,1,2,0:0:0:0:
330,337,3561,1,10,0:0:0:0:
387,289,3742,1,2,1:0:0:0:
469,177,3923,6,0,P|459:133|459:93,1,76.4999976654053,2|0,1:0|0:0,0:0:0:0:
319,14,4285,2,0,P|329:58|329:98,1,76.4999976654053,10|8,0:0|0:0,0:0:0:0:
55,195,4647,6,0,B|130:169|124:238|205:232,1,152.999995330811,2|10,1:2|0:0,0:0:0:0:
309,165,5189,1,2,1:0:0:0:
247,74,5370,6,0,P|237:112|224:151,1,76.4999976654053,2|0,1:0|0:0,0:0:0:0:
269,326,5732,1,8,0:0:0:0:
349,269,5913,1,10,0:0:0:0:
485,374,6094,5,0,1:0:0:0:
471,292,6275,1,2,0:0:0:0:
493,215,6456,1,10,0:0:0:0:
479,124,6637,1,2,1:0:0:0:
302,42,6818,6,0,P|257:51|219:52,1,76.4999976654053,2|0,1:0|0:0,0:0:0:0:
327,207,7179,2,0,P|372:198|410:197,1,76.4999976654053,10|8,0:0|0:0,0:0:0:0:
224,313,7541,6,0,B|172:321|172:321|142:356|142:356|77:364,1,152.999995330811,2|8,1:2|0:0,0:0:0:0:
7,222,8084,1,0,1:0:0:0:
71,156,8265,6,0,P|113:166|156:169,1,76.4999976654053,0|0,1:0|0:0,0:0:0:0:
313,104,8627,1,8,0:0:0:0:
217,10,8808,1,8,0:0:0:0:
286,188,8989,5,0,1:0:0:0:
221,252,9170,1,2,0:0:0:0:
310,348,9350,1,10,0:0:0:0:
205,251,9531,1,2,1:0:0:0:
366,128,9712,5,2,1:0:0:0:
405,220,9893,1,0,0:0:0:0:
286,188,10074,5,10,0:0:0:0:
468,119,10255,1,8,0:0:0:0:
263,194,10436,6,0,P|217:189|101:162,2,152.999995330811,2|8|0,1:2|0:0|1:0,0:0:0:0:
366,137,11341,1,0,0:0:0:0:
283,24,11521,5,8,0:0:0:0:
191,84,11702,1,8,0:0:0:0:
134,29,11883,5,0,1:0:0:0:
272,128,12064,1,0,0:0:0:0:
188,184,12245,5,8,0:0:0:0:
402,67,12426,1,0,1:0:0:0:
176,200,12607,6,0,P|123:192|51:156,1,114.749996498108,0|0,1:0|0:0,0:0:0:0:
59,156,12969,1,8,0:0:0:0:
181,306,13150,1,10,0:0:0:0:
366,137,13331,6,0,P|357:187|350:237,1,102,2|0,1:2|0:0,0:0:0:0:
351,254,13693,2,0,P|365:261|382:257,1,34,10|0,0:0|0:0,0:0:0:0:
85,349,14054,6,0,P|93:298|100:248,1,102,2|0,1:0|0:0,0:0:0:0:
101,231,14416,2,0,P|86:223|69:227,1,34,10|0,0:0|0:0,0:0:0:0:
211,61,14778,6,0,P|253:86|301:75,1,102,2|0,1:0|0:0,0:0:0:0:
316,64,15140,1,10,0:0:0:0:
379,14,15321,1,2,1:0:0:0:
512,139,15502,5,0,1:0:0:0:
512,139,15683,1,0,0:0:0:0:
449,205,15864,1,8,0:0:0:0:
508,285,16044,1,10,0:0:0:0:
328,341,16225,6,0,P|372:317|421:327,1,102,2|0,1:2|0:0,0:0:0:0:
437,343,16587,2,0,L|432:376,1,34,10|0,0:0|0:0,0:0:0:0:
236,234,16949,6,0,B|248:261|263:276|263:276|248:292|234:318,1,102,2|0,1:0|0:0,0:0:0:0:
235,318,17311,2,0,B|221:291|206:275|206:275|221:260|233:233,1,102,10|0,0:0|0:0,0:0:0:0:
233,233,17673,6,0,P|201:228|165:222,1,68,2|2,1:0|0:0,0:0:0:0:
40,340,18035,1,8,0:0:0:0:
101,279,18215,1,2,1:0:0:0:
25,97,18396,5,0,1:0:0:0:
10,113,18577,1,0,0:0:0:0:
7,148,18758,1,8,0:0:0:0:
80,187,18939,1,8,0:0:0:0:
160,124,19120,6,0,P|175:78|146:38,1,102,2|0,1:2|0:0,0:0:0:0:
129,30,19482,2,0,B|95:35,1,34,10|0,0:0|0:0,0:0:0:0:
339,209,19844,6,0,P|325:162|353:123,1,102,2|0,1:0|0:0,0:0:0:0:
370,114,20206,2,0,B|403:120,1,34,10|0,0:0|0:0,0:0:0:0:
379,306,20567,6,0,P|329:298|279:292,1,102,2|0,1:0|0:0,0:0:0:0:
250,290,20929,1,10,0:0:0:0:
339,209,21110,1,2,1:0:0:0:
263,374,21291,6,0,P|233:379|205:365,1,63.75,0|0,1:0|0:0,0:0:0:0:
263,374,21653,2,0,B|225:388|189:363|203:352|166:323|123:338,1,152.999995330811,8|0,0:0|0:0,0:0:0:0:
57,382,22015,6,0,P|80:338|57:295,1,102,2|0,1:2|0:0,0:0:0:0:
43,279,22377,2,0,L|9:285,1,34,10|0,0:0|0:0,0:0:0:0:
153,263,22738,5,2,1:0:0:0:
4,139,22919,1,2,0:0:0:0:
84,87,23100,2,0,P|103:122|93:161,1,82.8749962062838,8|0,0:0|0:0,0:0:0:0:
87,184,23462,6,0,P|137:175|187:169,1,102,2|0,1:0|0:0,0:0:0:0:
215,166,23824,1,10,0:0:0:0:
351,35,24005,1,2,1:0:0:0:
354,40,24186,1,0,1:0:0:0:
436,215,24367,5,2,0:0:0:0:
359,158,24548,1,10,0:0:0:0:
283,103,24729,1,10,0:0:0:0:
436,215,24909,6,0,P|426:265|420:315,1,102,2|0,1:2|0:0,0:0:0:0:
417,340,25271,1,10,0:0:0:0:
512,168,25452,1,0,1:0:0:0:
338,253,25633,6,0,P|287:243|237:237,1,102,0|0,1:0|0:0,0:0:0:0:
213,233,25995,1,8,0:0:0:0:
54,105,26176,1,8,0:0:0:0:
149,69,26357,6,0,P|139:120|133:170,1,102,0|0,1:0|0:0,0:0:0:0:
129,194,26719,1,8,0:0:0:0:
0,346,26900,1,0,1:0:0:0:
0,346,27081,1,0,1:0:0:0:
129,194,27261,5,2,0:0:0:0:
64,271,27442,1,10,0:0:0:0:
0,346,27623,2,0,L|5:379,1,34,10|0,0:0|0:0,0:0:0:0:
129,194,27804,6,0,P|137:244|144:294,1,102,2|0,1:2|0:0,0:0:0:0:
149,321,28166,1,10,0:0:0:0:
41,184,28347,1,0,1:0:0:0:
149,321,28528,6,0,P|199:312|249:305,1,102,0|0,1:0|0:0,0:0:0:0:
249,305,28890,2,0,P|266:333|257:365,1,68,8|8,0:0|0:0,0:0:0:0:
181,225,29252,5,0,1:0:0:0:
241,149,29432,1,0,0:0:0:0:
308,213,29613,2,0,L|342:209,1,34,8|0,0:0|0:0,0:0:0:0:
241,149,29794,1,0,1:0:0:0:
420,280,29975,2,0,P|426:229|435:179,1,102,0|0,1:0|0:0,0:0:0:0:
435,179,30337,2,0,P|471:197|510:187,1,82.8749962062838,8|0,0:0|0:0,0:0:0:0:
463,96,30699,6,0,P|416:110|340:121,1,102,2|0,1:2|0:0,0:0:0:0:
347,112,31061,2,0,P|338:102|334:76,1,34,10|0,0:0|0:0,0:0:0:0:
267,35,31242,1,0,1:0:0:0:
161,173,31423,5,2,1:0:0:0:
143,92,31603,2,0,P|180:103|229:109,1,68,2|8,0:0|0:0,0:0:0:0:
471,374,32146,5,2,1:0:0:0:
488,292,32327,2,0,P|451:303|404:308,1,68,2|8,0:0|0:0,0:0:0:0:
353,270,32689,1,2,1:0:0:0:
205,365,32870,5,0,1:0:0:0:
231,341,33051,1,0,0:0:0:0:
259,279,33232,1,8,0:0:0:0:
233,206,33413,1,8,0:0:0:0:
158,128,33594,6,0,P|120:142|45:152,1,102,2|0,1:2|0:0,0:0:0:0:
43,144,33955,2,0,P|36:134|35:110,1,34,10|0,0:0|0:0,0:0:0:0:
74,40,34136,1,0,1:0:0:0:
264,154,34317,5,2,1:0:0:0:
328,88,34498,2,0,P|365:84|406:73,1,68,2|8,0:0|0:0,0:0:0:0:
495,315,35041,6,0,P|471:291|398:281,1,102,2|0,1:0|0:0,0:0:0:0:
391,287,35403,1,10,0:0:0:0:
475,212,35584,1,2,1:0:0:0:
328,88,35765,5,0,1:0:0:0:
229,121,35946,1,0,0:0:0:0:
259,217,36126,1,8,0:0:0:0:
358,184,36307,1,8,0:0:0:0:
216,112,36488,6,0,B|163:99|91:128,1,102,2|0,1:2|0:0,0:0:0:0:
101,128,36850,2,0,P|97:155|103:167,1,34,10|0,0:0|0:0,0:0:0:0:
152,228,37031,1,0,1:0:0:0:
51,369,37212,5,2,1:0:0:0:
5,297,37393,2,0,P|42:295|85:284,1,68,2|8,0:0|0:0,0:0:0:0:
294,329,37755,5,8,0:0:0:0:
230,251,37936,2,0,P|243:212|253:122,1,102,2|0,1:0|0:0,0:0:0:0:
245,136,38298,2,0,P|199:146|183:184,1,68,10|0,0:0|1:0,0:0:0:0:
379,377,38659,6,0,P|376:347|395:311,1,63.75,2|0,1:0|0:0,0:0:0:0:
379,377,39021,2,0,B|365:339|390:303|401:317|431:276|415:237,1,152.999995330811,8|0,0:0|0:0,0:0:0:0:
374,172,39383,6,0,P|328:183|295:187,1,68,2|0,1:2|0:0,0:0:0:0:
188,141,39745,1,10,0:0:0:0:
250,298,39926,2,0,P|296:287|329:283,1,68,2|0,1:0|1:0,0:0:0:0:
203,221,40288,1,0,0:0:0:0:
61,324,40469,6,0,P|49:334|69:324,1,82.8749962062838,10|0,0:0|0:0,0:0:0:0:
110,272,40830,6,0,B|93:253|93:253|103:208|103:208|97:202|97:202|110:149|110:149|93:115,1,159.375,2|0,1:0|0:0,0:0:0:0:
84,124,41192,2,0,L|46:130,1,34,10|0,0:0|0:0,0:0:0:0:
234,19,41373,6,0,P|272:32|314:39,1,68,2|0,1:0|1:0,0:0:0:0:
224,249,41735,5,2,0:0:0:0:
384,194,41916,2,0,P|341:209|297:220,1,90.6666666666667,10|0,0:0|0:0,0:0:0:0:
224,249,42277,6,0,P|232:299|239:349,1,102,2|0,1:2|0:0,0:0:0:0:
243,374,42639,1,10,0:0:0:0:
138,214,42820,1,0,1:0:0:0:
318,295,43001,2,0,P|368:285|418:277,1,102,0|0,1:0|0:0,0:0:0:0:
444,270,43363,1,8,0:0:0:0:
284,151,43544,1,8,0:0:0:0:
347,96,43725,6,0,P|372:139|361:187,1,102,0|0,1:0|0:0,0:0:0:0:
350,208,44087,1,8,0:0:0:0:
210,95,44267,1,0,1:0:0:0:
210,95,44448,1,0,1:0:0:0:
350,208,44629,2,0,L|344:241,1,34,2|0,0:0|0:0,0:0:0:0:
284,151,44810,2,0,L|278:184,1,34,10|0,0:0|0:0,0:0:0:0:
210,95,44991,2,0,L|204:128,1,34,10|0,0:0|0:0,0:0:0:0:
260,275,45172,6,0,P|211:263|169:289,1,102,2|0,1:2|0:0,0:0:0:0:
150,321,45534,1,10,0:0:0:0:
277,184,45715,1,0,1:0:0:0:
150,321,45896,2,0,P|100:314|50:307,1,102,0|0,1:0|0:0,0:0:0:0:
19,305,46258,1,8,0:0:0:0:
150,321,46439,1,8,0:0:0:0:
42,115,46619,5,0,1:0:0:0:
133,99,46800,1,0,0:0:0:0:
174,181,46981,1,8,0:0:0:0:
107,244,47162,1,0,1:0:0:0:
224,372,47343,2,0,P|274:362|324:356,1,102,0|0,1:0|0:0,0:0:0:0:
345,352,47705,2,0,P|358:310|332:274,1,90.6666666666667,10|0,0:0|0:0,0:0:0:0:
263,187,48067,6,0,P|311:198|353:172,1,102,2|0,1:2|0:0,0:0:0:0:
376,151,48429,1,10,0:0:0:0:
210,51,48610,1,0,1:0:0:0:
299,35,48790,2,0,L|288:102,1,68,0|0,1:0|0:0,0:0:0:0:
421,232,49152,1,8,0:0:0:0:
287,102,49333,1,8,0:0:0:0:
294,305,49514,5,0,1:0:0:0:
384,315,49695,1,0,0:0:0:0:
421,232,49876,1,8,0:0:0:0:
353,172,50057,1,0,1:0:0:0:
204,295,50238,2,0,P|153:286|103:279,1,102,0|0,1:0|0:0,0:0:0:0:
73,273,50600,2,0,P|44:232|58:185,1,102,10|0,0:0|0:0,0:0:0:0:
125,136,50961,6,0,P|176:126|243:113,1,102,2|0,1:2|0:0,0:0:0:0:
240,124,51323,1,10,0:0:0:0:
376,65,51504,1,0,1:0:0:0:
311,0,51685,6,0,P|304:44|289:69,1,68,0|0,1:0|0:0,0:0:0:0:
373,197,52047,1,8,0:0:0:0:
450,160,52228,1,8,0:0:0:0:
363,210,52409,5,0,1:0:0:0:
292,306,52590,1,0,0:0:0:0:
217,331,52771,1,8,0:0:0:0:
157,285,52952,1,0,1:0:0:0:
165,207,53133,6,0,P|181:170|193:86,1,102,0|0,1:0|0:0,0:0:0:0:
176,91,53494,2,0,P|158:45|188:10,1,90.6666666666667,10|0,0:0|0:0,0:0:0:0:
214,11,53856,6,0,B|288:7|269:57|337:58,1,136,2|10,1:2|0:0,0:0:0:0:
419,143,54399,1,0,1:0:0:0:
333,205,54580,2,0,P|327:239|313:283,1,68,0|0,1:0|0:0,0:0:0:0:
388,348,54942,1,8,0:0:0:0:
465,302,55123,1,8,0:0:0:0:
437,208,55304,5,0,1:0:0:0:
495,57,55484,1,0,0:0:0:0:
424,81,55665,1,8,0:0:0:0:
355,105,55846,1,0,1:0:0:0:
248,44,56027,6,0,P|210:59|190:133,1,102,0|0,1:0|0:0,0:0:0:0:
196,126,56389,2,0,P|214:168|223:237,1,90.6666666666667,10|0,0:0|0:0,0:0:0:0:
194,278,56751,6,0,P|148:273|62:238,1,136,2|10,1:2|0:0,0:0:0:0:
39,147,57294,1,0,1:0:0:0:
110,97,57475,2,0,P|122:55|131:21,1,68,0|0,1:0|0:0,0:0:0:0:
155,154,57836,1,8,0:0:0:0:
49,43,58017,1,8,0:0:0:0:
286,89,58198,5,0,1:0:0:0:
239,217,58379,1,0,0:0:0:0:
365,82,58560,5,8,0:0:0:0:
366,285,58741,1,0,1:0:0:0:
430,37,58922,5,0,1:0:0:0:
474,287,59284,6,0,P|448:279|435:280,1,34,8|0,0:0|0:0,0:0:0:0:
290,303,59465,2,0,P|275:324|273:337,1,34,8|0,0:0|0:0,0:0:0:0:
376,360,59646,6,0,P|366:290|355:221,1,140.25000428009,2|0,1:2|0:0,0:0:0:0:
350,192,60007,1,10,0:0:0:0:
485,24,60188,1,2,1:0:0:0:
350,192,60369,2,0,P|281:178|211:169,1,140.25000428009,2|0,1:0|0:0,0:0:0:0:
184,165,60731,1,10,0:0:0:0:
73,16,60912,6,0,P|84:87|93:154,1,140.25000428009,10|0,0:0|0:0,0:0:0:0:
99,182,61274,2,0,P|52:174|6:165,1,93.5000028533936,2|8,0:0|0:0,0:0:0:0:
163,64,61636,1,2,1:0:0:0:
21,257,61817,2,0,P|13:210|6:164,1,93.5000028533936,2|0,1:0|0:0,0:0:0:0:
132,296,62178,1,10,0:0:0:0:
0,78,62359,1,8,0:0:0:0:
132,296,62540,6,0,P|187:257|253:276,1,140.25000428009,2|0,1:2|0:0,0:0:0:0:
281,296,62902,1,10,0:0:0:0:
398,113,63083,1,2,1:0:0:0:
281,296,63264,2,0,P|261:230|300:174,1,140.25000428009,2|0,1:0|0:0,0:0:0:0:
324,158,63626,1,10,0:0:0:0:
488,341,63807,6,0,P|526:284|507:219,1,140.25000428009,10|0,0:0|0:0,0:0:0:0:
485,195,64169,2,0,P|445:218|401:209,1,93.5000028533936,2|8,0:0|0:0,0:0:0:0:
270,80,64530,1,2,1:0:0:0:
132,296,64711,2,0,P|141:251|117:212,1,93.5000028533936,2|0,1:0|0:0,0:0:0:0:
211,357,65073,1,10,0:0:0:0:
51,145,65254,1,8,0:0:0:0:
211,357,65435,6,0,P|277:346|349:334,1,140.25000428009,2|0,1:2|0:0,0:0:0:0:
385,327,65797,1,10,0:0:0:0:
506,133,65978,1,2,1:0:0:0:
385,327,66159,2,0,P|375:260|362:188,1,140.25000428009,2|0,1:0|0:0,0:0:0:0:
354,154,66521,1,10,0:0:0:0:
166,32,66701,6,0,P|127:88|146:153,1,140.25000428009,10|0,0:0|0:0,0:0:0:0:
146,153,67063,2,0,P|169:113|160:69,1,93.5000028533936,2|8,0:0|0:0,0:0:0:0:
194,244,67425,1,2,1:0:0:0:
286,98,67606,2,0,P|262:137|271:181,1,93.5000028533936,2|0,1:0|0:0,0:0:0:0:
385,327,67968,1,10,0:0:0:0:
271,181,68149,1,8,0:0:0:0:
144,316,68330,6,0,P|201:279|267:296,1,140.25000428009,2|0,1:2|0:0,0:0:0:0:
289,318,68692,1,8,0:0:0:0:
421,138,68872,1,0,1:0:0:0:
385,327,69053,2,0,P|392:280|400:234,1,93.5000028533936,0|0,1:0|0:0,0:0:0:0:
289,318,69415,1,8,0:0:0:0:
512,149,69596,1,8,0:0:0:0:
289,318,69777,6,0,P|219:306|150:296,1,140.25000428009,0|0,1:0|0:0,0:0:0:0:
119,289,70139,1,8,0:0:0:0:
0,148,70320,1,0,1:0:0:0:
119,289,70501,1,0,1:0:0:0:
57,219,70682,1,0,0:0:0:0:
197,83,70863,2,0,L|243:90,1,46.7500014266968,8|0,0:0|1:0,0:0:0:0:
357,182,71044,2,0,L|404:190,1,46.7500014266968,8|0,0:0|0:0,0:0:0:0:
503,49,71224,6,0,P|378:73|354:76,1,140.25000428009,2|0,1:0|0:0,0:0:0:0:
346,69,71586,1,10,0:0:0:0:
496,170,71767,1,10,0:0:0:0:
355,384,71948,6,0,P|348:331|340:287,1,93.5000028533936,2|0,1:0|0:0,0:0:0:0:
403,189,72310,1,10,0:0:0:0:
138,274,72491,6,0,P|189:287|227:303,1,93.5000028533936,2|0,1:0|1:0,0:0:0:0:
180,129,72853,2,0,P|129:116|91:100,1,93.5000028533936,2|8,0:0|0:0,0:0:0:0:
325,16,73215,5,10,0:0:0:0:
294,103,73395,2,0,P|281:154|265:192,1,93.5000028533936,2|0,1:2|0:0,0:0:0:0:
425,298,73757,5,10,0:0:0:0:
353,168,73938,1,0,1:0:0:0:
512,43,74119,6,0,P|468:7|371:29,1,140.25000428009,2|0,1:0|0:0,0:0:0:0:
369,15,74481,1,10,0:0:0:0:
431,155,74662,1,10,0:0:0:0:
242,28,74843,6,0,P|210:71|216:112,1,93.5000028533936,2|0,1:0|0:0,0:0:0:0:
303,257,75205,1,10,0:0:0:0:
107,180,75386,6,0,P|150:212|191:206,1,93.5000028533936,2|0,1:0|1:0,0:0:0:0:
355,77,75747,2,0,P|305:98|290:136,1,93.5000028533936,2|8,0:0|0:0,0:0:0:0:
260,198,76109,5,10,0:0:0:0:
319,340,76290,2,0,P|325:286|299:254,1,93.5000028533936,2|0,1:0|0:0,0:0:0:0:
191,87,76652,5,10,0:0:0:0:
108,259,76833,1,8,0:0:0:0:
0,106,77014,6,0,P|88:98|193:69,1,187.000005706787,2|10,1:0|0:0,0:0:0:0:
343,188,77557,1,2,1:0:0:0:
296,14,77738,2,0,P|284:68|269:108,1,93.5000028533936,2|0,1:0|0:0,0:0:0:0:
154,215,78099,1,10,0:0:0:0:
310,352,78280,6,0,P|372:361|410:319,1,93.5000028533936,10|0,0:0|1:2,0:0:0:0:
256,193,78642,2,0,P|236:234|249:278,1,93.5000028533936,2|8,0:0|0:0,0:0:0:0:
377,128,79004,1,2,1:0:0:0:
254,28,79185,2,0,P|212:8|168:21,1,93.5000028533936,2|0,1:0|0:0,0:0:0:0:
37,166,79547,5,10,0:0:0:0:
124,271,79728,1,8,0:0:0:0:
312,71,79909,6,0,P|368:43|449:131,1,187.000005706787,2|8,1:0|0:0,0:0:0:0:
476,186,80451,1,0,1:0:0:0:
201,338,80632,5,0,1:0:0:0:
322,291,80813,1,0,0:0:0:0:
375,355,80994,5,8,0:0:0:0:
183,210,81175,1,8,0:0:0:0:
252,115,81356,5,0,1:0:0:0:
66,197,81537,1,0,0:0:0:0:
266,105,81718,5,8,0:0:0:0:
50,39,81899,1,8,0:0:0:0:
311,247,82080,5,0,1:0:0:0:
316,269,82170,1,0,1:0:0:0:
322,291,82260,1,0,0:0:0:0:
503,75,82441,5,8,0:0:0:0:
487,35,82532,1,0,1:0:0:0:
452,11,82622,1,0,1:0:0:0:
409,9,82713,1,0,1:0:0:0:
373,30,82803,1,2,1:0:0:0:
256,192,82894,12,2,88593,1:2:0:0:
