osu file format v14

[General]
AudioFilename: audio.mp3
AudioLeadIn: 0
PreviewTime: 13104
Countdown: 0
SampleSet: Soft
StackLeniency: 0.7
Mode: 0
LetterboxInBreaks: 0
WidescreenStoryboard: 1

[Editor]
Bookmarks: 1752,13331,42278,59646,82804
DistanceSpacing: 1
BeatDivisor: 4
GridSize: 32
TimelineZoom: 0.9999998

[Metadata]
Title:Kay Muumilaaksoon (TV Size)
TitleUnicode:Käy Muumilaaksoon (TV Size)
Artist:Benny Tornroos
ArtistUnicode:Benny Törnroos
Creator:finnish bn
Version:Hard
Source:Muumilaakson tarinoita
Tags:aakki pop folk male vocals finnish moomin anime cartoon opening xandit iceluin een persoon butylcyclobutyn enneya keywee reisevia roda totsuki pache knowledge shirahane suou hivie Lasten ikioma Muumi 楽しいムーミン一家 Tanoshii Muumin Ikka Delightful Moomin Family mumin bite you death byd antti
BeatmapID:3595646
BeatmapSetID:1757046

[Difficulty]
HPDrainRate:4
CircleSize:4
OverallDifficulty:6.5
ApproachRate:7.5
SliderMultiplier:1.3
SliderTickRate:1

[Events]
//Background and Video events
0,0,"bg.jpg",0,0
Video,403,"muumiop.mp4"
//Break Periods
//Storyboard Layer 0 (Background)
//Storyboard Layer 1 (Fail)
//Storyboard Layer 2 (Pass)
//Storyboard Layer 3 (Foreground)
//Storyboard Layer 4 (Overlay)
//Storyboard Sound Samples

[TimingPoints]
305,361.838137739718,4,2,1,80,1,8
666,-100,4,2,1,80,0,0
1028,-100,4,2,1,80,0,0
1390,-100,4,2,1,80,0,0
1752,361.838137739718,4,2,1,80,1,0
1752,-100,4,2,1,80,0,0
13330,-111.111111111111,4,2,1,80,0,0
42277,-105.263157894737,4,2,1,80,0,0
59646,-90.9090909090909,4,2,1,80,0,1
82803,-100,4,2,1,80,0,0
83527,-100,4,2,1,70,0,0
84975,-100,4,2,1,60,0,0
86060,-100,4,2,1,50,0,0
86784,-100,4,2,1,40,0,0
87507,-100,4,2,1,30,0,0
88231,-100,4,2,1,20,0,0
88593,-100,4,2,1,20,0,0

[Colours]
Combo1 : 192,192,192
Combo2 : 128,255,128
Combo3 : 255,184,149

[HitObjects]
127,342,666,6,0,P|88:353|-9:368,2,130,10|10|10,0:0|0:0|0:0,0:0:0:0:
261,231,1752,6,0,P|286:195|286:103,1,130,2|10,1:2|0:0,0:0:0:0:
273,38,2294,1,2,1:0:0:0:
200,18,2475,2,0,B|129:34|149:71|82:74,1,130,2|8,1:0|0:0,0:0:0:0:
40,137,3018,6,0,P|51:172|57:214,1,65,10|0,0:0|1:0,0:0:0:0:
155,233,3380,2,0,P|144:198|138:156,1,65,2|10,0:0|0:0,0:0:0:0:
195,116,3742,1,2,1:0:0:0:
266,142,3923,1,2,1:0:0:0:
344,273,4284,2,0,P|385:258|398:221,1,65,10|8,0:0|0:0,0:0:0:0:
453,187,4646,6,0,P|444:146|435:53,1,130,2|10,1:2|0:0,0:0:0:0:
378,7,5189,1,2,1:0:0:0:
324,57,5370,2,0,P|265:68|269:152,1,130,2|8,1:0|0:0,0:0:0:0:
314,177,5913,6,0,P|319:223|330:255,1,65,10|0,0:0|1:0,0:0:0:0:
249,292,6274,2,0,P|244:246|233:214,1,65,2|10,0:0|0:0,0:0:0:0:
175,177,6636,1,2,1:0:0:0:
104,217,6817,1,2,1:0:0:0:
155,378,7179,2,0,P|201:371|222:367,1,65,10|8,0:0|0:0,0:0:0:0:
249,292,7541,6,0,B|316:298|290:330|388:340,1,130,2|8,1:2|0:0,0:0:0:0:
436,297,8084,1,0,1:0:0:0:
407,223,8265,2,0,P|396:192|397:84,1,130,0|8,1:0|0:0,0:0:0:0:
453,37,8807,6,0,P|495:41|509:77,1,65,8|0,0:0|1:0,0:0:0:0:
486,137,9169,2,0,P|493:179|497:208,1,65,2|10,0:0|0:0,0:0:0:0:
478,279,9531,1,2,1:0:0:0:
478,279,9712,2,0,B|420:293|430:320|355:333,1,130,2|10,1:0|0:0,0:0:0:0:
284,297,10255,1,8,0:0:0:0:
333,232,10436,6,0,L|364:83,1,130,2|8,1:2|0:0,0:0:0:0:
324,35,10978,1,0,1:0:0:0:
250,59,11159,1,0,1:0:0:0:
176,198,11521,2,0,P|135:192|107:191,1,65,8|8,0:0|0:0,0:0:0:0:
51,146,11883,5,0,1:0:0:0:
25,68,12064,1,0,0:0:0:0:
94,17,12245,2,0,P|135:17|156:37,1,65,8|0,0:0|1:0,0:0:0:0:
206,94,12607,2,0,P|281:78|346:70,1,130,0|8,1:0|0:0,0:0:0:0:
391,24,13149,1,10,0:0:0:0:
446,108,13330,6,0,P|432:152|409:243,2,116.999996429443,2|10|2,1:2|0:0|1:0,0:0:0:0:
331,164,14416,1,10,0:0:0:0:
389,291,14778,6,0,P|427:302|508:334,1,116.999996429443,2|10,1:0|0:0,0:0:0:0:
414,383,15320,2,0,P|372:368|298:351,1,116.999996429443,2|0,1:0|0:0,0:0:0:0:
252,300,15863,2,0,P|241:267|254:239,1,58.4999982147217,8|10,0:0|0:0,0:0:0:0:
314,187,16225,6,0,P|326:154|332:71,1,116.999996429443,2|10,1:2|0:0,0:0:0:0:
276,20,16768,1,0,1:0:0:0:
210,58,16949,2,0,P|198:91|192:174,1,116.999996429443,2|10,1:0|0:0,0:0:0:0:
72,279,17672,5,2,1:0:0:0:
23,218,17853,2,0,P|25:183|43:153,1,58.4999982147217,2|8,0:0|0:0,0:0:0:0:
80,103,18215,1,2,1:0:0:0:
41,29,18396,6,0,P|8:2|-10:-6,2,58.4999982147217,0|0|8,1:0|0:0|0:0,0:0:0:0:
108,6,18939,1,8,0:0:0:0:
176,48,19120,6,0,P|219:52|303:74,2,116.999996429443,2|10|2,1:2|0:0|1:0,0:0:0:0:
119,166,20205,1,10,0:0:0:0:
186,268,20567,6,0,P|211:243|218:157,1,116.999996429443,2|10,1:0|0:0,0:0:0:0:
331,202,21110,2,0,P|306:227|299:313,1,116.999996429443,2|0,1:0|0:0,0:0:0:0:
355,353,21653,2,0,P|389:364|438:357,1,58.4999982147217,8|8,0:0|0:0,0:0:0:0:
481,324,22014,6,0,P|469:288|463:200,1,116.999996429443,2|10,1:2|0:0,0:0:0:0:
501,87,22738,1,2,1:0:0:0:
465,16,22919,1,2,0:0:0:0:
389,25,23100,1,8,0:0:0:0:
316,152,23462,6,0,P|275:163|228:226,1,116.999996429443,2|10,1:0|0:0,0:0:0:0:
186,286,24005,2,0,P|156:274|121:264,1,58.4999982147217,2|0,1:0|1:0,0:0:0:0:
65,231,24366,5,2,0:0:0:0:
46,157,24547,1,10,0:0:0:0:
26,83,24728,1,10,0:0:0:0:
93,16,24909,6,0,P|122:27|207:37,1,116.999996429443,2|10,1:2|0:0,0:0:0:0:
263,90,25452,1,0,1:0:0:0:
263,90,25633,1,0,1:0:0:0:
390,11,25995,2,0,P|410:32|412:64,1,58.4999982147217,8|8,0:0|0:0,0:0:0:0:
362,141,26356,6,0,B|350:182|367:212|348:283,1,116.999996429443,0|8,1:0|0:0,0:0:0:0:
302,326,26899,1,0,1:0:0:0:
230,303,27080,1,0,1:0:0:0:
223,227,27261,2,0,P|228:196|237:163,2,58.4999982147217,2|10|10,0:0|0:0|0:0,0:0:0:0:
136,267,27804,6,0,B|84:274|97:315|25:325,1,116.999996429443,2|10,1:2|0:0,0:0:0:0:
2,248,28347,1,0,1:0:0:0:
2,248,28528,2,0,B|58:240|49:198|101:191,1,116.999996429443,0|8,1:0|0:0,0:0:0:0:
159,125,29070,6,0,P|166:84|141:11,2,116.999996429443,8|0|0,0:0|0:0|1:0,0:0:0:0:
207,189,29975,2,0,P|237:197|276:208,1,58.4999982147217,0|0,1:0|0:0,0:0:0:0:
303,274,30337,1,8,0:0:0:0:
462,155,30699,6,0,P|482:108|435:41,1,116.999996429443,2|10,1:2|0:0,0:0:0:0:
343,15,31422,1,2,1:0:0:0:
343,15,31603,2,0,P|305:30|271:38,1,58.4999982147217,2|8,0:0|0:0,0:0:0:0:
190,160,32146,5,2,1:0:0:0:
135,98,32327,2,0,P|126:53|124:31,1,58.4999982147217,2|8,0:0|0:0,0:0:0:0:
50,24,32689,2,0,P|56:75|74:164,1,116.999996429443,2|0,1:0|0:0,0:0:0:0:
115,205,33231,2,0,P|104:240|84:256,1,58.4999982147217,8|8,0:0|0:0,0:0:0:0:
6,279,33593,6,0,P|65:294|116:329,2,116.999996429443,2|10|2,1:2|0:0|1:0,0:0:0:0:
11,202,34498,1,2,0:0:0:0:
11,202,34679,1,8,0:0:0:0:
161,133,35041,6,0,P|201:147|274:156,1,116.999996429443,2|10,1:0|0:0,0:0:0:0:
354,179,35583,2,0,P|389:142|337:84,1,116.999996429443,2|0,1:0|0:0,0:0:0:0:
304,47,36126,1,8,0:0:0:0:
304,47,36307,1,8,0:0:0:0:
381,3,36488,6,0,P|417:12|496:26,1,116.999996429443,2|10,1:2|0:0,0:0:0:0:
509,127,37212,1,2,1:0:0:0:
509,127,37393,2,0,P|497:157|495:200,1,58.4999982147217,2|8,0:0|0:0,0:0:0:0:
481,298,37935,6,0,P|443:308|375:354,1,116.999996429443,2|10,1:0|0:0,0:0:0:0:
231,363,38659,2,0,P|243:334|248:299,1,58.4999982147217,2|0,1:0|0:0,0:0:0:0:
289,249,39021,2,0,P|283:212|285:187,1,58.4999982147217,8|8,0:0|0:0,0:0:0:0:
234,134,39383,6,0,P|187:147|163:212,1,116.999996429443,2|10,1:2|0:0,0:0:0:0:
85,234,39925,2,0,P|98:281|163:305,1,116.999996429443,2|0,1:0|0:0,0:0:0:0:
212,358,40468,1,10,0:0:0:0:
346,198,40830,6,0,B|347:169|347:169|362:150|362:150|361:132|361:132|373:113|373:113|378:81,1,116.999996429443,2|10,1:0|0:0,0:0:0:0:
320,21,41373,2,0,P|285:41|285:67,1,58.4999982147217,2|0,1:0|1:0,0:0:0:0:
246,120,41735,5,2,0:0:0:0:
168,104,41916,1,10,0:0:0:0:
92,90,42096,1,8,0:0:0:0:
50,175,42277,6,0,P|99:179|164:238,1,123.499996702194,2|10,1:2|0:0,0:0:0:0:
182,302,42820,1,0,1:0:0:0:
182,302,43001,1,0,1:0:0:0:
281,365,43363,2,0,P|291:342|299:297,1,61.7499983510972,8|8,0:0|0:0,0:0:0:0:
358,255,43724,6,0,B|377:187|338:127,1,123.499996702194,0|8,1:0|0:0,0:0:0:0:
275,108,44267,1,0,1:0:0:0:
207,139,44448,1,0,1:0:0:0:
183,215,44629,2,0,P|175:243|201:275,2,61.7499983510972,2|10|10,0:0|0:0|0:0,0:0:0:0:
125,164,45172,6,0,B|61:157|74:188|37:176|0:177,1,123.499996702194,2|10,1:2|0:0,0:0:0:0:
9,102,45715,1,0,1:0:0:0:
9,102,45896,2,0,B|22:50|73:38|118:73,1,123.499996702194,0|8,1:0|0:0,0:0:0:0:
264,123,46619,5,0,1:0:0:0:
342,93,46800,2,0,P|329:65|330:34,2,61.7499983510972,0|8|0,0:0|0:0|1:0,0:0:0:0:
391,163,47343,2,0,P|423:170|512:134,1,123.499996702194,0|10,1:0|0:0,0:0:0:0:
508,64,47886,1,10,0:0:0:0:
445,15,48067,6,0,B|385:5|386:47|315:31,1,123.499996702194,2|10,1:2|0:0,0:0:0:0:
247,0,48610,1,0,1:0:0:0:
247,0,48790,1,0,1:0:0:0:
188,95,49152,2,0,L|204:167,1,61.7499983510972,8|8,0:0|0:0,0:0:0:0:
260,208,49514,5,0,1:0:0:0:
327,173,49695,2,0,P|364:157|383:130,2,61.7499983510972,0|8|0,0:0|0:0|1:0,0:0:0:0:
324,247,50238,2,0,P|312:288|308:374,1,123.499996702194,0|10,1:0|0:0,0:0:0:0:
214,322,50781,1,10,0:0:0:0:
147,367,50961,6,0,B|91:347|113:307|37:297,1,123.499996702194,2|10,1:2|0:0,0:0:0:0:
4,237,51504,1,0,1:0:0:0:
4,237,51685,1,0,1:0:0:0:
99,158,52047,2,0,P|134:169|168:175,1,61.7499983510972,8|8,0:0|0:0,0:0:0:0:
223,222,52409,5,0,1:0:0:0:
260,152,52590,2,0,L|241:81,2,61.7499983510972,0|8|0,0:0|0:0|1:0,0:0:0:0:
324,210,53133,2,0,P|382:219|459:235,1,123.499996702194,0|10,1:0|0:0,0:0:0:0:
505,179,53675,1,10,0:0:0:0:
500,73,53856,6,0,B|459:85|459:85|444:116|444:116|387:133,1,123.499996702194,2|10,1:2|0:0,0:0:0:0:
330,85,54399,1,0,1:0:0:0:
330,85,54580,1,0,1:0:0:0:
212,4,54942,2,0,P|204:42|198:80,1,61.7499983510972,8|8,0:0|0:0,0:0:0:0:
141,111,55304,5,0,1:0:0:0:
84,55,55484,2,0,P|57:42|5:46,2,61.7499983510972,0|8|0,0:0|0:0|1:0,0:0:0:0:
68,137,56027,2,0,P|76:181|91:262,1,123.499996702194,0|10,1:0|0:0,0:0:0:0:
43,318,56570,1,8,0:0:0:0:
120,363,56751,6,0,B|183:358|159:317|245:308,1,123.499996702194,2|10,1:2|0:0,0:0:0:0:
296,347,57294,1,0,1:0:0:0:
296,347,57475,2,0,P|346:357|427:368,1,123.499996702194,0|8,1:0|0:0,0:0:0:0:
489,327,58017,1,8,0:0:0:0:
436,262,58198,6,0,L|423:198,1,61.7499983510972,0|0,1:0|0:0,0:0:0:0:
351,155,58560,1,8,0:0:0:0:
389,85,58741,1,0,1:0:0:0:
317,15,58922,6,0,P|280:28|275:114,1,123.499996702194,0|8,1:0|0:0,0:0:0:0:
220,175,59465,1,8,0:0:0:0:
164,97,59646,6,0,L|22:74,1,143.000004364014,2|10,1:2|0:0,0:0:0:0:
47,156,60188,1,2,1:0:0:0:
78,239,60369,2,0,L|121:378,1,143.000004364014,2|10,1:0|0:0,0:0:0:0:
184,318,60912,6,0,L|212:225,1,71.5000021820069,10|0,0:0|1:0,0:0:0:0:
295,234,61274,2,0,L|266:141,1,71.5000021820069,2|8,0:0|0:0,0:0:0:0:
197,132,61636,1,2,1:0:0:0:
253,68,61817,2,0,L|281:-24,1,71.5000021820069,2|0,1:0|0:0,0:0:0:0:
366,33,62178,2,0,L|344:101,1,71.5000021820069,10|8,0:0|0:0,0:0:0:0:
387,200,62540,6,0,P|444:222|512:169,1,143.000004364014,2|10,1:2|0:0,0:0:0:0:
496,95,63083,1,2,1:0:0:0:
486,12,63264,2,0,P|429:-10|361:43,1,143.000004364014,2|10,1:0|0:0,0:0:0:0:
270,60,63807,6,0,P|242:80|209:70,1,71.5000021820069,10|0,0:0|1:0,0:0:0:0:
118,157,64169,2,0,P|145:136|178:146,1,71.5000021820069,2|8,0:0|0:0,0:0:0:0:
243,205,64530,1,2,1:0:0:0:
188,271,64711,2,0,P|160:291|127:281,1,71.5000021820069,2|0,1:0|0:0,0:0:0:0:
69,226,65073,1,10,0:0:0:0:
69,226,65254,1,8,0:0:0:0:
15,153,65435,6,0,L|54:10,1,143.000004364014,2|10,1:2|0:0,0:0:0:0:
145,44,65978,1,2,1:0:0:0:
234,75,66159,2,0,L|196:212,1,143.000004364014,2|10,1:0|0:0,0:0:0:0:
268,302,66701,6,0,P|295:269|295:235,1,71.5000021820069,10|0,0:0|1:0,0:0:0:0:
386,288,67063,2,0,P|359:321|359:355,1,71.5000021820069,2|8,0:0|0:0,0:0:0:0:
439,383,67425,1,2,1:0:0:0:
439,383,67606,2,0,P|466:350|466:316,1,71.5000021820069,2|0,1:0|0:0,0:0:0:0:
453,233,67968,2,0,P|457:198|481:172,1,71.5000021820069,10|8,0:0|0:0,0:0:0:0:
467,78,68330,6,0,P|419:117|337:119,1,143.000004364014,2|8,1:2|0:0,0:0:0:0:
272,77,68872,1,0,1:0:0:0:
302,7,69053,1,0,1:0:0:0:
302,7,69234,2,0,P|354:18|378:28,1,71.5000021820069,0|8,0:0|0:0,0:0:0:0:
446,0,69596,1,8,0:0:0:0:
467,78,69777,5,0,1:0:0:0:
408,126,69958,1,0,1:0:0:0:
258,283,70320,5,0,1:0:0:0:
302,212,70501,2,0,P|294:170|291:140,1,71.5000021820069,0|0,1:0|0:0,0:0:0:0:
229,85,70863,1,8,0:0:0:0:
229,85,70953,1,2,3:0:0:0:
229,85,71044,1,8,0:0:0:0:
167,192,71224,6,0,L|25:215,1,143.000004364014,2|10,1:0|0:0,0:0:0:0:
39,305,71766,1,10,0:0:0:0:
124,328,71947,2,0,L|166:191,1,143.000004364014,2|10,1:0|0:0,0:0:0:0:
213,62,72490,6,0,L|241:154,1,71.5000021820069,2|0,1:0|1:0,0:0:0:0:
311,151,72852,2,0,L|282:243,1,71.5000021820069,2|8,0:0|0:0,0:0:0:0:
365,274,73214,1,10,0:0:0:0:
436,218,73395,2,0,L|414:149,1,71.5000021820069,2|0,1:2|0:0,0:0:0:0:
415,68,73756,2,0,L|436:0,1,71.5000021820069,10|0,0:0|1:0,0:0:0:0:
333,82,74118,6,0,P|277:40|212:61,1,143.000004364014,2|10,1:0|0:0,0:0:0:0:
163,138,74661,1,10,0:0:0:0:
192,222,74842,2,0,P|247:263|312:242,1,143.000004364014,2|10,1:0|0:0,0:0:0:0:
356,179,75385,6,0,P|328:158|295:168,1,71.5000021820069,2|0,1:0|1:0,0:0:0:0:
405,238,75747,2,0,P|432:258|465:248,1,71.5000021820069,2|8,0:0|0:0,0:0:0:0:
512,175,76108,1,10,0:0:0:0:
480,105,76289,2,0,P|452:84|419:94,1,71.5000021820069,2|0,1:0|0:0,0:0:0:0:
339,40,76651,1,10,0:0:0:0:
271,84,76832,1,8,0:0:0:0:
164,46,77013,6,0,L|203:189,1,143.000004364014,2|10,1:0|0:0,0:0:0:0:
174,284,77556,1,2,1:0:0:0:
110,213,77737,2,0,L|72:75,1,143.000004364014,2|10,1:0|0:0,0:0:0:0:
164,46,78279,6,0,P|191:79|191:113,1,71.5000021820069,10|0,0:0|1:2,0:0:0:0:
292,195,78641,2,0,P|265:162|265:128,1,71.5000021820069,2|8,0:0|0:0,0:0:0:0:
321,59,79003,1,2,1:0:0:0:
408,92,79184,2,0,P|435:125|435:159,1,71.5000021820069,2|0,1:0|0:0,0:0:0:0:
385,212,79546,2,0,P|389:246|413:272,1,71.5000021820069,10|8,0:0|0:0,0:0:0:0:
422,368,79908,6,0,P|374:329|292:327,1,143.000004364014,2|8,1:0|0:0,0:0:0:0:
216,284,80450,1,0,1:0:0:0:
171,354,80632,2,0,L|28:328,1,143.000004364014,0|8,1:0|0:0,0:0:0:0:
8,245,81174,1,8,0:0:0:0:
75,186,81355,5,0,1:0:0:0:
147,221,81537,2,0,P|191:233|229:240,2,71.5000021820069,0|8|8,0:0|0:0|0:0,0:0:0:0:
141,131,82080,1,0,1:0:0:0:
141,131,82170,1,8,3:0:0:0:
141,131,82260,1,0,0:0:0:0:
212,72,82441,2,0,L|263:87,3,35.7500010910034,8|0|0|0,0:0|3:0|1:0|0:0,0:0:0:0:
276,69,82803,5,2,1:0:0:0:
256,192,82894,12,2,88593,1:2:0:0:
