osu file format v14

[General]
AudioFilename: audio.mp3
AudioLeadIn: 0
PreviewTime: 13105
Countdown: 0
SampleSet: Soft
StackLeniency: 0.7
Mode: 0
LetterboxInBreaks: 0
WidescreenStoryboard: 1

[Editor]
DistanceSpacing: 1.2
BeatDivisor: 4
GridSize: 4
TimelineZoom: 2

[Metadata]
Title:Kay Muumilaaksoon (TV Size)
TitleUnicode:Käy Muumilaaksoon (TV Size)
Artist:Benny Tornroos
ArtistUnicode:Benny Törnroos
Creator:Aakki
Version:Nowa's Insane
Source:Muumilaakson tarinoita
Tags:pop folk male vocals finnish moomin anime cartoon opening xandit nyantiaz DTM9 nowa iceluin Lasten ikioma Muumi 楽しいムーミン一家 Tanoshii Muumin Ikka Delightful Moomin Family
BeatmapID:2855870
BeatmapSetID:1240966

[Difficulty]
HPDrainRate:5
CircleSize:3.6
OverallDifficulty:8.2
ApproachRate:8.4
SliderMultiplier:1.7
SliderTickRate:1

[Events]
//Background and Video events
0,0,"bg.jpg",0,0
Video,400,"muumiop.mp4"
//Break Periods
//Storyboard Layer 0 (Background)
//Storyboard Layer 1 (Fail)
//Storyboard Layer 2 (Pass)
//Storyboard Layer 3 (Foreground)
//Storyboard Layer 4 (Overlay)
//Storyboard Sound Samples

[TimingPoints]
305,361.838137739718,4,2,1,80,1,0
13331,-133.333333333333,4,2,1,80,0,0
17673,-117.647058823529,4,2,1,80,0,0
18215,-133.333333333333,4,2,1,80,0,0
46620,-100,4,2,1,80,0,0
59646,-100,4,2,1,80,0,1
82804,-100,4,2,1,80,0,0
83527,-100,4,2,1,70,0,0
84975,-100,4,2,1,60,0,0
86060,-100,4,2,1,50,0,0
86784,-100,4,2,1,40,0,0
87507,-100,4,2,1,30,0,0
88231,-100,4,2,1,20,0,0
88593,-100,4,2,1,5,0,0

[Colours]
Combo1 : 255,74,255
Combo2 : 255,0,0
Combo3 : 0,187,0
Combo4 : 251,251,0

[HitObjects]
91,292,666,5,10,0:0:0:0:
404,192,1028,1,10,0:0:0:0:
142,123,1390,1,10,0:0:0:0:
159,346,1752,6,0,P|176:301|174:260,1,85,2|0,1:2|0:0,0:0:0:0:
212,184,2114,2,0,P|245:205|269:253,1,85,10|2,0:0|1:0,0:0:0:0:
91,292,2476,1,2,1:0:0:0:
326,356,2837,1,8,0:0:0:0:
326,356,3018,1,10,0:0:0:0:
430,70,3380,5,2,0:0:0:0:
359,177,3561,1,10,0:0:0:0:
429,147,3742,1,2,1:0:0:0:
362,33,3923,2,0,P|321:15|275:12,1,85,2|0,1:0|0:0,0:0:0:0:
147,104,4285,1,10,0:0:0:0:
147,104,4466,1,8,0:0:0:0:
229,157,4647,6,0,L|242:52,1,85,2|0,1:2|0:0,0:0:0:0:
52,77,5008,2,0,L|65:182,1,85,10|2,0:0|1:0,0:0:0:0:
75,257,5370,1,2,1:0:0:0:
239,79,5731,1,8,0:0:0:0:
239,79,5912,1,10,0:0:0:0:
374,211,6274,5,2,0:0:0:0:
250,169,6455,1,10,0:0:0:0:
330,151,6636,1,2,1:0:0:0:
243,246,6818,2,0,P|208:234|173:185,1,85,2|0,1:0|0:0,0:0:0:0:
147,79,7179,1,10,0:0:0:0:
147,79,7360,1,8,0:0:0:0:
45,107,7541,6,0,P|38:67|51:22,1,85,2|0,1:2|0:0,0:0:0:0:
243,46,7903,2,0,P|248:94|231:131,1,85,8|0,0:0|1:0,0:0:0:0:
147,79,8265,1,0,1:0:0:0:
10,230,8627,1,8,0:0:0:0:
10,230,8808,1,8,0:0:0:0:
437,297,9170,5,2,0:0:0:0:
320,225,9350,1,10,0:0:0:0:
411,225,9531,1,2,1:0:0:0:
296,298,9712,2,0,P|255:317|208:316,1,85,2|0,1:0|0:0,0:0:0:0:
92,240,10073,1,10,0:0:0:0:
92,240,10254,1,8,0:0:0:0:
131,374,10436,6,0,L|147:281,1,85,2|0,1:2|0:0,0:0:0:0:
215,143,10798,2,0,L|231:236,2,85,8|0|0,0:0|1:0|1:0,0:0:0:0:
56,46,11520,1,8,0:0:0:0:
56,46,11701,1,8,0:0:0:0:
225,141,12063,5,0,0:0:0:0:
348,88,12244,1,8,0:0:0:0:
260,74,12426,1,0,1:0:0:0:
365,162,12607,2,0,P|376:195|375:261,1,85,0|0,1:0|0:0,0:0:0:0:
266,328,12968,1,8,0:0:0:0:
266,328,13149,1,10,0:0:0:0:
171,266,13331,6,0,L|23:243,1,127.500004863739,2|10,1:2|0:0,0:0:0:0:
37,149,13873,1,0,1:0:0:0:
37,149,14054,2,0,L|163:168,1,127.500004863739,2|10,1:0|0:0,0:0:0:0:
325,283,14778,6,0,P|388:286|449:243,1,127.500004863739,2|10,1:0|0:0,0:0:0:0:
444,150,15321,2,0,P|403:158|374:192,1,63.7500024318696,2|0,1:0|1:0,0:0:0:0:
218,359,15864,1,8,0:0:0:0:
131,340,16044,1,10,0:0:0:0:
92,259,16225,6,0,L|233:240,1,127.500004863739,2|10,1:2|0:0,0:0:0:0:
246,146,16768,1,0,1:0:0:0:
246,146,16949,2,0,L|119:162,1,127.500004863739,2|10,1:0|0:0,0:0:0:0:
17,49,17673,6,0,L|165:68,1,144.500002756119,2|8,1:0|0:0,0:0:0:0:
237,89,18215,1,2,1:0:0:0:
237,89,18396,2,0,P|238:42|222:12,1,63.7500024318696,0|0,1:0|0:0,0:0:0:0:
90,41,18758,2,0,P|89:88|105:118,1,63.7500024318696,8|8,0:0|0:0,0:0:0:0:
115,203,19120,6,0,P|167:179|245:194,1,127.500004863739,2|10,1:2|0:0,0:0:0:0:
329,238,19663,1,0,1:0:0:0:
329,238,19844,2,0,P|391:247|449:222,1,127.500004863739,2|10,1:0|0:0,0:0:0:0:
427,72,20567,6,0,P|364:62|306:87,1,127.500004863739,2|10,1:0|0:0,0:0:0:0:
274,192,21110,1,2,1:0:0:0:
221,100,21291,2,0,P|221:63|240:23,1,63.7500024318696,0|0,1:0|0:0,0:0:0:0:
136,162,21653,2,0,P|113:126|110:92,1,63.7500024318696,8|8,0:0|0:0,0:0:0:0:
207,251,22015,6,0,L|343:240,1,127.500004863739,2|10,1:2|0:0,0:0:0:0:
479,224,22558,1,0,1:0:0:0:
419,346,22738,2,0,L|411:273,2,63.7500024318696,2|2|8,1:0|0:0|0:0,0:0:0:0:
352,12,23462,6,0,P|316:23|293:51,1,63.7500024318696,2|0,1:0|0:0,0:0:0:0:
291,142,23824,1,10,0:0:0:0:
210,0,24005,2,0,P|193:30|195:84,1,63.7500024318696,2|0,1:0|1:0,0:0:0:0:
213,177,24367,5,2,0:0:0:0:
353,168,24548,2,0,P|329:146|283:140,1,63.7500024318696,10|10,0:0|0:0,0:0:0:0:
213,177,24909,2,0,P|160:217|93:215,1,127.500004863739,2|10,1:2|0:0,0:0:0:0:
23,158,25452,1,0,1:0:0:0:
23,158,25633,1,0,1:0:0:0:
69,358,25995,6,0,L|83:275,2,63.7500024318696,8|8|0,0:0|0:0|1:0,0:0:0:0:
207,113,26719,2,0,L|221:196,2,63.7500024318696,8|0|0,0:0|1:0|1:0,0:0:0:0:
120,57,27261,5,2,0:0:0:0:
202,14,27442,2,0,P|233:15|270:43,1,63.7500024318696,10|10,0:0|0:0,0:0:0:0:
325,110,27804,2,0,P|351:48|422:13,2,127.500004863739,2|10|0,1:2|0:0|1:0,0:0:0:0:
478,245,28890,5,8,0:0:0:0:
478,245,29071,2,0,P|467:201|442:180,2,63.7500024318696,8|0|0,0:0|1:0|0:0,0:0:0:0:
407,318,29613,2,0,P|375:321|346:309,1,63.7500024318696,8|0,0:0|1:0,0:0:0:0:
303,216,29975,1,0,1:0:0:0:
173,374,30337,1,8,0:0:0:0:
7,254,30699,6,0,L|28:105,1,127.500004863739,2|10,1:2|0:0,0:0:0:0:
124,168,31242,1,0,1:0:0:0:
124,168,31423,2,0,L|113:245,2,63.7500024318696,2|2|8,1:0|0:0|0:0,0:0:0:0:
272,28,32146,6,0,P|329:34|378:93,1,127.500004863739,2|8,1:0|0:0,0:0:0:0:
461,140,32689,2,0,P|474:111|477:80,1,63.7500024318696,2|0,1:0|1:0,0:0:0:0:
282,120,33232,1,8,0:0:0:0:
472,236,33594,6,0,L|334:255,1,127.500004863739,2|10,1:2|0:0,0:0:0:0:
266,316,34136,1,0,1:0:0:0:
266,316,34317,2,0,L|253:388,2,63.7500024318696,2|2|8,1:0|0:0|0:0,0:0:0:0:
297,113,35041,6,0,L|159:132,1,127.500004863739,2|10,1:0|0:0,0:0:0:0:
75,92,35584,1,2,1:0:0:0:
12,172,35765,2,0,P|11:202|24:237,1,63.7500024318696,0|0,1:0|0:0,0:0:0:0:
175,200,36126,2,0,P|176:170|163:135,1,63.7500024318696,8|8,0:0|0:0,0:0:0:0:
117,290,36488,6,0,L|269:305,1,127.500004863739,2|10,1:2|0:0,0:0:0:0:
344,271,37031,1,0,1:0:0:0:
344,271,37212,2,0,L|356:345,2,63.7500024318696,2|2|8,1:0|0:0|0:0,0:0:0:0:
415,79,37936,6,0,L|402:231,1,127.500004863739,2|10,1:0|0:0,0:0:0:0:
344,271,38478,1,0,1:0:0:0:
344,271,38659,2,0,P|315:235|310:194,1,63.7500024318696,2|0,1:0|0:0,0:0:0:0:
214,182,39021,2,0,P|225:152|247:129,1,63.7500024318696,8|8,0:0|0:0,0:0:0:0:
260,28,39383,6,0,P|191:32|128:89,1,127.500004863739,2|10,1:2|0:0,0:0:0:0:
49,204,39926,1,2,1:0:0:0:
19,121,40107,2,0,P|88:126|150:183,1,127.500004863739,0|10,1:0|0:0,0:0:0:0:
221,324,40830,5,2,1:0:0:0:
366,181,41192,1,10,0:0:0:0:
417,247,41373,2,0,P|385:262|338:266,1,63.7500024318696,2|0,1:0|1:0,0:0:0:0:
221,324,41735,5,2,0:0:0:0:
214,239,41916,2,0,P|245:244|273:258,1,63.7500024318696,10|8,0:0|0:0,0:0:0:0:
355,358,42278,2,0,P|416:350|483:304,1,127.500004863739,2|10,1:2|0:0,0:0:0:0:
499,214,42820,1,0,1:0:0:0:
499,214,43001,1,0,1:0:0:0:
126,160,43363,6,0,P|114:189|115:245,2,63.7500024318696,8|8|0,0:0|0:0|1:0,0:0:0:0:
223,211,43906,1,0,0:0:0:0:
223,211,44087,2,0,P|226:242|239:271,2,63.7500024318696,8|0|0,0:0|1:0|1:0,0:0:0:0:
299,46,44629,5,2,0:0:0:0:
233,104,44811,2,0,P|259:126|301:133,1,63.7500024318696,10|10,0:0|0:0,0:0:0:0:
376,184,45172,2,0,P|406:175|430:154,1,63.7500024318696,2|0,1:2|0:0,0:0:0:0:
483,66,45534,2,0,L|477:0,2,63.7500024318696,10|0|0,0:0|1:0|1:0,0:0:0:0:
366,193,46258,2,0,L|371:256,2,63.7500024318696,8|8|0,0:0|0:0|1:0,0:0:0:0:
268,94,46801,5,0,0:0:0:0:
145,157,46982,1,8,0:0:0:0:
175,64,47162,1,0,1:0:0:0:
238,187,47343,2,0,P|254:234|255:291,1,85,0|2,1:0|0:0,0:0:0:0:
102,308,47705,2,0,P|87:264|86:209,1,85,10|10,0:0|0:0,0:0:0:0:
245,177,48067,6,0,L|445:198,1,170,2|10,1:2|0:0,0:0:0:0:
510,234,48610,2,0,L|497:149,1,85,0|0,1:0|1:0,0:0:0:0:
252,272,49153,2,0,L|264:356,2,85,8|8|0,0:0|0:0|1:0,0:0:0:0:
147,192,49695,5,0,0:0:0:0:
128,309,49876,1,8,0:0:0:0:
246,265,50056,1,0,1:0:0:0:
83,240,50238,2,0,L|-13:225,1,85,0|2,1:0|0:0,0:0:0:0:
252,272,50600,2,0,L|335:285,1,85,10|10,0:0|0:0,0:0:0:0:
433,296,50962,6,0,L|404:97,1,170,2|10,1:2|0:0,0:0:0:0:
463,49,51505,2,0,P|487:70|503:128,1,85,0|0,1:0|1:0,0:0:0:0:
389,379,52047,2,0,P|359:354|343:296,2,85,8|8|0,0:0|0:0|1:0,0:0:0:0:
429,290,52590,5,0,0:0:0:0:
287,237,52771,1,8,0:0:0:0:
429,213,52951,1,0,1:0:0:0:
326,175,53133,2,0,P|310:128|309:71,1,85,0|2,1:0|0:0,0:0:0:0:
441,64,53495,2,0,P|457:111|458:168,1,85,10|10,0:0|0:0,0:0:0:0:
291,244,53856,6,0,P|201:204|124:216,1,170,2|10,1:2|0:0,0:0:0:0:
69,281,54399,2,0,P|108:304|173:301,1,85,0|0,1:0|1:0,0:0:0:0:
142,44,54942,2,0,P|100:48|64:70,2,85,8|8|0,0:0|0:0|1:0,0:0:0:0:
243,108,55485,5,0,0:0:0:0:
332,29,55666,1,8,0:0:0:0:
225,104,55846,1,0,1:0:0:0:
359,180,56027,2,0,P|375:133|376:76,1,85,0|2,1:0|0:0,0:0:0:0:
210,108,56389,2,0,P|214:150|228:190,1,85,10|8,0:0|0:0,0:0:0:0:
329,267,56751,6,0,L|504:244,1,170,2|10,1:2|0:0,0:0:0:0:
463,359,57294,2,0,L|375:347,1,85,0|0,1:0|1:0,0:0:0:0:
398,100,57837,2,0,L|482:111,2,85,8|8|0,0:0|0:0|1:0,0:0:0:0:
287,7,58380,5,0,0:0:0:0:
244,171,58560,1,8,0:0:0:0:
196,98,58741,5,0,1:0:0:0:
324,127,58922,1,0,1:0:0:0:
59,249,59284,5,8,0:0:0:0:
412,357,59646,6,0,L|403:240,1,85,2|0,1:2|0:0,0:0:0:0:
324,127,60008,1,10,0:0:0:0:
400,197,60189,1,2,1:0:0:0:
481,122,60370,2,0,P|476:66|446:21,1,85,2|0,1:0|0:0,0:0:0:0:
316,211,60731,5,10,0:0:0:0:
237,85,60912,2,0,P|195:68|55:75,1,170,10|2,0:0|0:0,0:0:0:0:
31,221,61455,1,8,0:0:0:0:
8,144,61636,1,2,1:0:0:0:
8,144,61817,2,0,L|27:244,1,85,2|0,1:0|0:0,0:0:0:0:
171,369,62179,1,10,0:0:0:0:
213,182,62360,1,8,0:0:0:0:
23,227,62541,6,0,P|67:241|116:238,1,85,2|0,1:2|0:0,0:0:0:0:
221,174,62903,1,10,0:0:0:0:
141,304,63083,1,2,1:0:0:0:
257,240,63265,2,0,P|299:239|339:253,1,85,2|0,1:0|0:0,0:0:0:0:
460,371,63626,5,10,0:0:0:0:
349,248,63807,2,0,P|336:173|366:75,1,170,10|2,0:0|0:0,0:0:0:0:
494,98,64350,1,8,0:0:0:0:
425,134,64531,1,2,1:0:0:0:
295,39,64712,2,0,P|327:11|368:2,1,85,2|0,1:0|0:0,0:0:0:0:
492,176,65074,1,10,0:0:0:0:
360,83,65255,1,8,0:0:0:0:
237,208,65435,6,0,P|219:242|222:323,1,85,2|0,1:2|0:0,0:0:0:0:
346,361,65797,1,10,0:0:0:0:
299,274,65978,1,2,1:0:0:0:
188,374,66159,2,0,P|226:372|295:329,1,85,2|0,1:0|0:0,0:0:0:0:
331,205,66520,5,10,0:0:0:0:
436,361,66702,2,0,P|452:270|473:173,1,170,10|2,0:0|0:0,0:0:0:0:
512,45,67245,1,8,0:0:0:0:
447,113,67425,1,2,1:0:0:0:
367,70,67606,2,0,P|402:31|450:28,1,85,2|0,1:0|0:0,0:0:0:0:
369,195,67968,1,10,0:0:0:0:
324,0,68149,1,8,0:0:0:0:
209,111,68330,6,0,P|289:113|391:62,2,170,2|8|0,1:2|0:0|1:0,0:0:0:0:
66,33,69416,1,8,0:0:0:0:
66,33,69597,2,0,P|105:38|145:77,1,85,8|0,0:0|1:0,0:0:0:0:
147,179,69958,5,0,0:0:0:0:
7,148,70139,2,0,P|38:120|80:114,1,85,8|0,0:0|1:0,0:0:0:0:
215,226,70501,2,0,P|183:253|142:260,1,85,0|0,1:0|0:0,0:0:0:0:
263,104,70863,1,8,0:0:0:0:
303,267,71044,1,8,0:0:0:0:
412,156,71225,6,0,L|390:261,1,85,2|0,1:0|0:0,0:0:0:0:
310,373,71587,1,10,0:0:0:0:
290,263,71768,1,10,0:0:0:0:
424,335,71948,2,0,L|406:251,1,85,2|0,1:0|0:0,0:0:0:0:
276,151,72310,5,10,0:0:0:0:
213,318,72491,2,0,P|171:335|31:328,1,170,2|2,1:0|0:0,0:0:0:0:
22,230,73034,1,8,0:0:0:0:
107,213,73215,1,10,0:0:0:0:
107,213,73396,2,0,P|58:236|19:238,1,85,2|0,1:2|0:0,0:0:0:0:
159,123,73758,1,10,0:0:0:0:
212,306,73939,1,0,1:0:0:0:
292,193,74119,6,0,P|341:170|380:168,1,85,2|0,1:0|0:0,0:0:0:0:
423,290,74482,1,10,0:0:0:0:
355,252,74662,1,10,0:0:0:0:
496,249,74843,2,0,P|504:301|496:339,1,85,2|0,1:0|0:0,0:0:0:0:
297,303,75205,5,10,0:0:0:0:
462,171,75386,2,0,P|480:87|461:-5,1,170,2|2,1:0|0:0,0:0:0:0:
322,53,75929,1,8,0:0:0:0:
402,71,76110,1,10,0:0:0:0:
319,41,76291,2,0,L|226:54,1,85,2|0,1:0|0:0,0:0:0:0:
121,174,76653,1,10,0:0:0:0:
159,23,76834,1,8,0:0:0:0:
229,137,77014,6,0,P|237:174|233:221,1,85,2|0,1:0|0:0,0:0:0:0:
107,312,77376,1,10,0:0:0:0:
197,291,77557,1,2,1:0:0:0:
251,363,77738,2,0,P|294:362|358:318,1,85,2|0,1:0|0:0,0:0:0:0:
359,196,78099,5,10,0:0:0:0:
409,368,78280,2,0,P|453:273|446:180,1,170,10|2,0:0|0:0,0:0:0:0:
329,128,78824,1,8,0:0:0:0:
403,135,79004,1,2,1:0:0:0:
460,79,79185,2,0,P|454:21|430:-6,1,85,2|0,1:0|0:0,0:0:0:0:
319,139,79547,1,10,0:0:0:0:
180,23,79728,1,8,0:0:0:0:
238,168,79909,6,0,L|261:-4,2,170,2|8|0,1:0|0:0|1:0,0:0:0:0:
63,250,80994,1,8,0:0:0:0:
63,250,81175,2,0,L|53:163,1,85,8|0,0:0|1:0,0:0:0:0:
129,102,81536,5,0,0:0:0:0:
151,270,81718,2,0,L|141:183,1,85,8|8,0:0|0:0,0:0:0:0:
258,345,82080,2,0,L|268:261,1,85,0|0,1:0|0:0,0:0:0:0:
370,145,82441,1,8,0:0:0:0:
418,290,82622,1,0,1:0:0:0:
352,232,82804,5,2,1:0:0:0:
256,192,82894,12,2,88593,1:2:0:0:
