osu file format v14

[General]
AudioFilename: audio.mp3
AudioLeadIn: 0
PreviewTime: 13105
Countdown: 0
SampleSet: Soft
StackLeniency: 0.7
Mode: 0
LetterboxInBreaks: 0
WidescreenStoryboard: 1

[Editor]
Bookmarks: 33594
DistanceSpacing: 1
BeatDivisor: 4
GridSize: 32
TimelineZoom: 1.1

[Metadata]
Title:Kay Muumilaaksoon (TV Size)
TitleUnicode:Käy Muumilaaksoon (TV Size)
Artist:Benny Tornroos
ArtistUnicode:Benny Törnroos
Creator:Aakki
Version:Iceluin's Normal
Source:Muumilaakson tarinoita
Tags:pop folk male vocals finnish moomin anime cartoon opening xandit nyantiaz DTM9 nowa iceluin Lasten ikioma Muumi 楽しいムーミン一家 Tanoshii Muumin Ikka Delightful Moomin Family
BeatmapID:2639532
BeatmapSetID:1240966

[Difficulty]
HPDrainRate:3
CircleSize:3.4
OverallDifficulty:4
ApproachRate:5
SliderMultiplier:1.1
SliderTickRate:1

[Events]
//Background and Video events
0,0,"bg.jpg",0,0
Video,400,"muumiop.mp4"
//Break Periods
//Storyboard Layer 0 (Background)
//Storyboard Layer 1 (Fail)
//Storyboard Layer 2 (Pass)
//Storyboard Layer 3 (Foreground)
//Storyboard Layer 4 (Overlay)
//Storyboard Sound Samples

[TimingPoints]
305,361.838137739718,4,2,1,80,1,0
666,-100,4,2,1,80,0,0
1028,-100,4,2,1,80,0,0
1390,-100,4,2,1,80,0,0
1752,-100,4,2,1,80,0,0
13331,-100,4,2,1,80,0,0
59646,-100,4,2,1,80,0,1
82804,-100,4,2,1,80,0,0
83527,-100,4,2,1,70,0,0
84975,-100,4,2,1,60,0,0
86060,-100,4,2,1,50,0,0
86784,-100,4,2,1,40,0,0
87507,-100,4,2,1,30,0,0
88231,-100,4,2,1,20,0,0
88593,-100,4,2,1,20,0,0

[Colours]
Combo1 : 255,74,255
Combo2 : 255,0,0
Combo3 : 0,187,0
Combo4 : 251,251,0

[HitObjects]
96,129,666,6,0,P|75:178|95:228,2,110,10|10|10,0:0|0:0|0:0,0:0:0:0:
185,64,1752,6,0,L|295:64,1,110,2|10,1:2|0:0,0:0:0:0:
336,100,2295,1,2,1:0:0:0:
336,100,2476,2,0,L|446:100,1,110,2|8,1:0|0:0,0:0:0:0:
501,100,3018,1,10,0:0:0:0:
501,210,3380,1,2,0:0:0:0:
501,210,3561,2,0,L|446:210,1,55,10|2,0:0|1:0,0:0:0:0:
390,210,3923,1,2,1:0:0:0:
317,292,4285,2,0,L|262:292,1,55,10|8,0:0|0:0,0:0:0:0:
222,331,4647,6,0,P|171:349|119:333,1,110,2|10,1:2|0:0,0:0:0:0:
82,292,5189,1,2,1:0:0:0:
82,292,5370,2,0,P|63:241|79:189,1,110,2|8,1:0|0:0,0:0:0:0:
119,150,5913,1,10,0:0:0:0:
218,197,6275,1,2,0:0:0:0:
218,197,6456,2,0,P|244:204|270:198,1,55,10|2,0:0|1:0,0:0:0:0:
320,173,6818,1,2,1:0:0:0:
389,257,7179,2,0,P|415:250|441:256,1,55,10|8,0:0|0:0,0:0:0:0:
481,218,7541,6,0,B|502:167|502:167|481:116,1,110,2|8,1:2|0:0,0:0:0:0:
441,78,8084,1,0,1:0:0:0:
441,78,8265,2,0,B|390:99|390:99|339:78,1,110,0|8,1:0|0:0,0:0:0:0:
291,49,8808,1,8,0:0:0:0:
221,134,9170,1,2,0:0:0:0:
221,134,9350,2,0,B|195:125|195:125|169:134,1,55,10|2,0:0|1:0,0:0:0:0:
118,155,9712,1,2,1:0:0:0:
169,252,10074,2,0,B|194:261|194:261|220:252,1,55,10|8,0:0|0:0,0:0:0:0:
268,223,10436,6,0,L|378:223,1,110,2|8,1:2|0:0,0:0:0:0:
378,333,11160,2,0,L|268:333,1,110,0|8,1:0|0:0,0:0:0:0:
224,366,11702,1,8,0:0:0:0:
224,366,11883,2,0,L|114:366,1,110,0|8,1:0|0:0,0:0:0:0:
19,308,12607,2,0,L|19:198,1,110,0|8,1:0|0:0,0:0:0:0:
20,142,13150,1,10,0:0:0:0:
20,142,13331,6,0,P|70:124|122:140,1,110,2|10,1:2|0:0,0:0:0:0:
212,76,14054,2,0,P|262:93|314:77,1,110,2|10,1:0|0:0,0:0:0:0:
413,26,14778,2,0,L|413:136,1,110,2|10,1:0|0:0,0:0:0:0:
412,191,15321,2,0,P|360:174|309:191,1,110,2|0,1:0|0:0,0:0:0:0:
266,226,15864,1,8,0:0:0:0:
309,326,16225,6,0,P|360:343|411:326,1,110,2|10,1:2|0:0,0:0:0:0:
499,259,16949,1,2,1:0:0:0:
412,191,17311,1,10,0:0:0:0:
499,124,17673,1,2,1:0:0:0:
499,124,17854,2,0,L|499:69,1,55,2|8,0:0|0:0,0:0:0:0:
499,13,18215,2,0,L|389:13,1,110,2|0,1:0|0:0,0:0:0:0:
333,13,18758,1,8,0:0:0:0:
264,98,19120,6,0,P|212:115|161:98,1,110,2|10,1:2|0:0,0:0:0:0:
63,47,19844,2,0,P|79:98|62:149,1,110,2|10,1:0|0:0,0:0:0:0:
8,245,20567,2,0,L|118:245,1,110,2|10,1:0|0:0,0:0:0:0:
156,285,21110,2,0,L|266:285,1,110,2|0,1:0|0:0,0:0:0:0:
305,245,21653,1,8,0:0:0:0:
216,179,22015,6,0,P|197:128|214:76,1,110,2|10,1:2|0:0,0:0:0:0:
305,13,22738,1,2,1:0:0:0:
305,13,22919,2,0,L|415:13,1,110,2|0,0:0|0:0,0:0:0:0:
456,49,23462,2,0,P|475:99|456:150,1,110,2|10,1:0|0:0,0:0:0:0:
415,187,24005,1,2,1:0:0:0:
502,253,24367,1,2,0:0:0:0:
502,253,24548,2,0,L|502:308,1,55,10|10,0:0|0:0,0:0:0:0:
468,351,24909,6,0,P|417:370|366:351,1,110,2|10,1:2|0:0,0:0:0:0:
282,281,25633,2,0,P|262:230|281:179,1,110,0|8,1:0|0:0,0:0:0:0:
319,140,26176,1,8,0:0:0:0:
323,144,26357,2,0,P|342:93|323:42,1,110,0|8,1:0|0:0,0:0:0:0:
281,6,26900,1,0,1:0:0:0:
213,92,27261,1,2,0:0:0:0:
213,92,27442,2,0,L|154:92,1,55,10|10,0:0|0:0,0:0:0:0:
102,92,27804,6,0,L|102:202,1,110,2|10,1:2|0:0,0:0:0:0:
50,299,28528,2,0,P|100:318|151:299,1,110,0|8,1:0|0:0,0:0:0:0:
196,268,29071,1,8,0:0:0:0:
196,268,29252,2,0,L|196:213,2,55,0|0|8,1:0|0:0|0:0,0:0:0:0:
241,299,29794,1,0,1:0:0:0:
241,299,29975,2,0,P|291:318|342:299,1,110,0|8,1:0|0:0,0:0:0:0:
401,206,30699,6,0,L|401:96,1,110,2|10,1:2|0:0,0:0:0:0:
290,96,31423,1,2,1:0:0:0:
290,96,31603,2,0,L|290:170,1,55,2|8,0:0|0:0,0:0:0:0:
196,213,32146,1,2,1:0:0:0:
196,213,32327,2,0,B|172:225|172:225|147:213,1,55,2|8,0:0|0:0,0:0:0:0:
104,176,32689,2,0,P|86:124|104:73,1,110,2|0,1:0|0:0,0:0:0:0:
146,38,33232,1,8,0:0:0:0:
240,94,33594,6,0,P|291:111|342:94,1,110,2|10,1:2|0:0,0:0:0:0:
431,158,34317,1,2,1:0:0:0:
431,158,34498,2,0,L|431:213,1,55,2|8,0:0|0:0,0:0:0:0:
481,310,35041,2,0,P|429:327|378:310,1,110,2|10,1:0|0:0,0:0:0:0:
334,276,35584,2,0,P|282:258|231:275,1,110,2|0,1:0|0:0,0:0:0:0:
189,310,36126,1,8,0:0:0:0:
109,234,36488,6,0,L|-1:234,1,110,2|10,1:2|0:0,0:0:0:0:
0,123,37212,1,2,1:0:0:0:
0,123,37393,2,0,L|55:123,1,55,2|8,0:0|0:0,0:0:0:0:
153,72,37936,2,0,P|204:55|255:72,1,110,2|10,1:0|0:0,0:0:0:0:
320,160,38659,2,0,L|320:270,1,110,2|8,1:0|0:0,0:0:0:0:
430,270,39383,6,0,L|430:160,1,110,2|10,1:2|0:0,0:0:0:0:
472,124,39926,2,0,P|498:78|472:32,1,110,2|0,1:0|0:0,0:0:0:0:
426,1,40469,1,10,0:0:0:0:
349,80,40831,2,0,B|330:74|330:74|308:84|308:84|286:75|286:75|262:85|262:85|246:79,1,110,2|10,1:0|0:0,0:0:0:0:
191,79,41374,1,2,1:0:0:0:
105,148,41736,1,2,0:0:0:0:
105,148,41917,2,0,B|94:173|94:173|103:199,1,55,10|8,0:0|0:0,0:0:0:0:
139,240,42278,6,0,L|249:240,1,110,2|10,1:2|0:0,0:0:0:0:
347,191,43002,2,0,P|398:171|449:190,1,110,0|8,1:0|0:0,0:0:0:0:
483,223,43545,1,8,0:0:0:0:
487,227,43726,2,0,P|506:278|487:329,1,110,0|8,1:0|0:0,0:0:0:0:
447,365,44268,1,0,1:0:0:0:
347,317,44630,1,2,0:0:0:0:
347,317,44811,2,0,L|288:317,1,55,10|10,0:0|0:0,0:0:0:0:
249,352,45173,6,0,L|139:352,1,110,2|10,1:2|0:0,0:0:0:0:
36,310,45897,2,0,P|17:260|36:209,1,110,0|8,1:0|0:0,0:0:0:0:
78,174,46440,1,8,0:0:0:0:
78,174,46620,2,0,L|78:119,2,55,0|0|8,1:0|0:0|0:0,0:0:0:0:
119,209,47163,1,0,1:0:0:0:
119,209,47344,2,0,L|229:209,1,110,0|10,1:0|0:0,0:0:0:0:
320,270,48067,6,0,P|371:290|422:271,1,110,2|10,1:2|0:0,0:0:0:0:
507,203,48792,2,0,L|507:93,1,110,0|8,1:0|0:0,0:0:0:0:
463,59,49334,1,8,0:0:0:0:
463,59,49514,2,0,L|463:4,2,55,0|0|8,1:0|0:0|0:0,0:0:0:0:
420,93,50057,1,0,1:0:0:0:
420,93,50238,2,0,P|369:113|318:94,1,110,0|10,1:0|0:0,0:0:0:0:
223,41,50962,6,0,L|113:41,1,110,2|10,1:2|0:0,0:0:0:0:
113,151,51686,2,0,L|223:151,1,110,0|8,1:0|0:0,0:0:0:0:
265,185,52228,1,8,0:0:0:0:
265,185,52409,2,0,L|265:295,1,110,0|8,1:0|0:0,0:0:0:0:
223,331,52952,1,0,1:0:0:0:
128,274,53314,1,2,0:0:0:0:
128,274,53495,2,0,L|58:274,1,55,10|10,0:0|0:0,0:0:0:0:
21,254,53857,6,0,P|3:202|20:151,1,110,2|10,1:2|0:0,0:0:0:0:
115,97,54580,2,0,L|225:97,1,110,0|8,1:0|0:0,0:0:0:0:
270,65,55123,1,8,0:0:0:0:
270,65,55304,2,0,L|270:10,2,55,0|0|8,1:0|0:0|0:0,0:0:0:0:
314,97,55847,1,0,1:0:0:0:
314,97,56028,2,0,L|424:97,1,110,0|10,1:0|0:0,0:0:0:0:
424,207,56751,6,0,L|314:207,1,110,2|10,1:2|0:0,0:0:0:0:
228,276,57475,2,0,P|176:292|125:274,1,110,0|8,1:0|0:0,0:0:0:0:
88,233,58018,1,8,0:0:0:0:
88,233,58199,2,0,L|33:233,2,55,0|0|8,1:0|0:0|0:0,0:0:0:0:
125,193,58741,1,0,1:0:0:0:
125,193,58922,2,0,L|125:83,1,110,0|8,1:0|0:0,0:0:0:0:
219,25,59646,6,0,B|271:6|271:6|321:26,1,110,2|10,1:2|0:0,0:0:0:0:
362,63,60189,1,2,1:0:0:0:
362,63,60370,2,0,B|381:115|381:115|361:165,1,110,2|10,1:0|0:0,0:0:0:0:
323,206,60912,2,0,B|271:225|271:225|221:205,1,110,10|2,0:0|0:0,0:0:0:0:
123,149,61636,1,2,1:0:0:0:
123,149,61817,1,2,1:0:0:0:
41,224,62179,1,10,0:0:0:0:
87,324,62541,6,0,P|137:305|188:323,1,110,2|10,1:2|0:0,0:0:0:0:
232,357,63084,1,2,1:0:0:0:
232,357,63264,2,0,P|282:375|333:357,1,110,2|10,1:0|0:0,0:0:0:0:
377,323,63807,2,0,P|395:272|377:221,1,110,10|2,0:0|0:0,0:0:0:0:
290,153,64531,1,2,1:0:0:0:
290,153,64712,1,2,1:0:0:0:
203,221,65074,1,10,0:0:0:0:
116,153,65435,6,0,B|137:101|137:101|114:51,1,110,2|10,1:2|0:0,0:0:0:0:
157,17,65978,1,2,1:0:0:0:
157,17,66159,2,0,B|209:38|209:38|258:16,1,110,2|10,1:0|0:0,0:0:0:0:
299,52,66702,2,0,P|349:33|400:51,1,110,10|2,0:0|0:0,0:0:0:0:
474,132,67425,1,2,1:0:0:0:
474,132,67606,1,2,1:0:0:0:
400,213,67968,1,10,0:0:0:0:
451,310,68330,6,0,P|401:328|350:310,1,110,2|8,1:2|0:0,0:0:0:0:
262,242,69054,2,0,L|262:132,1,110,0|8,1:0|0:0,0:0:0:0:
216,100,69597,1,8,0:0:0:0:
216,100,69777,2,0,L|216:45,2,55,0|0|8,1:0|0:0|0:0,0:0:0:0:
171,132,70320,1,0,1:0:0:0:
171,132,70501,2,0,L|171:242,1,110,0|8,1:0|0:0,0:0:0:0:
218,341,71225,6,0,L|328:341,1,110,2|10,1:0|0:0,0:0:0:0:
366,301,71768,1,10,0:0:0:0:
366,301,71948,2,0,L|476:301,1,110,2|10,1:0|0:0,0:0:0:0:
512,258,72491,2,0,L|512:148,1,110,2|2,1:0|0:0,0:0:0:0:
433,70,73215,1,10,0:0:0:0:
433,70,73396,1,2,1:2:0:0:
356,148,73758,1,10,0:0:0:0:
277,70,74119,6,0,P|227:89|176:71,1,110,2|10,1:0|0:0,0:0:0:0:
136,31,74663,1,10,0:0:0:0:
136,31,74843,2,0,P|86:12|35:30,1,110,2|10,1:0|0:0,0:0:0:0:
0,73,75386,2,0,P|-19:123|-1:174,1,110,2|2,1:0|0:0,0:0:0:0:
88,239,76110,1,10,0:0:0:0:
88,239,76291,1,2,1:0:0:0:
0,305,76652,1,10,0:0:0:0:
88,371,77014,6,0,L|198:371,1,110,2|10,1:0|0:0,0:0:0:0:
253,371,77557,1,2,1:0:0:0:
253,371,77738,2,0,L|253:261,1,110,2|10,1:0|0:0,0:0:0:0:
210,225,78281,2,0,P|191:175|209:124,1,110,10|2,0:0|0:0,0:0:0:0:
291,51,79004,1,2,1:0:0:0:
291,51,79185,1,2,1:0:0:0:
390,98,79547,1,10,0:0:0:0:
488,49,79909,6,0,P|506:99|487:150,1,110,2|8,1:0|0:0,0:0:0:0:
390,204,80633,2,0,L|280:204,1,110,0|8,1:0|0:0,0:0:0:0:
235,171,81176,1,8,0:0:0:0:
235,171,81356,2,0,L|235:116,2,55,0|0|8,1:0|0:0|0:0,0:0:0:0:
190,204,81899,1,8,0:0:0:0:
190,204,82080,2,0,L|80:204,1,110,0|8,1:0|0:0,0:0:0:0:
0,281,82804,5,2,1:0:0:0:
256,192,82894,12,2,88593,1:2:0:0:
