osu file format v14

[General]
AudioFilename: audio.mp3
AudioLeadIn: 0
PreviewTime: 66288
Countdown: 0
SampleSet: Normal
StackLeniency: 0
Mode: 1
LetterboxInBreaks: 0
WidescreenStoryboard: 1

[Editor]
Bookmarks: 43512,67070,87683,99463,123021,143634,155413,178972,190751,227561
DistanceSpacing: 0.8
BeatDivisor: 4
GridSize: 32
TimelineZoom: 2

[Metadata]
Title:Rin to Shite Saku Hana no Gotoku
TitleUnicode:凛として咲く花の如く
Artist:Beniiro Litmus
ArtistUnicode:紅色リトマス
Creator:Genjuro
Version:Inner Oni
Source:pop'n music 15 ADVENTURE
Tags:japanese rock video game tomosuke asaki machiko oka yusuke sekiguchi nadeshiko 撫子ロック
BeatmapID:2920165
BeatmapSetID:1417157

[Difficulty]
HPDrainRate:6
CircleSize:2
OverallDifficulty:6
ApproachRate:10
SliderMultiplier:1.4
SliderTickRate:1

[Events]
//Background and Video events
0,0,"bg.jpg",0,-150
//Break Periods
2,155614,166743
//Storyboard Layer 0 (Background)
//Storyboard Layer 1 (Fail)
//Storyboard Layer 2 (Pass)
//Storyboard Layer 3 (Foreground)
//Storyboard Layer 4 (Overlay)
//Storyboard Sound Samples

[TimingPoints]
1635,631.578947368421,4,1,0,20,1,0
11266,-100,4,1,0,25,0,0
11582,-100,4,1,0,30,0,0
24213,-100,4,1,0,60,0,0
24371,368.098159509202,4,1,0,60,1,0
27223,-100,4,1,0,80,0,0
43696,-100,4,1,0,50,0,0
54463,-100,4,1,0,65,0,0
55199,-100,4,1,0,80,0,0
66978,-100,4,1,0,100,0,0
67070,-100,4,1,0,100,0,1
80321,-100,4,1,0,100,0,0
80505,-100,4,1,0,80,0,0
86119,-100,4,1,0,60,0,0
87591,-100,4,1,0,80,0,0
99647,-100,4,1,0,50,0,0
110413,-100,4,1,0,65,0,0
111150,-100,4,1,0,80,0,0
122929,-100,4,1,0,100,0,0
123021,-100,4,1,0,100,0,1
136272,-100,4,1,0,100,0,0
136456,-100,4,1,0,80,0,0
142070,-100,4,1,0,60,0,0
143542,-100,4,1,0,80,0,0
155597,-100,4,1,0,50,0,0
178420,-100,4,1,0,65,0,0
178880,-100,4,1,0,80,0,0
190659,-100,4,1,0,100,0,0
190751,-100,4,1,0,100,0,1
227561,-100,4,1,0,100,0,0

[HitObjects]
256,192,1635,5,0,0:0:0:0:
256,192,2266,1,8,0:0:0:0:
256,192,2582,1,8,0:0:0:0:
256,192,2898,1,0,0:0:0:0:
256,192,3529,1,0,0:0:0:0:
256,192,3845,1,0,0:0:0:0:
256,192,4161,1,8,0:0:0:0:
256,192,4477,1,0,0:0:0:0:
256,192,4792,1,8,0:0:0:0:
256,192,5108,1,8,0:0:0:0:
256,192,5424,1,0,0:0:0:0:
256,192,6056,1,0,0:0:0:0:
256,192,6371,1,8,0:0:0:0:
256,192,6687,1,0,0:0:0:0:
256,192,7319,1,8,0:0:0:0:
256,192,7635,1,8,0:0:0:0:
256,192,7950,1,0,0:0:0:0:
256,192,8266,1,8,0:0:0:0:
256,192,8582,1,0,0:0:0:0:
256,192,8898,1,0,0:0:0:0:
256,192,9213,1,8,0:0:0:0:
256,192,9529,1,0,0:0:0:0:
256,192,9845,1,8,0:0:0:0:
256,192,10161,1,8,0:0:0:0:
256,192,10477,1,0,0:0:0:0:
256,192,11108,1,8,0:0:0:0:
256,192,11424,1,0,0:0:0:0:
256,192,11740,1,8,0:0:0:0:
256,192,12371,1,0,0:0:0:0:
256,192,12687,1,0,0:0:0:0:
256,192,13003,1,8,0:0:0:0:
256,192,13635,1,0,0:0:0:0:
256,192,13950,1,8,0:0:0:0:
256,192,14266,1,0,0:0:0:0:
256,192,14582,1,0,0:0:0:0:
256,192,14898,1,8,0:0:0:0:
256,192,15213,1,8,0:0:0:0:
256,192,15529,1,0,0:0:0:0:
256,192,16161,1,0,0:0:0:0:
256,192,16477,1,0,0:0:0:0:
256,192,16792,1,8,0:0:0:0:
256,192,17424,1,8,0:0:0:0:
256,192,17740,1,8,0:0:0:0:
256,192,18056,1,0,0:0:0:0:
256,192,18687,1,0,0:0:0:0:
256,192,19003,1,8,0:0:0:0:
256,192,19319,1,0,0:0:0:0:
256,192,21845,1,8,0:0:0:0:
256,192,23740,1,0,0:0:0:0:
256,192,24056,1,0,0:0:0:0:
256,192,24371,1,8,0:0:0:0:
256,192,24555,1,0,0:0:0:0:
256,192,24739,1,8,0:0:0:0:
256,192,24923,1,0,0:0:0:0:
256,192,25107,1,8,0:0:0:0:
256,192,25291,1,0,0:0:0:0:
256,192,25383,1,0,0:0:0:0:
256,192,25475,1,8,0:0:0:0:
256,192,25659,1,0,0:0:0:0:
256,192,25843,1,0,0:0:0:0:
256,192,26027,1,8,0:0:0:0:
256,192,26119,1,8,0:0:0:0:
256,192,26211,1,0,0:0:0:0:
256,192,26395,1,8,0:0:0:0:
256,192,26487,1,8,0:0:0:0:
256,192,26579,1,0,0:0:0:0:
256,192,26763,1,8,0:0:0:0:
256,192,26855,1,8,0:0:0:0:
256,192,26947,1,0,0:0:0:0:
256,192,27039,1,0,0:0:0:0:
256,192,27131,1,8,0:0:0:0:
256,192,27315,1,12,0:0:0:0:
256,192,27499,1,0,0:0:0:0:
256,192,27591,1,0,0:0:0:0:
256,192,27683,1,8,0:0:0:0:
256,192,27867,1,0,0:0:0:0:
256,192,28051,1,8,0:0:0:0:
256,192,28236,1,0,0:0:0:0:
256,192,28328,1,0,0:0:0:0:
256,192,28420,1,8,0:0:0:0:
256,192,28512,1,8,0:0:0:0:
256,192,28604,1,0,0:0:0:0:
256,192,28788,1,8,0:0:0:0:
256,192,28972,1,0,0:0:0:0:
256,192,29064,1,0,0:0:0:0:
256,192,29156,1,8,0:0:0:0:
256,192,29340,1,0,0:0:0:0:
256,192,29524,1,12,0:0:0:0:
256,192,29708,1,12,0:0:0:0:
256,192,29892,1,12,0:0:0:0:
256,192,31732,1,12,0:0:0:0:
256,192,31917,1,0,0:0:0:0:
256,192,32009,1,0,0:0:0:0:
256,192,32101,1,8,0:0:0:0:
256,192,32285,1,0,0:0:0:0:
256,192,32469,1,8,0:0:0:0:
256,192,32653,1,0,0:0:0:0:
256,192,32745,1,0,0:0:0:0:
256,192,32837,1,8,0:0:0:0:
256,192,32929,1,0,0:0:0:0:
256,192,33021,1,0,0:0:0:0:
256,192,33205,1,8,0:0:0:0:
256,192,33389,1,0,0:0:0:0:
256,192,33481,1,0,0:0:0:0:
256,192,33573,1,8,0:0:0:0:
256,192,33757,1,0,0:0:0:0:
256,192,33941,1,8,0:0:0:0:
256,192,34033,1,8,0:0:0:0:
256,192,34125,1,0,0:0:0:0:
256,192,34309,1,8,0:0:0:0:
256,192,34401,1,8,0:0:0:0:
256,192,34493,1,0,0:0:0:0:
256,192,34677,1,8,0:0:0:0:
256,192,34861,1,0,0:0:0:0:
256,192,34953,1,0,0:0:0:0:
256,192,35045,1,8,0:0:0:0:
256,192,35229,1,0,0:0:0:0:
256,192,35413,1,8,0:0:0:0:
256,192,35597,1,0,0:0:0:0:
256,192,35690,1,0,0:0:0:0:
256,192,35782,1,8,0:0:0:0:
256,192,35874,1,8,0:0:0:0:
256,192,35966,1,0,0:0:0:0:
256,192,36150,1,8,0:0:0:0:
256,192,36334,1,0,0:0:0:0:
256,192,36426,1,0,0:0:0:0:
256,192,36518,1,8,0:0:0:0:
256,192,36702,1,0,0:0:0:0:
256,192,36886,1,8,0:0:0:0:
256,192,37070,1,8,0:0:0:0:
256,192,37254,1,8,0:0:0:0:
256,192,37622,1,8,0:0:0:0:
256,192,37806,1,0,0:0:0:0:
256,192,37898,1,0,0:0:0:0:
256,192,37990,1,8,0:0:0:0:
256,192,38174,1,0,0:0:0:0:
256,192,38358,1,8,0:0:0:0:
256,192,38542,1,0,0:0:0:0:
256,192,38634,1,0,0:0:0:0:
256,192,38726,1,8,0:0:0:0:
256,192,38818,1,0,0:0:0:0:
256,192,38910,1,0,0:0:0:0:
256,192,39094,1,8,0:0:0:0:
256,192,39278,1,0,0:0:0:0:
256,192,39370,1,0,0:0:0:0:
256,192,39463,1,8,0:0:0:0:
256,192,39647,1,0,0:0:0:0:
256,192,39831,1,8,0:0:0:0:
256,192,39923,1,8,0:0:0:0:
256,192,40015,1,0,0:0:0:0:
256,192,40199,1,8,0:0:0:0:
256,192,40291,1,8,0:0:0:0:
256,192,40383,1,0,0:0:0:0:
256,192,40567,1,8,0:0:0:0:
256,192,40751,1,0,0:0:0:0:
256,192,40843,1,0,0:0:0:0:
256,192,40935,1,8,0:0:0:0:
256,192,41119,1,0,0:0:0:0:
256,192,41303,1,8,0:0:0:0:
256,192,41487,1,0,0:0:0:0:
256,192,41579,1,0,0:0:0:0:
256,192,41671,1,8,0:0:0:0:
256,192,41763,1,8,0:0:0:0:
256,192,41855,1,0,0:0:0:0:
256,192,42039,1,8,0:0:0:0:
256,192,42223,1,0,0:0:0:0:
256,192,42315,1,0,0:0:0:0:
256,192,42407,1,8,0:0:0:0:
256,192,42591,1,0,0:0:0:0:
256,192,42775,1,8,0:0:0:0:
256,192,43144,1,0,0:0:0:0:
256,192,43328,1,8,0:0:0:0:
256,192,43420,1,8,0:0:0:0:
256,192,43512,1,0,0:0:0:0:
256,192,43880,1,0,0:0:0:0:
256,192,44064,1,0,0:0:0:0:
256,192,44248,1,8,0:0:0:0:
256,192,44616,1,0,0:0:0:0:
256,192,44800,1,8,0:0:0:0:
256,192,44984,1,0,0:0:0:0:
256,192,45352,1,8,0:0:0:0:
256,192,45720,1,0,0:0:0:0:
256,192,46088,1,8,0:0:0:0:
256,192,46272,1,8,0:0:0:0:
256,192,46456,1,0,0:0:0:0:
256,192,47009,1,8,0:0:0:0:
256,192,47193,1,0,0:0:0:0:
256,192,47561,1,0,0:0:0:0:
256,192,47745,1,0,0:0:0:0:
256,192,47929,1,8,0:0:0:0:
256,192,49033,1,0,0:0:0:0:
256,192,49217,1,8,0:0:0:0:
256,192,49401,1,0,0:0:0:0:
256,192,49769,1,8,0:0:0:0:
256,192,49953,1,8,0:0:0:0:
256,192,50137,1,0,0:0:0:0:
256,192,50321,1,8,0:0:0:0:
256,192,50505,1,0,0:0:0:0:
256,192,50690,1,0,0:0:0:0:
256,192,50874,1,8,0:0:0:0:
256,192,51242,1,8,0:0:0:0:
256,192,51610,1,0,0:0:0:0:
256,192,52346,1,0,0:0:0:0:
256,192,52714,1,8,0:0:0:0:
256,192,52898,1,8,0:0:0:0:
256,192,53082,1,0,0:0:0:0:
256,192,53450,1,8,0:0:0:0:
256,192,53818,1,0,0:0:0:0:
256,192,54555,1,8,0:0:0:0:
256,192,54831,1,0,0:0:0:0:
256,192,54923,1,8,0:0:0:0:
256,192,55107,1,0,0:0:0:0:
256,192,55291,1,12,0:0:0:0:
256,192,55475,1,0,0:0:0:0:
256,192,55567,1,0,0:0:0:0:
256,192,55659,1,8,0:0:0:0:
256,192,55843,1,8,0:0:0:0:
256,192,56027,1,0,0:0:0:0:
256,192,56395,1,8,0:0:0:0:
256,192,56579,1,0,0:0:0:0:
256,192,56763,1,8,0:0:0:0:
256,192,56947,1,0,0:0:0:0:
256,192,57039,1,0,0:0:0:0:
256,192,57131,1,8,0:0:0:0:
256,192,57223,1,0,0:0:0:0:
256,192,57315,1,8,0:0:0:0:
256,192,57499,1,0,0:0:0:0:
256,192,57775,1,0,0:0:0:0:
256,192,57867,1,8,0:0:0:0:
256,192,58051,1,0,0:0:0:0:
256,192,58236,1,8,0:0:0:0:
256,192,58420,1,0,0:0:0:0:
256,192,58512,1,0,0:0:0:0:
256,192,58604,1,8,0:0:0:0:
256,192,58788,1,0,0:0:0:0:
256,192,58972,1,8,0:0:0:0:
256,192,59156,1,0,0:0:0:0:
256,192,59248,1,8,0:0:0:0:
256,192,59340,1,0,0:0:0:0:
256,192,59432,1,0,0:0:0:0:
256,192,59524,1,8,0:0:0:0:
256,192,59708,1,0,0:0:0:0:
256,192,59892,1,8,0:0:0:0:
256,192,59984,1,8,0:0:0:0:
256,192,60076,1,0,0:0:0:0:
256,192,60260,1,0,0:0:0:0:
256,192,60444,1,8,0:0:0:0:
256,192,60812,1,0,0:0:0:0:
256,192,60996,1,0,0:0:0:0:
256,192,61088,1,0,0:0:0:0:
256,192,61180,1,8,0:0:0:0:
256,192,61364,1,0,0:0:0:0:
256,192,61548,1,8,0:0:0:0:
256,192,61640,1,0,0:0:0:0:
256,192,61732,1,8,0:0:0:0:
256,192,61917,1,0,0:0:0:0:
256,192,62285,1,8,0:0:0:0:
256,192,62653,1,8,0:0:0:0:
256,192,62837,1,0,0:0:0:0:
256,192,63021,1,8,0:0:0:0:
256,192,63113,1,0,0:0:0:0:
256,192,63205,1,8,0:0:0:0:
256,192,63297,1,8,0:0:0:0:
256,192,63389,1,0,0:0:0:0:
256,192,63757,1,8,0:0:0:0:
256,192,63941,1,0,0:0:0:0:
256,192,64125,1,8,0:0:0:0:
256,192,64309,1,0,0:0:0:0:
256,192,64401,1,0,0:0:0:0:
256,192,64493,1,8,0:0:0:0:
256,192,64677,1,0,0:0:0:0:
256,192,64861,1,8,0:0:0:0:
256,192,65045,1,0,0:0:0:0:
256,192,65137,1,8,0:0:0:0:
256,192,65229,1,0,0:0:0:0:
256,192,65321,1,0,0:0:0:0:
256,192,65413,1,8,0:0:0:0:
256,192,65597,1,0,0:0:0:0:
256,192,65782,1,8,0:0:0:0:
256,192,65874,1,8,0:0:0:0:
256,192,65966,1,8,0:0:0:0:
256,192,66058,1,8,0:0:0:0:
256,192,66150,1,8,0:0:0:0:
256,192,66242,1,8,0:0:0:0:
256,192,66334,1,0,0:0:0:0:
256,192,67070,1,12,0:0:0:0:
256,192,67254,1,0,0:0:0:0:
256,192,67346,1,0,0:0:0:0:
256,192,67438,1,8,0:0:0:0:
256,192,67622,1,0,0:0:0:0:
256,192,67714,1,0,0:0:0:0:
256,192,67806,1,8,0:0:0:0:
256,192,67898,1,8,0:0:0:0:
256,192,67990,1,0,0:0:0:0:
256,192,68174,1,8,0:0:0:0:
256,192,68266,1,0,0:0:0:0:
256,192,68358,1,8,0:0:0:0:
256,192,68542,1,0,0:0:0:0:
256,192,68726,1,8,0:0:0:0:
256,192,68818,1,8,0:0:0:0:
256,192,68910,1,0,0:0:0:0:
256,192,69002,1,0,0:0:0:0:
256,192,69094,1,8,0:0:0:0:
256,192,69278,1,0,0:0:0:0:
256,192,69370,1,8,0:0:0:0:
256,192,69555,1,8,0:0:0:0:
256,192,69647,1,0,0:0:0:0:
256,192,69831,1,8,0:0:0:0:
256,192,70015,1,0,0:0:0:0:
256,192,70199,1,8,0:0:0:0:
256,192,70291,1,8,0:0:0:0:
256,192,70383,1,0,0:0:0:0:
256,192,70567,1,8,0:0:0:0:
256,192,70659,1,8,0:0:0:0:
256,192,70751,1,0,0:0:0:0:
256,192,70843,1,0,0:0:0:0:
256,192,70935,1,8,0:0:0:0:
256,192,71119,1,0,0:0:0:0:
256,192,71211,1,8,0:0:0:0:
256,192,71303,1,0,0:0:0:0:
256,192,71487,1,8,0:0:0:0:
256,192,71671,1,0,0:0:0:0:
256,192,71763,1,0,0:0:0:0:
256,192,71855,1,8,0:0:0:0:
256,192,71947,1,8,0:0:0:0:
256,192,72039,1,0,0:0:0:0:
256,192,72223,1,8,0:0:0:0:
256,192,72315,1,0,0:0:0:0:
256,192,72499,1,0,0:0:0:0:
256,192,72591,1,8,0:0:0:0:
256,192,72775,1,0,0:0:0:0:
256,192,72959,1,8,0:0:0:0:
256,192,73144,1,0,0:0:0:0:
256,192,73236,1,8,0:0:0:0:
256,192,73328,1,8,0:0:0:0:
256,192,73420,1,8,0:0:0:0:
256,192,73512,1,0,0:0:0:0:
256,192,73696,1,8,0:0:0:0:
256,192,73788,1,0,0:0:0:0:
256,192,73880,1,0,0:0:0:0:
256,192,73972,1,0,0:0:0:0:
256,192,74064,1,8,0:0:0:0:
256,192,74248,1,0,0:0:0:0:
256,192,74432,1,8,0:0:0:0:
256,192,74524,1,8,0:0:0:0:
256,192,74616,1,0,0:0:0:0:
256,192,74708,1,8,0:0:0:0:
256,192,74800,1,0,0:0:0:0:
256,192,74892,1,0,0:0:0:0:
256,192,74984,1,8,0:0:0:0:
256,192,75168,1,0,0:0:0:0:
256,192,75260,1,8,0:0:0:0:
256,192,75444,1,8,0:0:0:0:
256,192,75536,1,0,0:0:0:0:
256,192,75720,1,8,0:0:0:0:
256,192,75904,1,0,0:0:0:0:
256,192,76088,1,8,0:0:0:0:
256,192,76180,1,0,0:0:0:0:
256,192,76272,1,0,0:0:0:0:
256,192,76364,1,0,0:0:0:0:
256,192,76456,1,8,0:0:0:0:
256,192,76640,1,0,0:0:0:0:
256,192,76732,1,8,0:0:0:0:
256,192,76824,1,8,0:0:0:0:
256,192,76917,1,8,0:0:0:0:
256,192,77009,1,0,0:0:0:0:
256,192,77193,1,8,0:0:0:0:
256,192,77377,1,0,0:0:0:0:
256,192,77561,1,8,0:0:0:0:
256,192,77653,1,8,0:0:0:0:
256,192,77745,1,0,0:0:0:0:
256,192,77929,1,8,0:0:0:0:
256,192,78113,1,0,0:0:0:0:
256,192,78205,1,0,0:0:0:0:
256,192,78297,1,8,0:0:0:0:
256,192,78389,1,8,0:0:0:0:
256,192,78481,1,0,0:0:0:0:
256,192,78665,1,8,0:0:0:0:
256,192,78849,1,0,0:0:0:0:
256,192,78941,1,0,0:0:0:0:
256,192,79033,1,0,0:0:0:0:
256,192,79125,1,0,0:0:0:0:
256,192,79217,1,8,0:0:0:0:
256,192,79309,1,8,0:0:0:0:
256,192,79401,1,8,0:0:0:0:
256,192,79493,1,8,0:0:0:0:
256,192,79585,1,0,0:0:0:0:
256,192,79677,1,0,0:0:0:0:
256,192,79769,1,8,0:0:0:0:
256,192,79861,1,8,0:0:0:0:
256,192,79953,1,0,0:0:0:0:
256,192,80137,1,8,0:0:0:0:
256,192,80321,1,4,0:0:0:0:
256,192,80690,1,8,0:0:0:0:
256,192,80966,1,0,0:0:0:0:
256,192,81242,1,8,0:0:0:0:
256,192,81334,1,8,0:0:0:0:
256,192,81426,1,0,0:0:0:0:
256,192,81610,1,8,0:0:0:0:
256,192,81794,1,0,0:0:0:0:
256,192,82162,1,8,0:0:0:0:
256,192,82438,1,0,0:0:0:0:
256,192,82806,1,8,0:0:0:0:
256,192,82898,1,8,0:0:0:0:
256,192,83082,1,0,0:0:0:0:
256,192,83266,1,12,0:0:0:0:
256,192,83450,1,0,0:0:0:0:
256,192,83542,1,0,0:0:0:0:
256,192,83634,1,8,0:0:0:0:
256,192,83818,1,0,0:0:0:0:
256,192,84002,1,8,0:0:0:0:
256,192,84186,1,0,0:0:0:0:
256,192,84278,1,0,0:0:0:0:
256,192,84370,1,8,0:0:0:0:
256,192,84463,1,8,0:0:0:0:
256,192,84555,1,0,0:0:0:0:
256,192,84739,1,8,0:0:0:0:
256,192,84923,1,0,0:0:0:0:
256,192,85015,1,0,0:0:0:0:
256,192,85107,1,8,0:0:0:0:
256,192,85291,1,0,0:0:0:0:
256,192,85475,1,12,0:0:0:0:
256,192,85659,1,12,0:0:0:0:
256,192,85843,1,12,0:0:0:0:
256,192,86211,1,0,0:0:0:0:
256,192,86395,1,8,0:0:0:0:
256,192,86487,1,8,0:0:0:0:
256,192,86579,1,0,0:0:0:0:
256,192,86763,1,8,0:0:0:0:
256,192,86855,1,8,0:0:0:0:
256,192,86947,1,0,0:0:0:0:
256,192,87131,1,8,0:0:0:0:
256,192,87223,1,8,0:0:0:0:
256,192,87315,1,0,0:0:0:0:
256,192,87407,1,0,0:0:0:0:
256,192,87499,1,8,0:0:0:0:
256,192,87683,1,12,0:0:0:0:
256,192,87868,1,0,0:0:0:0:
256,192,87960,1,0,0:0:0:0:
256,192,88052,1,8,0:0:0:0:
256,192,88236,1,0,0:0:0:0:
256,192,88420,1,8,0:0:0:0:
256,192,88604,1,0,0:0:0:0:
256,192,88696,1,0,0:0:0:0:
256,192,88788,1,8,0:0:0:0:
256,192,88880,1,0,0:0:0:0:
256,192,88972,1,0,0:0:0:0:
256,192,89156,1,8,0:0:0:0:
256,192,89340,1,0,0:0:0:0:
256,192,89432,1,0,0:0:0:0:
256,192,89524,1,8,0:0:0:0:
256,192,89708,1,0,0:0:0:0:
256,192,89892,1,8,0:0:0:0:
256,192,89984,1,8,0:0:0:0:
256,192,90076,1,0,0:0:0:0:
256,192,90260,1,8,0:0:0:0:
256,192,90352,1,8,0:0:0:0:
256,192,90444,1,0,0:0:0:0:
256,192,90628,1,8,0:0:0:0:
256,192,90812,1,0,0:0:0:0:
256,192,90904,1,0,0:0:0:0:
256,192,90996,1,8,0:0:0:0:
256,192,91180,1,0,0:0:0:0:
256,192,91364,1,8,0:0:0:0:
256,192,91548,1,0,0:0:0:0:
256,192,91641,1,0,0:0:0:0:
256,192,91733,1,8,0:0:0:0:
256,192,91825,1,8,0:0:0:0:
256,192,91917,1,0,0:0:0:0:
256,192,92101,1,8,0:0:0:0:
256,192,92285,1,0,0:0:0:0:
256,192,92377,1,0,0:0:0:0:
256,192,92469,1,8,0:0:0:0:
256,192,92653,1,0,0:0:0:0:
256,192,92837,1,8,0:0:0:0:
256,192,93021,1,8,0:0:0:0:
256,192,93205,1,8,0:0:0:0:
256,192,93573,1,8,0:0:0:0:
256,192,93757,1,0,0:0:0:0:
256,192,93849,1,0,0:0:0:0:
256,192,93941,1,8,0:0:0:0:
256,192,94125,1,0,0:0:0:0:
256,192,94309,1,8,0:0:0:0:
256,192,94493,1,0,0:0:0:0:
256,192,94585,1,0,0:0:0:0:
256,192,94677,1,8,0:0:0:0:
256,192,94769,1,0,0:0:0:0:
256,192,94861,1,0,0:0:0:0:
256,192,95045,1,8,0:0:0:0:
256,192,95229,1,0,0:0:0:0:
256,192,95321,1,0,0:0:0:0:
256,192,95414,1,8,0:0:0:0:
256,192,95598,1,0,0:0:0:0:
256,192,95782,1,8,0:0:0:0:
256,192,95874,1,8,0:0:0:0:
256,192,95966,1,0,0:0:0:0:
256,192,96150,1,8,0:0:0:0:
256,192,96242,1,8,0:0:0:0:
256,192,96334,1,0,0:0:0:0:
256,192,96518,1,8,0:0:0:0:
256,192,96702,1,0,0:0:0:0:
256,192,96794,1,0,0:0:0:0:
256,192,96886,1,8,0:0:0:0:
256,192,97070,1,0,0:0:0:0:
256,192,97254,1,8,0:0:0:0:
256,192,97438,1,0,0:0:0:0:
256,192,97530,1,0,0:0:0:0:
256,192,97622,1,8,0:0:0:0:
256,192,97714,1,8,0:0:0:0:
256,192,97806,1,0,0:0:0:0:
256,192,97990,1,8,0:0:0:0:
256,192,98174,1,0,0:0:0:0:
256,192,98266,1,0,0:0:0:0:
256,192,98358,1,8,0:0:0:0:
256,192,98542,1,0,0:0:0:0:
256,192,98726,1,8,0:0:0:0:
256,192,99002,1,0,0:0:0:0:
256,192,99095,1,8,0:0:0:0:
256,192,99279,1,8,0:0:0:0:
256,192,99371,1,8,0:0:0:0:
256,192,99463,1,0,0:0:0:0:
256,192,99831,1,0,0:0:0:0:
256,192,100015,1,0,0:0:0:0:
256,192,100199,1,8,0:0:0:0:
256,192,100567,1,8,0:0:0:0:
256,192,100751,1,8,0:0:0:0:
256,192,100935,1,0,0:0:0:0:
256,192,101303,1,8,0:0:0:0:
256,192,101671,1,0,0:0:0:0:
256,192,102039,1,8,0:0:0:0:
256,192,102223,1,0,0:0:0:0:
256,192,102407,1,8,0:0:0:0:
256,192,102959,1,8,0:0:0:0:
256,192,103144,1,0,0:0:0:0:
256,192,103512,1,8,0:0:0:0:
256,192,103696,1,8,0:0:0:0:
256,192,103880,1,0,0:0:0:0:
256,192,104984,1,0,0:0:0:0:
256,192,105168,1,0,0:0:0:0:
256,192,105352,1,8,0:0:0:0:
256,192,105720,1,8,0:0:0:0:
256,192,105904,1,8,0:0:0:0:
256,192,106088,1,0,0:0:0:0:
256,192,106272,1,8,0:0:0:0:
256,192,106456,1,0,0:0:0:0:
256,192,106640,1,0,0:0:0:0:
256,192,106824,1,8,0:0:0:0:
256,192,107193,1,8,0:0:0:0:
256,192,107561,1,0,0:0:0:0:
256,192,108297,1,0,0:0:0:0:
256,192,108665,1,8,0:0:0:0:
256,192,108849,1,8,0:0:0:0:
256,192,109033,1,0,0:0:0:0:
256,192,109401,1,8,0:0:0:0:
256,192,109769,1,0,0:0:0:0:
256,192,110505,1,8,0:0:0:0:
256,192,110782,1,0,0:0:0:0:
256,192,110874,1,8,0:0:0:0:
256,192,111058,1,0,0:0:0:0:
256,192,111242,1,12,0:0:0:0:
256,192,111426,1,0,0:0:0:0:
256,192,111518,1,0,0:0:0:0:
256,192,111610,1,8,0:0:0:0:
256,192,111794,1,8,0:0:0:0:
256,192,111978,1,0,0:0:0:0:
256,192,112254,1,0,0:0:0:0:
256,192,112346,1,8,0:0:0:0:
256,192,112530,1,0,0:0:0:0:
256,192,112714,1,8,0:0:0:0:
256,192,112898,1,0,0:0:0:0:
256,192,112990,1,0,0:0:0:0:
256,192,113082,1,8,0:0:0:0:
256,192,113174,1,0,0:0:0:0:
256,192,113266,1,8,0:0:0:0:
256,192,113450,1,0,0:0:0:0:
256,192,113818,1,8,0:0:0:0:
256,192,114002,1,0,0:0:0:0:
256,192,114186,1,8,0:0:0:0:
256,192,114370,1,0,0:0:0:0:
256,192,114463,1,0,0:0:0:0:
256,192,114555,1,8,0:0:0:0:
256,192,114739,1,0,0:0:0:0:
256,192,114923,1,8,0:0:0:0:
256,192,115107,1,0,0:0:0:0:
256,192,115199,1,8,0:0:0:0:
256,192,115291,1,0,0:0:0:0:
256,192,115383,1,0,0:0:0:0:
256,192,115475,1,8,0:0:0:0:
256,192,115659,1,0,0:0:0:0:
256,192,115843,1,8,0:0:0:0:
256,192,115935,1,8,0:0:0:0:
256,192,116027,1,0,0:0:0:0:
256,192,116211,1,0,0:0:0:0:
256,192,116395,1,8,0:0:0:0:
256,192,116671,1,0,0:0:0:0:
256,192,116763,1,8,0:0:0:0:
256,192,116855,1,8,0:0:0:0:
256,192,116947,1,0,0:0:0:0:
256,192,117131,1,8,0:0:0:0:
256,192,117315,1,0,0:0:0:0:
256,192,117499,1,8,0:0:0:0:
256,192,117591,1,0,0:0:0:0:
256,192,117683,1,8,0:0:0:0:
256,192,117867,1,0,0:0:0:0:
256,192,118236,1,8,0:0:0:0:
256,192,118604,1,8,0:0:0:0:
256,192,118788,1,0,0:0:0:0:
256,192,118972,1,8,0:0:0:0:
256,192,119064,1,0,0:0:0:0:
256,192,119156,1,8,0:0:0:0:
256,192,119248,1,8,0:0:0:0:
256,192,119340,1,0,0:0:0:0:
256,192,119708,1,8,0:0:0:0:
256,192,119892,1,0,0:0:0:0:
256,192,120076,1,8,0:0:0:0:
256,192,120260,1,0,0:0:0:0:
256,192,120352,1,0,0:0:0:0:
256,192,120444,1,8,0:0:0:0:
256,192,120628,1,0,0:0:0:0:
256,192,120812,1,8,0:0:0:0:
256,192,120996,1,0,0:0:0:0:
256,192,121088,1,8,0:0:0:0:
256,192,121180,1,0,0:0:0:0:
256,192,121272,1,0,0:0:0:0:
256,192,121364,1,8,0:0:0:0:
256,192,121548,1,0,0:0:0:0:
256,192,121824,1,0,0:0:0:0:
256,192,121917,1,8,0:0:0:0:
256,192,122101,1,8,0:0:0:0:
256,192,122193,1,8,0:0:0:0:
256,192,122285,1,0,0:0:0:0:
256,192,123021,1,12,0:0:0:0:
256,192,123205,1,0,0:0:0:0:
256,192,123297,1,0,0:0:0:0:
256,192,123389,1,8,0:0:0:0:
256,192,123573,1,8,0:0:0:0:
256,192,123665,1,0,0:0:0:0:
256,192,123757,1,8,0:0:0:0:
256,192,123849,1,8,0:0:0:0:
256,192,123941,1,0,0:0:0:0:
256,192,124125,1,8,0:0:0:0:
256,192,124217,1,0,0:0:0:0:
256,192,124309,1,8,0:0:0:0:
256,192,124493,1,0,0:0:0:0:
256,192,124677,1,8,0:0:0:0:
256,192,124769,1,8,0:0:0:0:
256,192,124861,1,0,0:0:0:0:
256,192,124953,1,8,0:0:0:0:
256,192,125045,1,8,0:0:0:0:
256,192,125229,1,0,0:0:0:0:
256,192,125321,1,8,0:0:0:0:
256,192,125505,1,8,0:0:0:0:
256,192,125597,1,0,0:0:0:0:
256,192,125690,1,0,0:0:0:0:
256,192,125782,1,8,0:0:0:0:
256,192,125966,1,0,0:0:0:0:
256,192,126150,1,8,0:0:0:0:
256,192,126242,1,8,0:0:0:0:
256,192,126334,1,0,0:0:0:0:
256,192,126518,1,0,0:0:0:0:
256,192,126610,1,8,0:0:0:0:
256,192,126702,1,0,0:0:0:0:
256,192,126794,1,0,0:0:0:0:
256,192,126886,1,8,0:0:0:0:
256,192,127070,1,0,0:0:0:0:
256,192,127162,1,8,0:0:0:0:
256,192,127254,1,0,0:0:0:0:
256,192,127438,1,8,0:0:0:0:
256,192,127622,1,0,0:0:0:0:
256,192,127714,1,0,0:0:0:0:
256,192,127806,1,8,0:0:0:0:
256,192,127898,1,0,0:0:0:0:
256,192,127990,1,0,0:0:0:0:
256,192,128174,1,8,0:0:0:0:
256,192,128266,1,0,0:0:0:0:
256,192,128450,1,0,0:0:0:0:
256,192,128542,1,8,0:0:0:0:
256,192,128634,1,8,0:0:0:0:
256,192,128726,1,0,0:0:0:0:
256,192,128910,1,8,0:0:0:0:
256,192,129094,1,0,0:0:0:0:
256,192,129186,1,0,0:0:0:0:
256,192,129278,1,8,0:0:0:0:
256,192,129370,1,0,0:0:0:0:
256,192,129463,1,8,0:0:0:0:
256,192,129647,1,8,0:0:0:0:
256,192,129739,1,8,0:0:0:0:
256,192,129831,1,0,0:0:0:0:
256,192,129923,1,8,0:0:0:0:
256,192,130015,1,0,0:0:0:0:
256,192,130107,1,0,0:0:0:0:
256,192,130199,1,8,0:0:0:0:
256,192,130383,1,0,0:0:0:0:
256,192,130567,1,8,0:0:0:0:
256,192,130659,1,0,0:0:0:0:
256,192,130751,1,0,0:0:0:0:
256,192,130843,1,0,0:0:0:0:
256,192,130935,1,8,0:0:0:0:
256,192,131119,1,0,0:0:0:0:
256,192,131211,1,8,0:0:0:0:
256,192,131395,1,8,0:0:0:0:
256,192,131487,1,0,0:0:0:0:
256,192,131579,1,0,0:0:0:0:
256,192,131671,1,8,0:0:0:0:
256,192,131855,1,0,0:0:0:0:
256,192,132039,1,8,0:0:0:0:
256,192,132131,1,8,0:0:0:0:
256,192,132223,1,0,0:0:0:0:
256,192,132315,1,8,0:0:0:0:
256,192,132407,1,0,0:0:0:0:
256,192,132591,1,0,0:0:0:0:
256,192,132683,1,0,0:0:0:0:
256,192,132775,1,8,0:0:0:0:
256,192,132867,1,0,0:0:0:0:
256,192,132959,1,8,0:0:0:0:
256,192,133051,1,8,0:0:0:0:
256,192,133144,1,0,0:0:0:0:
256,192,133328,1,8,0:0:0:0:
256,192,133512,1,0,0:0:0:0:
256,192,133604,1,0,0:0:0:0:
256,192,133696,1,8,0:0:0:0:
256,192,133880,1,0,0:0:0:0:
256,192,134064,1,8,0:0:0:0:
256,192,134156,1,8,0:0:0:0:
256,192,134248,1,0,0:0:0:0:
256,192,134340,1,0,0:0:0:0:
256,192,134432,1,8,0:0:0:0:
256,192,134616,1,0,0:0:0:0:
256,192,134800,1,8,0:0:0:0:
256,192,134892,1,0,0:0:0:0:
256,192,134984,1,8,0:0:0:0:
256,192,135076,1,8,0:0:0:0:
256,192,135168,1,0,0:0:0:0:
256,192,135260,1,8,0:0:0:0:
256,192,135352,1,0,0:0:0:0:
256,192,135444,1,0,0:0:0:0:
256,192,135536,1,8,0:0:0:0:
256,192,135628,1,8,0:0:0:0:
256,192,135720,1,8,0:0:0:0:
256,192,135812,1,8,0:0:0:0:
256,192,135904,1,0,0:0:0:0:
256,192,136088,1,8,0:0:0:0:
256,192,136272,1,4,0:0:0:0:
256,192,136640,1,8,0:0:0:0:
256,192,136917,1,0,0:0:0:0:
256,192,137285,1,8,0:0:0:0:
256,192,137377,1,0,0:0:0:0:
256,192,137561,1,8,0:0:0:0:
256,192,137745,1,0,0:0:0:0:
256,192,137929,1,0,0:0:0:0:
256,192,138021,1,0,0:0:0:0:
256,192,138113,1,8,0:0:0:0:
256,192,138389,1,0,0:0:0:0:
256,192,138665,1,8,0:0:0:0:
256,192,138757,1,0,0:0:0:0:
256,192,138849,1,8,0:0:0:0:
256,192,138941,1,8,0:0:0:0:
256,192,139033,1,0,0:0:0:0:
256,192,139217,1,12,0:0:0:0:
256,192,139401,1,0,0:0:0:0:
256,192,139493,1,0,0:0:0:0:
256,192,139585,1,8,0:0:0:0:
256,192,139769,1,0,0:0:0:0:
256,192,139953,1,8,0:0:0:0:
256,192,140137,1,0,0:0:0:0:
256,192,140229,1,0,0:0:0:0:
256,192,140321,1,8,0:0:0:0:
256,192,140413,1,8,0:0:0:0:
256,192,140505,1,0,0:0:0:0:
256,192,140690,1,8,0:0:0:0:
256,192,140874,1,0,0:0:0:0:
256,192,140966,1,0,0:0:0:0:
256,192,141058,1,8,0:0:0:0:
256,192,141242,1,0,0:0:0:0:
256,192,141426,1,12,0:0:0:0:
256,192,141610,1,12,0:0:0:0:
256,192,141794,1,12,0:0:0:0:
256,192,142162,1,0,0:0:0:0:
256,192,142346,1,8,0:0:0:0:
256,192,142438,1,8,0:0:0:0:
256,192,142530,1,0,0:0:0:0:
256,192,142714,1,8,0:0:0:0:
256,192,142806,1,8,0:0:0:0:
256,192,142898,1,0,0:0:0:0:
256,192,143082,1,8,0:0:0:0:
256,192,143174,1,8,0:0:0:0:
256,192,143266,1,0,0:0:0:0:
256,192,143358,1,0,0:0:0:0:
256,192,143450,1,8,0:0:0:0:
256,192,143634,1,12,0:0:0:0:
256,192,143819,1,0,0:0:0:0:
256,192,143911,1,0,0:0:0:0:
256,192,144003,1,8,0:0:0:0:
256,192,144187,1,0,0:0:0:0:
256,192,144371,1,8,0:0:0:0:
256,192,144555,1,0,0:0:0:0:
256,192,144647,1,0,0:0:0:0:
256,192,144739,1,8,0:0:0:0:
256,192,144831,1,0,0:0:0:0:
256,192,144923,1,0,0:0:0:0:
256,192,145107,1,8,0:0:0:0:
256,192,145291,1,0,0:0:0:0:
256,192,145383,1,0,0:0:0:0:
256,192,145475,1,8,0:0:0:0:
256,192,145659,1,0,0:0:0:0:
256,192,145843,1,8,0:0:0:0:
256,192,145935,1,8,0:0:0:0:
256,192,146027,1,0,0:0:0:0:
256,192,146211,1,8,0:0:0:0:
256,192,146303,1,8,0:0:0:0:
256,192,146395,1,0,0:0:0:0:
256,192,146579,1,8,0:0:0:0:
256,192,146763,1,0,0:0:0:0:
256,192,146855,1,0,0:0:0:0:
256,192,146947,1,8,0:0:0:0:
256,192,147131,1,0,0:0:0:0:
256,192,147315,1,8,0:0:0:0:
256,192,147499,1,0,0:0:0:0:
256,192,147592,1,0,0:0:0:0:
256,192,147684,1,8,0:0:0:0:
256,192,147776,1,8,0:0:0:0:
256,192,147868,1,0,0:0:0:0:
256,192,148052,1,8,0:0:0:0:
256,192,148236,1,0,0:0:0:0:
256,192,148328,1,0,0:0:0:0:
256,192,148420,1,8,0:0:0:0:
256,192,148604,1,8,0:0:0:0:
256,192,148696,1,8,0:0:0:0:
256,192,148788,1,0,0:0:0:0:
256,192,149524,1,8,0:0:0:0:
256,192,149708,1,0,0:0:0:0:
256,192,149800,1,0,0:0:0:0:
256,192,149892,1,8,0:0:0:0:
256,192,150076,1,0,0:0:0:0:
256,192,150260,1,8,0:0:0:0:
256,192,150444,1,0,0:0:0:0:
256,192,150536,1,0,0:0:0:0:
256,192,150628,1,8,0:0:0:0:
256,192,150720,1,0,0:0:0:0:
256,192,150812,1,0,0:0:0:0:
256,192,150996,1,8,0:0:0:0:
256,192,151180,1,0,0:0:0:0:
256,192,151272,1,0,0:0:0:0:
256,192,151365,1,8,0:0:0:0:
256,192,151549,1,0,0:0:0:0:
256,192,151733,1,8,0:0:0:0:
256,192,151825,1,8,0:0:0:0:
256,192,151917,1,0,0:0:0:0:
256,192,152101,1,8,0:0:0:0:
256,192,152193,1,8,0:0:0:0:
256,192,152285,1,0,0:0:0:0:
256,192,152469,1,8,0:0:0:0:
256,192,152653,1,0,0:0:0:0:
256,192,152745,1,0,0:0:0:0:
256,192,152837,1,8,0:0:0:0:
256,192,153021,1,0,0:0:0:0:
256,192,153205,1,8,0:0:0:0:
256,192,153389,1,0,0:0:0:0:
256,192,153481,1,0,0:0:0:0:
256,192,153573,1,8,0:0:0:0:
256,192,153665,1,8,0:0:0:0:
256,192,153757,1,0,0:0:0:0:
256,192,153941,1,8,0:0:0:0:
256,192,154125,1,0,0:0:0:0:
256,192,154217,1,0,0:0:0:0:
256,192,154309,1,8,0:0:0:0:
256,192,154493,1,0,0:0:0:0:
256,192,154677,1,8,0:0:0:0:
256,192,155046,1,0,0:0:0:0:
256,192,155230,1,8,0:0:0:0:
256,192,155322,1,8,0:0:0:0:
256,192,155414,1,0,0:0:0:0:
256,192,167193,5,0,0:0:0:0:
256,192,167745,1,0,0:0:0:0:
256,192,167929,1,8,0:0:0:0:
256,192,168665,1,0,0:0:0:0:
256,192,168941,1,0,0:0:0:0:
256,192,169217,1,0,0:0:0:0:
256,192,169401,1,8,0:0:0:0:
256,192,170137,1,0,0:0:0:0:
256,192,170690,1,0,0:0:0:0:
256,192,170874,1,8,0:0:0:0:
256,192,171610,1,0,0:0:0:0:
256,192,171886,1,0,0:0:0:0:
256,192,172162,1,0,0:0:0:0:
256,192,172346,1,8,0:0:0:0:
256,192,172714,1,0,0:0:0:0:
256,192,173082,1,0,0:0:0:0:
256,192,173634,1,0,0:0:0:0:
256,192,173818,1,8,0:0:0:0:
256,192,174555,1,0,0:0:0:0:
256,192,174831,1,0,0:0:0:0:
256,192,175107,1,0,0:0:0:0:
256,192,175291,1,8,0:0:0:0:
256,192,176027,1,0,0:0:0:0:
256,192,176579,1,0,0:0:0:0:
256,192,176763,1,8,0:0:0:0:
256,192,177499,1,0,0:0:0:0:
256,192,177775,1,0,0:0:0:0:
256,192,177867,1,0,0:0:0:0:
256,192,178051,1,0,0:0:0:0:
256,192,178236,1,8,0:0:0:0:
256,192,178512,1,8,0:0:0:0:
256,192,178604,1,0,0:0:0:0:
256,192,178788,1,8,0:0:0:0:
256,192,178972,1,4,0:0:0:0:
256,192,179708,1,8,0:0:0:0:
256,192,180444,1,4,0:0:0:0:
256,192,180812,1,0,0:0:0:0:
256,192,181180,1,8,0:0:0:0:
256,192,181456,1,0,0:0:0:0:
256,192,181548,1,8,0:0:0:0:
256,192,181732,1,0,0:0:0:0:
256,192,181917,1,12,0:0:0:0:
256,192,182101,1,0,0:0:0:0:
256,192,182193,1,0,0:0:0:0:
256,192,182285,1,8,0:0:0:0:
256,192,182469,1,0,0:0:0:0:
256,192,182653,1,8,0:0:0:0:
256,192,182837,1,0,0:0:0:0:
256,192,182929,1,8,0:0:0:0:
256,192,183021,1,0,0:0:0:0:
256,192,183113,1,0,0:0:0:0:
256,192,183205,1,8,0:0:0:0:
256,192,183389,1,0,0:0:0:0:
256,192,183573,1,8,0:0:0:0:
256,192,183665,1,8,0:0:0:0:
256,192,183757,1,0,0:0:0:0:
256,192,183941,1,0,0:0:0:0:
256,192,184125,1,8,0:0:0:0:
256,192,184401,1,0,0:0:0:0:
256,192,184493,1,8,0:0:0:0:
256,192,184677,1,0,0:0:0:0:
256,192,184861,1,8,0:0:0:0:
256,192,185045,1,0,0:0:0:0:
256,192,185137,1,0,0:0:0:0:
256,192,185229,1,8,0:0:0:0:
256,192,185413,1,0,0:0:0:0:
256,192,185597,1,8,0:0:0:0:
256,192,185874,1,0,0:0:0:0:
256,192,185966,1,8,0:0:0:0:
256,192,186150,1,0,0:0:0:0:
256,192,186334,1,8,0:0:0:0:
256,192,186518,1,0,0:0:0:0:
256,192,186610,1,0,0:0:0:0:
256,192,186702,1,8,0:0:0:0:
256,192,186794,1,8,0:0:0:0:
256,192,186886,1,0,0:0:0:0:
256,192,187070,1,8,0:0:0:0:
256,192,187438,1,0,0:0:0:0:
256,192,187622,1,0,0:0:0:0:
256,192,187806,1,8,0:0:0:0:
256,192,187990,1,0,0:0:0:0:
256,192,188082,1,0,0:0:0:0:
256,192,188174,1,8,0:0:0:0:
256,192,188358,1,0,0:0:0:0:
256,192,188542,1,8,0:0:0:0:
256,192,188726,1,0,0:0:0:0:
256,192,188818,1,8,0:0:0:0:
256,192,188910,1,0,0:0:0:0:
256,192,189002,1,0,0:0:0:0:
256,192,189094,1,8,0:0:0:0:
256,192,189278,1,0,0:0:0:0:
256,192,189463,1,8,0:0:0:0:
256,192,189555,1,8,0:0:0:0:
256,192,189647,1,8,0:0:0:0:
256,192,189739,1,8,0:0:0:0:
256,192,189831,1,8,0:0:0:0:
256,192,189923,1,8,0:0:0:0:
256,192,190015,1,0,0:0:0:0:
256,192,190751,1,12,0:0:0:0:
256,192,190935,1,0,0:0:0:0:
256,192,191027,1,0,0:0:0:0:
256,192,191119,1,8,0:0:0:0:
256,192,191211,1,8,0:0:0:0:
256,192,191303,1,0,0:0:0:0:
256,192,191487,1,8,0:0:0:0:
256,192,191579,1,0,0:0:0:0:
256,192,191671,1,8,0:0:0:0:
256,192,191763,1,8,0:0:0:0:
256,192,191855,1,0,0:0:0:0:
256,192,191947,1,0,0:0:0:0:
256,192,192039,1,8,0:0:0:0:
256,192,192223,1,0,0:0:0:0:
256,192,192315,1,8,0:0:0:0:
256,192,192407,1,8,0:0:0:0:
256,192,192499,1,8,0:0:0:0:
256,192,192591,1,0,0:0:0:0:
256,192,192775,1,8,0:0:0:0:
256,192,192867,1,8,0:0:0:0:
256,192,192959,1,0,0:0:0:0:
256,192,193051,1,8,0:0:0:0:
256,192,193236,1,8,0:0:0:0:
256,192,193328,1,0,0:0:0:0:
256,192,193420,1,0,0:0:0:0:
256,192,193512,1,8,0:0:0:0:
256,192,193696,1,0,0:0:0:0:
256,192,193880,1,8,0:0:0:0:
256,192,193972,1,8,0:0:0:0:
256,192,194064,1,0,0:0:0:0:
256,192,194156,1,0,0:0:0:0:
256,192,194248,1,8,0:0:0:0:
256,192,194432,1,0,0:0:0:0:
256,192,194524,1,8,0:0:0:0:
256,192,194616,1,0,0:0:0:0:
256,192,194708,1,0,0:0:0:0:
256,192,194800,1,8,0:0:0:0:
256,192,194892,1,8,0:0:0:0:
256,192,194984,1,0,0:0:0:0:
256,192,195168,1,8,0:0:0:0:
256,192,195260,1,0,0:0:0:0:
256,192,195352,1,0,0:0:0:0:
256,192,195444,1,0,0:0:0:0:
256,192,195536,1,8,0:0:0:0:
256,192,195720,1,0,0:0:0:0:
256,192,195812,1,0,0:0:0:0:
256,192,195904,1,8,0:0:0:0:
256,192,195996,1,0,0:0:0:0:
256,192,196180,1,0,0:0:0:0:
256,192,196272,1,8,0:0:0:0:
256,192,196364,1,8,0:0:0:0:
256,192,196456,1,0,0:0:0:0:
256,192,196640,1,8,0:0:0:0:
256,192,196824,1,0,0:0:0:0:
256,192,196917,1,0,0:0:0:0:
256,192,197009,1,8,0:0:0:0:
256,192,197101,1,0,0:0:0:0:
256,192,197193,1,8,0:0:0:0:
256,192,197285,1,8,0:0:0:0:
256,192,197377,1,0,0:0:0:0:
256,192,197561,1,8,0:0:0:0:
256,192,197653,1,0,0:0:0:0:
256,192,197745,1,0,0:0:0:0:
256,192,197837,1,8,0:0:0:0:
256,192,197929,1,0,0:0:0:0:
256,192,198021,1,0,0:0:0:0:
256,192,198113,1,8,0:0:0:0:
256,192,198297,1,0,0:0:0:0:
256,192,198389,1,8,0:0:0:0:
256,192,198481,1,0,0:0:0:0:
256,192,198665,1,8,0:0:0:0:
256,192,198757,1,8,0:0:0:0:
256,192,198849,1,0,0:0:0:0:
256,192,198941,1,8,0:0:0:0:
256,192,199125,1,8,0:0:0:0:
256,192,199217,1,0,0:0:0:0:
256,192,199309,1,0,0:0:0:0:
256,192,199401,1,8,0:0:0:0:
256,192,199585,1,0,0:0:0:0:
256,192,199769,1,8,0:0:0:0:
256,192,199861,1,8,0:0:0:0:
256,192,199953,1,0,0:0:0:0:
256,192,200045,1,8,0:0:0:0:
256,192,200137,1,0,0:0:0:0:
256,192,200229,1,0,0:0:0:0:
256,192,200321,1,8,0:0:0:0:
256,192,200505,1,0,0:0:0:0:
256,192,200597,1,8,0:0:0:0:
256,192,200690,1,8,0:0:0:0:
256,192,200782,1,0,0:0:0:0:
256,192,200874,1,8,0:0:0:0:
256,192,200966,1,8,0:0:0:0:
256,192,201058,1,0,0:0:0:0:
256,192,201242,1,8,0:0:0:0:
256,192,201334,1,0,0:0:0:0:
256,192,201426,1,8,0:0:0:0:
256,192,201610,1,0,0:0:0:0:
256,192,201794,1,8,0:0:0:0:
256,192,201886,1,8,0:0:0:0:
256,192,201978,1,0,0:0:0:0:
256,192,202070,1,0,0:0:0:0:
256,192,202162,1,8,0:0:0:0:
256,192,202346,1,0,0:0:0:0:
256,192,202530,1,12,0:0:0:0:
256,192,202714,1,0,0:0:0:0:
256,192,202806,1,0,0:0:0:0:
256,192,202898,1,8,0:0:0:0:
256,192,202990,1,0,0:0:0:0:
256,192,203082,1,0,0:0:0:0:
256,192,203266,1,8,0:0:0:0:
256,192,203358,1,0,0:0:0:0:
256,192,203450,1,8,0:0:0:0:
256,192,203542,1,8,0:0:0:0:
256,192,203634,1,0,0:0:0:0:
256,192,203726,1,0,0:0:0:0:
256,192,203818,1,8,0:0:0:0:
256,192,204002,1,0,0:0:0:0:
256,192,204094,1,8,0:0:0:0:
256,192,204186,1,8,0:0:0:0:
256,192,204278,1,8,0:0:0:0:
256,192,204370,1,0,0:0:0:0:
256,192,204554,1,8,0:0:0:0:
256,192,204646,1,8,0:0:0:0:
256,192,204738,1,0,0:0:0:0:
256,192,204830,1,8,0:0:0:0:
256,192,205015,1,8,0:0:0:0:
256,192,205107,1,0,0:0:0:0:
256,192,205199,1,0,0:0:0:0:
256,192,205291,1,8,0:0:0:0:
256,192,205475,1,0,0:0:0:0:
256,192,205659,1,8,0:0:0:0:
256,192,205751,1,8,0:0:0:0:
256,192,205843,1,0,0:0:0:0:
256,192,205935,1,8,0:0:0:0:
256,192,206027,1,8,0:0:0:0:
256,192,206211,1,0,0:0:0:0:
256,192,206303,1,8,0:0:0:0:
256,192,206395,1,0,0:0:0:0:
256,192,206487,1,0,0:0:0:0:
256,192,206579,1,8,0:0:0:0:
256,192,206671,1,8,0:0:0:0:
256,192,206763,1,0,0:0:0:0:
256,192,206947,1,8,0:0:0:0:
256,192,207039,1,0,0:0:0:0:
256,192,207131,1,0,0:0:0:0:
256,192,207223,1,0,0:0:0:0:
256,192,207315,1,8,0:0:0:0:
256,192,207499,1,0,0:0:0:0:
256,192,207591,1,0,0:0:0:0:
256,192,207683,1,8,0:0:0:0:
256,192,207775,1,0,0:0:0:0:
256,192,207959,1,0,0:0:0:0:
256,192,208051,1,8,0:0:0:0:
256,192,208143,1,8,0:0:0:0:
256,192,208235,1,0,0:0:0:0:
256,192,208419,1,8,0:0:0:0:
256,192,208603,1,0,0:0:0:0:
256,192,208696,1,0,0:0:0:0:
256,192,208788,1,8,0:0:0:0:
256,192,208880,1,0,0:0:0:0:
256,192,208972,1,8,0:0:0:0:
256,192,209064,1,8,0:0:0:0:
256,192,209156,1,0,0:0:0:0:
256,192,209340,1,8,0:0:0:0:
256,192,209432,1,8,0:0:0:0:
256,192,209524,1,8,0:0:0:0:
256,192,209616,1,0,0:0:0:0:
256,192,209708,1,0,0:0:0:0:
256,192,209800,1,0,0:0:0:0:
256,192,209892,1,8,0:0:0:0:
256,192,210076,1,0,0:0:0:0:
256,192,210168,1,8,0:0:0:0:
256,192,210260,1,0,0:0:0:0:
256,192,210444,1,8,0:0:0:0:
256,192,210536,1,8,0:0:0:0:
256,192,210628,1,0,0:0:0:0:
256,192,210720,1,8,0:0:0:0:
256,192,210904,1,8,0:0:0:0:
256,192,210996,1,0,0:0:0:0:
256,192,211088,1,0,0:0:0:0:
256,192,211180,1,8,0:0:0:0:
256,192,211364,1,0,0:0:0:0:
256,192,211548,1,8,0:0:0:0:
256,192,211640,1,8,0:0:0:0:
256,192,211732,1,0,0:0:0:0:
256,192,211824,1,8,0:0:0:0:
256,192,211916,1,0,0:0:0:0:
256,192,212008,1,0,0:0:0:0:
256,192,212100,1,8,0:0:0:0:
256,192,212284,1,0,0:0:0:0:
256,192,212376,1,0,0:0:0:0:
256,192,212469,1,0,0:0:0:0:
256,192,212561,1,8,0:0:0:0:
256,192,212653,1,8,0:0:0:0:
256,192,212745,1,8,0:0:0:0:
256,192,212837,1,0,0:0:0:0:
256,192,213021,1,8,0:0:0:0:
256,192,213113,1,0,0:0:0:0:
256,192,213205,1,8,0:0:0:0:
256,192,213389,1,0,0:0:0:0:
256,192,213573,1,8,0:0:0:0:
256,192,213665,1,8,0:0:0:0:
256,192,213757,1,0,0:0:0:0:
256,192,213849,1,0,0:0:0:0:
256,192,213941,1,8,0:0:0:0:
256,192,214125,1,0,0:0:0:0:
256,192,214309,1,12,0:0:0:0:
256,192,214677,1,4,0:0:0:0:
256,192,214861,1,4,0:0:0:0:
256,192,215045,1,12,0:0:0:0:
256,192,215413,1,12,0:0:0:0:
256,192,215597,1,12,0:0:0:0:
256,192,215782,1,4,0:0:0:0:
256,192,215966,1,12,0:0:0:0:
256,192,216150,1,4,0:0:0:0:
256,192,216334,1,4,0:0:0:0:
256,192,216518,1,12,0:0:0:0:
256,192,216886,1,4,0:0:0:0:
256,192,217070,1,12,0:0:0:0:
256,192,217254,1,4,0:0:0:0:
256,192,217622,1,12,0:0:0:0:
256,192,217806,1,12,0:0:0:0:
256,192,217990,1,4,0:0:0:0:
256,192,218358,1,4,0:0:0:0:
256,192,218542,1,4,0:0:0:0:
256,192,218726,1,12,0:0:0:0:
256,192,218910,1,4,0:0:0:0:
256,192,219094,1,12,0:0:0:0:
256,192,219278,1,12,0:0:0:0:
256,192,219463,1,4,0:0:0:0:
256,192,219831,1,12,0:0:0:0:
256,192,220015,1,4,0:0:0:0:
256,192,220199,1,12,0:0:0:0:
256,192,220383,1,0,0:0:0:0:
256,192,220475,1,8,0:0:0:0:
256,192,220567,1,0,0:0:0:0:
256,192,220659,1,0,0:0:0:0:
256,192,220751,1,8,0:0:0:0:
256,192,220843,1,8,0:0:0:0:
256,192,220935,1,0,0:0:0:0:
256,192,221119,1,8,0:0:0:0:
256,192,221211,1,0,0:0:0:0:
256,192,221303,1,0,0:0:0:0:
256,192,221395,1,0,0:0:0:0:
256,192,221487,1,8,0:0:0:0:
256,192,221671,1,0,0:0:0:0:
256,192,221763,1,0,0:0:0:0:
256,192,221855,1,8,0:0:0:0:
256,192,221947,1,0,0:0:0:0:
256,192,222039,1,8,0:0:0:0:
256,192,222131,1,8,0:0:0:0:
256,192,222223,1,0,0:0:0:0:
256,192,222407,1,8,0:0:0:0:
256,192,222499,1,0,0:0:0:0:
256,192,222591,1,0,0:0:0:0:
256,192,222683,1,8,0:0:0:0:
256,192,222775,1,0,0:0:0:0:
256,192,222867,1,0,0:0:0:0:
256,192,222959,1,8,0:0:0:0:
256,192,223144,1,0,0:0:0:0:
256,192,223328,1,8,0:0:0:0:
256,192,223420,1,0,0:0:0:0:
256,192,223512,1,8,0:0:0:0:
256,192,223604,1,8,0:0:0:0:
256,192,223696,1,0,0:0:0:0:
256,192,223788,1,0,0:0:0:0:
256,192,223880,1,8,0:0:0:0:
256,192,224064,1,0,0:0:0:0:
256,192,224156,1,8,0:0:0:0:
256,192,224248,1,8,0:0:0:0:
256,192,224340,1,8,0:0:0:0:
256,192,224432,1,0,0:0:0:0:
256,192,224616,1,0,0:0:0:0:
256,192,224708,1,8,0:0:0:0:
256,192,224800,1,0,0:0:0:0:
256,192,224892,1,0,0:0:0:0:
256,192,224984,1,8,0:0:0:0:
256,192,225076,1,0,0:0:0:0:
256,192,225168,1,8,0:0:0:0:
256,192,225260,1,8,0:0:0:0:
256,192,225352,1,0,0:0:0:0:
256,192,225444,1,8,0:0:0:0:
256,192,225536,1,8,0:0:0:0:
256,192,225628,1,8,0:0:0:0:
256,192,225720,1,0,0:0:0:0:
256,192,225812,1,8,0:0:0:0:
256,192,225904,1,0,0:0:0:0:
256,192,226088,1,8,0:0:0:0:
256,192,226180,1,0,0:0:0:0:
256,192,226272,1,8,0:0:0:0:
256,192,226364,1,8,0:0:0:0:
256,192,226456,1,0,0:0:0:0:
256,192,226548,1,8,0:0:0:0:
256,192,226640,1,0,0:0:0:0:
256,192,226732,1,0,0:0:0:0:
256,192,226824,1,8,0:0:0:0:
256,192,226917,1,0,0:0:0:0:
256,192,227009,1,0,0:0:0:0:
256,192,227101,1,0,0:0:0:0:
256,192,227193,1,8,0:0:0:0:
256,192,227285,1,0,0:0:0:0:
256,192,227377,1,8,0:0:0:0:
256,192,227561,1,4,0:0:0:0:
