osu file format v14

[General]
AudioFilename: check informasi file ini.mp3
AudioLeadIn: 0
PreviewTime: 64965
Countdown: 0
SampleSet: Normal
StackLeniency: 0.7
Mode: 1
LetterboxInBreaks: 0
WidescreenStoryboard: 0

[Editor]
DistanceSpacing: 0.8
BeatDivisor: 8
GridSize: 32
TimelineZoom: 1

[Metadata]
Title:Just a Dream
TitleUnicode:Just a Dream
Artist:Bengawan Flame
ArtistUnicode:Bengawan Flame
Creator:Surono
Version:Oni
Source:
Tags:Metal Guitar Solo Surakarta Sleeping Child
BeatmapID:1506232
BeatmapSetID:712593

[Difficulty]
HPDrainRate:6
CircleSize:7
OverallDifficulty:6
ApproachRate:0
SliderMultiplier:1.6
SliderTickRate:1

[Events]
//Background and Video events
0,0,"kutjeng tidur.jpg",0,0
//Break Periods
//Storyboard Layer 0 (Background)
//Storyboard Layer 1 (Fail)
//Storyboard Layer 2 (Pass)
//Storyboard Layer 3 (Foreground)
//Storyboard Sound Samples

[TimingPoints]
1851,461.538461538462,4,1,0,95,1,0
18004,-71.4285714285714,4,1,0,95,0,0
18466,-100,4,1,0,95,0,0
62774,461.538461538462,5,1,0,95,1,0
65081,461.538461538462,4,1,0,95,1,1
79850,-100,4,1,0,95,0,0

[HitObjects]
256,192,18120,6,0,L|352:256,1,111.999996582031
256,192,18927,1,8,0:0:0:0:
256,192,19389,1,8,0:0:0:0:
256,192,19620,1,8,0:0:0:0:
256,192,19735,1,8,0:0:0:0:
256,192,19851,1,8,0:0:0:0:
256,192,20312,1,0,0:0:0:0:
256,192,20774,1,0,0:0:0:0:
256,192,21004,1,0,0:0:0:0:
256,192,21235,1,8,0:0:0:0:
256,192,21466,1,0,0:0:0:0:
256,192,21697,1,8,0:0:0:0:
256,192,22158,1,8,0:0:0:0:
256,192,22389,1,0,0:0:0:0:
256,192,22504,1,0,0:0:0:0:
256,192,22620,1,8,0:0:0:0:
256,192,22735,1,8,0:0:0:0:
256,192,22851,1,8,0:0:0:0:
256,192,22966,1,0,0:0:0:0:
256,192,23081,1,8,0:0:0:0:
256,192,23543,1,0,0:0:0:0:
256,192,23774,1,8,0:0:0:0:
256,192,24004,1,8,0:0:0:0:
256,192,24466,1,0,0:0:0:0:
256,192,24697,1,0,0:0:0:0:
256,192,24927,1,8,0:0:0:0:
256,192,25158,1,0,0:0:0:0:
256,192,25389,1,8,0:0:0:0:
256,192,25851,1,0,0:0:0:0:
256,192,26081,1,0,0:0:0:0:
256,192,26312,1,8,0:0:0:0:
256,192,26543,1,0,0:0:0:0:
256,192,26658,1,0,0:0:0:0:
256,192,26774,1,8,0:0:0:0:
256,192,27004,1,8,0:0:0:0:
256,192,27120,1,8,0:0:0:0:
256,192,27235,1,0,0:0:0:0:
256,192,27351,1,8,0:0:0:0:
256,192,27466,1,0,0:0:0:0:
256,192,27581,1,0,0:0:0:0:
256,192,27697,1,8,0:0:0:0:
256,192,27927,1,0,0:0:0:0:
256,192,28158,1,0,0:0:0:0:
256,192,28389,1,8,0:0:0:0:
256,192,28620,1,8,0:0:0:0:
256,192,29081,1,8,0:0:0:0:
256,192,29312,1,0,0:0:0:0:
256,192,29543,1,8,0:0:0:0:
256,192,29774,1,8,0:0:0:0:
256,192,29889,1,8,0:0:0:0:
256,192,30004,1,0,0:0:0:0:
256,192,30235,1,8,0:0:0:0:
256,192,30351,1,0,0:0:0:0:
256,192,30466,1,8,0:0:0:0:
256,192,30697,1,8,0:0:0:0:
256,192,30927,1,0,0:0:0:0:
256,192,31043,1,8,0:0:0:0:
256,192,31274,1,8,0:0:0:0:
256,192,31389,1,8,0:0:0:0:
256,192,31851,1,0,0:0:0:0:
256,192,32081,1,0,0:0:0:0:
256,192,32312,1,8,0:0:0:0:
256,192,32774,1,8,0:0:0:0:
256,192,33235,5,0,0:0:0:0:
256,192,33466,1,8,0:0:0:0:
256,192,33697,1,0,0:0:0:0:
256,192,33927,1,0,0:0:0:0:
256,192,34158,1,8,0:0:0:0:
256,192,34620,1,8,0:0:0:0:
256,192,34851,1,0,0:0:0:0:
128,320,35081,2,0,B|0:352|160:160|448:96,1,480
256,192,36927,5,0,0:0:0:0:
256,192,37043,1,8,0:0:0:0:
256,192,37158,1,0,0:0:0:0:
256,192,37274,1,0,0:0:0:0:
256,192,37389,1,8,0:0:0:0:
256,192,37504,1,0,0:0:0:0:
256,192,37620,1,8,0:0:0:0:
256,192,37735,1,0,0:0:0:0:
256,192,37851,1,8,0:0:0:0:
256,192,37966,1,8,0:0:0:0:
256,192,38081,1,0,0:0:0:0:
256,192,38197,1,0,0:0:0:0:
256,192,38312,1,8,0:0:0:0:
256,192,38543,1,8,0:0:0:0:
256,192,38774,1,0,0:0:0:0:
256,192,39235,1,0,0:0:0:0:
256,192,39466,1,0,0:0:0:0:
256,192,39697,1,8,0:0:0:0:
256,192,40158,1,8,0:0:0:0:
256,192,40389,1,0,0:0:0:0:
256,192,40504,1,0,0:0:0:0:
256,192,40620,1,8,0:0:0:0:
256,192,40677,1,8,0:0:0:0:
256,192,40735,1,0,0:0:0:0:
256,192,40851,1,8,0:0:0:0:
256,192,41081,1,0,0:0:0:0:
256,192,41312,1,0,0:0:0:0:
256,192,41543,1,8,0:0:0:0:
256,192,41601,1,8,0:0:0:0:
256,192,41658,1,8,0:0:0:0:
256,192,41774,1,8,0:0:0:0:
256,192,42004,1,0,0:0:0:0:
256,192,42062,1,0,0:0:0:0:
256,192,42120,1,0,0:0:0:0:
256,192,42235,1,0,0:0:0:0:
256,192,42466,12,0,48927,0:0:0:0:
256,192,49158,5,0,0:0:0:0:
256,192,49389,5,8,0:0:0:0:
256,192,49620,1,0,0:0:0:0:
256,192,49851,5,0,0:0:0:0:
256,192,50312,1,8,0:0:0:0:
256,192,50774,1,0,0:0:0:0:
256,192,51004,1,0,0:0:0:0:
256,192,51235,1,8,0:0:0:0:
256,192,51466,1,0,0:0:0:0:
256,192,51927,1,0,0:0:0:0:
256,192,52158,1,8,0:0:0:0:
256,192,52851,1,0,0:0:0:0:
256,192,53081,1,8,0:0:0:0:
256,192,53312,1,8,0:0:0:0:
256,192,53543,1,0,0:0:0:0:
256,192,54004,1,8,0:0:0:0:
256,192,54697,1,0,0:0:0:0:
256,192,54927,1,8,0:0:0:0:
256,192,55158,1,8,0:0:0:0:
256,192,55389,1,0,0:0:0:0:
256,192,55620,1,0,0:0:0:0:
256,192,55851,1,8,0:0:0:0:
256,192,56312,1,8,0:0:0:0:
256,192,56543,1,0,0:0:0:0:
256,192,56774,1,8,0:0:0:0:
256,192,57004,1,0,0:0:0:0:
256,192,57235,1,4,0:0:0:0:
256,192,57697,1,8,0:0:0:0:
256,192,57927,1,4,0:0:0:0:
256,192,58389,1,8,0:0:0:0:
256,192,58447,1,8,0:0:0:0:
256,192,58620,1,4,0:0:0:0:
256,192,59081,1,8,0:0:0:0:
256,192,59197,1,8,0:0:0:0:
256,192,59312,1,0,0:0:0:0:
256,192,59427,1,8,0:0:0:0:
256,192,59543,1,8,0:0:0:0:
256,192,59658,1,0,0:0:0:0:
256,192,59774,1,8,0:0:0:0:
256,192,59889,1,8,0:0:0:0:
256,192,60004,1,8,0:0:0:0:
256,192,60062,1,8,0:0:0:0:
256,192,60120,1,0,0:0:0:0:
256,192,60235,1,8,0:0:0:0:
256,192,60351,1,8,0:0:0:0:
256,192,60466,1,0,0:0:0:0:
256,192,60581,1,0,0:0:0:0:
256,192,60697,1,0,0:0:0:0:
256,192,60812,1,0,0:0:0:0:
256,192,60927,1,12,0:0:0:0:
256,192,61274,1,0,0:0:0:0:
256,192,61389,5,8,0:0:0:0:
256,192,61620,1,0,0:0:0:0:
256,192,61851,1,0,0:0:0:0:
256,192,61966,1,0,0:0:0:0:
256,192,62197,1,0,0:0:0:0:
256,192,62312,1,8,0:0:0:0:
256,192,62543,1,8,0:0:0:0:
256,192,62774,1,0,0:0:0:0:
256,192,62889,1,0,0:0:0:0:
256,192,63004,1,0,0:0:0:0:
256,192,63120,1,0,0:0:0:0:
256,192,63235,1,8,0:0:0:0:
256,192,63350,1,8,0:0:0:0:
256,192,63466,1,0,0:0:0:0:
256,192,63581,1,0,0:0:0:0:
256,192,63697,1,8,0:0:0:0:
256,192,63754,1,8,0:0:0:0:
256,192,63812,1,8,0:0:0:0:
256,192,63966,1,4,0:0:0:0:
256,192,64158,1,12,0:0:0:0:
256,192,64504,1,4,0:0:0:0:
256,192,64850,1,12,0:0:0:0:
256,192,65081,5,0,0:0:0:0:
256,192,65196,1,0,0:0:0:0:
256,192,65311,1,0,0:0:0:0:
256,192,65427,1,0,0:0:0:0:
256,192,65542,1,8,0:0:0:0:
256,192,65657,1,0,0:0:0:0:
256,192,65773,1,0,0:0:0:0:
256,192,65888,1,0,0:0:0:0:
256,192,66004,5,0,0:0:0:0:
256,192,66119,1,0,0:0:0:0:
256,192,66234,1,0,0:0:0:0:
256,192,66350,1,0,0:0:0:0:
256,192,66465,1,8,0:0:0:0:
256,192,66580,1,8,0:0:0:0:
256,192,66696,1,0,0:0:0:0:
256,192,66811,1,0,0:0:0:0:
256,192,66927,5,8,0:0:0:0:
256,192,67042,1,0,0:0:0:0:
256,192,67157,1,0,0:0:0:0:
256,192,67273,1,0,0:0:0:0:
256,192,67388,1,8,0:0:0:0:
256,192,67503,1,0,0:0:0:0:
256,192,67619,1,0,0:0:0:0:
256,192,67734,1,0,0:0:0:0:
256,192,67850,5,8,0:0:0:0:
256,192,67965,1,8,0:0:0:0:
256,192,68080,1,8,0:0:0:0:
256,192,68196,1,0,0:0:0:0:
256,192,68311,1,8,0:0:0:0:
256,192,68542,1,8,0:0:0:0:
256,192,68657,1,8,0:0:0:0:
256,192,68773,5,0,0:0:0:0:
256,192,68888,1,0,0:0:0:0:
256,192,69003,1,0,0:0:0:0:
256,192,69119,1,0,0:0:0:0:
256,192,69234,1,8,0:0:0:0:
256,192,69349,1,0,0:0:0:0:
256,192,69465,1,0,0:0:0:0:
256,192,69580,1,0,0:0:0:0:
256,192,69696,5,0,0:0:0:0:
256,192,69811,1,0,0:0:0:0:
256,192,69926,1,0,0:0:0:0:
256,192,70042,1,0,0:0:0:0:
256,192,70157,1,8,0:0:0:0:
256,192,70272,1,8,0:0:0:0:
256,192,70388,1,0,0:0:0:0:
256,192,70503,1,0,0:0:0:0:
256,192,70619,5,8,0:0:0:0:
256,192,70734,1,0,0:0:0:0:
256,192,70849,1,8,0:0:0:0:
256,192,70965,1,0,0:0:0:0:
256,192,71080,1,8,0:0:0:0:
256,192,71195,1,0,0:0:0:0:
256,192,71311,1,8,0:0:0:0:
256,192,71426,1,0,0:0:0:0:
256,192,71542,5,8,0:0:0:0:
256,192,71657,1,0,0:0:0:0:
256,192,71772,1,8,0:0:0:0:
256,192,71888,1,0,0:0:0:0:
256,192,72003,1,8,0:0:0:0:
256,192,72118,1,0,0:0:0:0:
256,192,72234,1,0,0:0:0:0:
256,192,72349,1,0,0:0:0:0:
256,192,72465,5,8,0:0:0:0:
256,192,72580,1,8,0:0:0:0:
256,192,72696,1,8,0:0:0:0:
256,192,72811,1,0,0:0:0:0:
256,192,72926,1,8,0:0:0:0:
256,192,73041,1,0,0:0:0:0:
256,192,73157,1,0,0:0:0:0:
256,192,73273,1,0,0:0:0:0:
256,192,73388,5,8,0:0:0:0:
256,192,73503,1,8,0:0:0:0:
256,192,73618,1,0,0:0:0:0:
256,192,73734,1,8,0:0:0:0:
256,192,73849,1,8,0:0:0:0:
256,192,73964,1,0,0:0:0:0:
256,192,74080,1,0,0:0:0:0:
256,192,74195,1,0,0:0:0:0:
256,192,74311,5,8,0:0:0:0:
256,192,74427,1,8,0:0:0:0:
256,192,74542,1,8,0:0:0:0:
256,192,74657,1,0,0:0:0:0:
256,192,74772,1,8,0:0:0:0:
256,192,74887,1,8,0:0:0:0:
256,192,75003,1,8,0:0:0:0:
256,192,75118,1,0,0:0:0:0:
256,192,75234,5,8,0:0:0:0:
256,192,75349,1,8,0:0:0:0:
256,192,75465,1,8,0:0:0:0:
256,192,75580,1,0,0:0:0:0:
256,192,75695,1,8,0:0:0:0:
256,192,75810,1,8,0:0:0:0:
256,192,75926,1,0,0:0:0:0:
256,192,76041,1,0,0:0:0:0:
256,192,76157,5,8,0:0:0:0:
256,192,76504,1,0,0:0:0:0:
256,192,76619,1,8,0:0:0:0:
256,192,76850,1,0,0:0:0:0:
256,192,77081,1,8,0:0:0:0:
256,192,77138,1,8,0:0:0:0:
256,192,77311,1,8,0:0:0:0:
256,192,77427,1,8,0:0:0:0:
256,192,77542,1,0,0:0:0:0:
256,192,77657,1,8,0:0:0:0:
256,192,77773,1,8,0:0:0:0:
256,192,78004,1,0,0:0:0:0:
256,192,78061,1,0,0:0:0:0:
256,192,78119,1,0,0:0:0:0:
256,192,78234,1,0,0:0:0:0:
256,192,78350,1,0,0:0:0:0:
256,192,78465,1,0,0:0:0:0:
256,192,78523,1,0,0:0:0:0:
256,192,78581,1,0,0:0:0:0:
256,192,78696,1,0,0:0:0:0:
256,192,78812,1,0,0:0:0:0:
256,192,78927,1,0,0:0:0:0:
256,192,78985,1,0,0:0:0:0:
256,192,79043,1,0,0:0:0:0:
256,192,79157,1,0,0:0:0:0:
256,192,79273,1,0,0:0:0:0:
256,192,79388,1,8,0:0:0:0:
256,192,79504,1,8,0:0:0:0:
256,192,79619,1,8,0:0:0:0:
256,192,79734,1,8,0:0:0:0:
256,192,79850,1,4,0:0:0:0:
256,192,80081,1,0,0:0:0:0:
256,192,80196,1,0,0:0:0:0:
256,192,80311,1,8,0:0:0:0:
256,192,80427,1,0,0:0:0:0:
256,192,80657,1,0,0:0:0:0:
256,192,80773,1,8,0:0:0:0:
256,192,81004,1,0,0:0:0:0:
256,192,81119,1,0,0:0:0:0:
256,192,81234,1,8,0:0:0:0:
256,192,81350,1,0,0:0:0:0:
256,192,81581,1,0,0:0:0:0:
256,192,81696,1,8,0:0:0:0:
256,192,81927,1,0,0:0:0:0:
256,192,82042,1,0,0:0:0:0:
256,192,82157,1,8,0:0:0:0:
256,192,82273,1,8,0:0:0:0:
256,192,82388,1,0,0:0:0:0:
256,192,82504,1,0,0:0:0:0:
256,192,82619,1,12,0:0:0:0:
256,192,82850,1,0,0:0:0:0:
256,192,82965,1,12,0:0:0:0:
256,192,83196,1,0,0:0:0:0:
256,192,83311,1,12,0:0:0:0:
256,192,83542,1,4,0:0:0:0:
256,192,83888,1,0,0:0:0:0:
256,192,84004,1,8,0:0:0:0:
256,192,84234,1,8,0:0:0:0:
256,192,84465,1,0,0:0:0:0:
256,192,84811,1,0,0:0:0:0:
256,192,84927,1,8,0:0:0:0:
256,192,85157,1,0,0:0:0:0:
256,192,85388,1,0,0:0:0:0:
256,192,85734,1,0,0:0:0:0:
256,192,85850,1,8,0:0:0:0:
256,192,85965,1,8,0:0:0:0:
256,192,86081,1,0,0:0:0:0:
256,192,86311,1,0,0:0:0:0:
256,192,86427,1,0,0:0:0:0:
256,192,86657,1,0,0:0:0:0:
256,192,86773,1,8,0:0:0:0:
256,192,87004,1,8,0:0:0:0:
256,192,87234,1,0,0:0:0:0:
256,192,87581,1,0,0:0:0:0:
256,192,87696,1,8,0:0:0:0:
256,192,87927,1,8,0:0:0:0:
256,192,88157,1,0,0:0:0:0:
256,192,88504,1,8,0:0:0:0:
256,192,88619,1,8,0:0:0:0:
256,192,88850,1,8,0:0:0:0:
256,192,89081,1,0,0:0:0:0:
256,192,89427,1,0,0:0:0:0:
256,192,89542,1,8,0:0:0:0:
256,192,89773,1,0,0:0:0:0:
256,192,90004,1,8,0:0:0:0:
256,192,90119,1,8,0:0:0:0:
256,192,90234,1,8,0:0:0:0:
256,192,90350,1,0,0:0:0:0:
256,192,90465,1,8,0:0:0:0:
256,192,90523,1,8,0:0:0:0:
256,192,90581,1,8,0:0:0:0:
256,192,90696,1,0,0:0:0:0:
256,192,90773,1,0,0:0:0:0:
256,192,90850,1,0,0:0:0:0:
256,192,90927,1,12,0:0:0:0:
256,192,91157,1,8,0:0:0:0:
256,192,91273,1,0,0:0:0:0:
256,192,91388,1,8,0:0:0:0:
256,192,91504,1,8,0:0:0:0:
256,192,91619,1,0,0:0:0:0:
256,192,91734,1,8,0:0:0:0:
256,192,91850,1,0,0:0:0:0:
256,192,91965,1,0,0:0:0:0:
256,192,92081,1,8,0:0:0:0:
256,192,92196,1,0,0:0:0:0:
256,192,92311,1,8,0:0:0:0:
256,192,92427,1,8,0:0:0:0:
256,192,92542,1,0,0:0:0:0:
256,192,92657,1,8,0:0:0:0:
256,192,92773,1,0,0:0:0:0:
256,192,92888,1,0,0:0:0:0:
256,192,93119,1,0,0:0:0:0:
256,192,93234,1,8,0:0:0:0:
256,192,93465,1,8,0:0:0:0:
256,192,93581,1,0,0:0:0:0:
256,192,93811,1,8,0:0:0:0:
256,192,93927,1,0,0:0:0:0:
256,192,94042,1,0,0:0:0:0:
256,192,94157,1,8,0:0:0:0:
256,192,94273,1,0,0:0:0:0:
256,192,94388,1,8,0:0:0:0:
256,192,94504,1,8,0:0:0:0:
256,192,94619,1,0,0:0:0:0:
256,192,94965,1,0,0:0:0:0:
256,192,95081,1,8,0:0:0:0:
256,192,95311,1,0,0:0:0:0:
256,192,95542,1,8,0:0:0:0:
256,192,95888,1,0,0:0:0:0:
256,192,96004,1,8,0:0:0:0:
256,192,96234,1,8,0:0:0:0:
256,192,96465,1,8,0:0:0:0:
256,192,96581,1,8,0:0:0:0:
256,192,96696,1,0,0:0:0:0:
256,192,96811,1,0,0:0:0:0:
256,192,96927,1,8,0:0:0:0:
256,192,97042,1,8,0:0:0:0:
256,192,97157,1,0,0:0:0:0:
256,192,97273,1,0,0:0:0:0:
256,192,97388,1,8,0:0:0:0:
256,192,97504,1,8,0:0:0:0:
256,192,97619,1,0,0:0:0:0:
256,192,97734,1,0,0:0:0:0:
256,192,97850,1,8,0:0:0:0:
256,192,97965,1,8,0:0:0:0:
256,192,98081,1,8,0:0:0:0:
256,192,98196,1,8,0:0:0:0:
256,192,98311,1,4,0:0:0:0:
256,192,99004,1,0,0:0:0:0:
256,192,99119,1,0,0:0:0:0:
256,192,99234,1,0,0:0:0:0:
256,192,99350,1,8,0:0:0:0:
256,192,99696,1,0,0:0:0:0:
256,192,99811,1,8,0:0:0:0:
256,192,100042,1,8,0:0:0:0:
256,192,100273,1,0,0:0:0:0:
256,192,100504,1,8,0:0:0:0:
256,192,100561,1,8,0:0:0:0:
256,192,101081,1,0,0:0:0:0:
256,192,101196,1,0,0:0:0:0:
256,192,101427,1,0,0:0:0:0:
256,192,101542,1,8,0:0:0:0:
256,192,101773,1,12,0:0:0:0:
