osu file format v14

[General]
AudioFilename: check informasi file ini.mp3
AudioLeadIn: 0
PreviewTime: 64965
Countdown: 0
SampleSet: Normal
StackLeniency: 0.7
Mode: 1
LetterboxInBreaks: 0
WidescreenStoryboard: 1

[Editor]
DistanceSpacing: 0.8
BeatDivisor: 2
GridSize: 32
TimelineZoom: 1

[Metadata]
Title:Just a Dream
TitleUnicode:Just a Dream
Artist:Bengawan Flame
ArtistUnicode:Bengawan Flame
Creator:Surono
Version:Kantan
Source:
Tags:Metal Guitar Solo Surakarta Sleeping Child
BeatmapID:1506230
BeatmapSetID:712593

[Difficulty]
HPDrainRate:7
CircleSize:7
OverallDifficulty:3
ApproachRate:0
SliderMultiplier:1.4
SliderTickRate:1

[Events]
//Background and Video events
0,0,"kutjeng tidur.jpg",0,0
//Break Periods
//Storyboard Layer 0 (Background)
//Storyboard Layer 1 (Fail)
//Storyboard Layer 2 (Pass)
//Storyboard Layer 3 (Foreground)
//Storyboard Sound Samples

[TimingPoints]
1851,461.538461538462,4,1,0,95,1,0
18004,-71.4285714285714,4,1,0,95,0,0
18466,-100,4,1,0,95,0,0
62774,461.538461538462,5,1,0,95,1,0
65081,461.538461538462,4,1,0,95,1,1
79850,-100,4,1,0,95,0,0

[HitObjects]
256,192,18120,6,0,L|352:256,1,111.999996582031
256,192,19389,1,8,0:0:0:0:
256,192,19851,1,8,0:0:0:0:
256,192,20312,1,0,0:0:0:0:
256,192,21235,1,8,0:0:0:0:
256,192,22158,1,0,0:0:0:0:
256,192,22620,1,0,0:0:0:0:
256,192,23081,1,8,0:0:0:0:
256,192,24004,1,0,0:0:0:0:
256,192,24927,1,8,0:0:0:0:
256,192,25389,1,8,0:0:0:0:
256,192,26774,1,8,0:0:0:0:
256,192,27235,1,8,0:0:0:0:
256,192,27697,1,0,0:0:0:0:
256,192,28620,1,8,0:0:0:0:
256,192,29081,1,8,0:0:0:0:
256,192,29543,1,8,0:0:0:0:
256,192,30466,1,8,0:0:0:0:
256,192,31389,1,0,0:0:0:0:
256,192,32312,1,8,0:0:0:0:
256,192,32774,1,8,0:0:0:0:
256,192,34158,1,8,0:0:0:0:
256,192,34620,1,8,0:0:0:0:
128,320,35081,2,0,B|0:352|160:160|384:96,1,420
256,192,36927,5,0,0:0:0:0:
256,192,37389,1,0,0:0:0:0:
256,192,37851,1,8,0:0:0:0:
256,192,38312,1,8,0:0:0:0:
256,192,38774,1,0,0:0:0:0:
256,192,39697,1,8,0:0:0:0:
256,192,40158,1,0,0:0:0:0:
256,192,41081,1,8,0:0:0:0:
256,192,41543,1,8,0:0:0:0:
256,192,42004,1,8,0:0:0:0:
256,192,42466,12,0,48466,0:0:0:0:
256,192,49389,5,8,0:0:0:0:
256,192,49851,5,0,0:0:0:0:
256,192,51235,1,8,0:0:0:0:
256,192,51697,1,0,0:0:0:0:
256,192,52158,1,8,0:0:0:0:
256,192,53081,1,8,0:0:0:0:
256,192,53543,1,0,0:0:0:0:
256,192,54927,1,8,0:0:0:0:
256,192,55389,1,8,0:0:0:0:
256,192,56312,1,8,0:0:0:0:
256,192,57235,1,4,0:0:0:0:
256,192,57927,1,4,0:0:0:0:
256,192,58620,1,4,0:0:0:0:
256,192,59081,12,0,60466,0:0:0:0:
256,192,60927,5,12,0:0:0:0:
256,192,61851,1,0,0:0:0:0:
256,192,62312,5,8,0:0:0:0:
256,192,62774,1,0,0:0:0:0:
256,192,63697,1,8,0:0:0:0:
256,192,64158,1,12,0:0:0:0:
256,192,65081,5,0,0:0:0:0:
256,192,66004,5,0,0:0:0:0:
256,192,66465,1,8,0:0:0:0:
256,192,66927,5,8,0:0:0:0:
256,192,67388,1,0,0:0:0:0:
256,192,68311,1,8,0:0:0:0:
256,192,68773,5,0,0:0:0:0:
256,192,69696,5,0,0:0:0:0:
256,192,70157,1,8,0:0:0:0:
256,192,70619,2,0,L|256:128,12,35
256,192,72465,5,8,0:0:0:0:
256,192,73388,5,8,0:0:0:0:
256,192,74311,5,8,0:0:0:0:
256,192,74773,1,8,0:0:0:0:
256,192,75234,5,8,0:0:0:0:
256,192,75696,1,8,0:0:0:0:
256,192,76157,1,0,0:0:0:0:
256,192,77081,1,12,0:0:0:0:
256,192,78004,1,0,0:0:0:0:
256,192,78465,1,0,0:0:0:0:
256,192,78927,1,0,0:0:0:0:
256,192,79388,1,0,0:0:0:0:
256,192,79850,1,12,0:0:0:0:
256,192,80773,1,0,0:0:0:0:
256,192,81234,1,8,0:0:0:0:
256,192,81696,1,8,0:0:0:0:
256,192,82619,1,12,0:0:0:0:
256,192,83542,1,4,0:0:0:0:
256,192,84465,1,0,0:0:0:0:
256,192,84927,1,8,0:0:0:0:
256,192,85388,1,0,0:0:0:0:
256,192,86311,1,8,0:0:0:0:
256,192,87234,1,0,0:0:0:0:
256,192,88157,1,0,0:0:0:0:
256,192,88619,1,8,0:0:0:0:
256,192,89081,1,8,0:0:0:0:
256,192,90004,2,0,L|96:128,1,160
256,192,90927,1,12,0:0:0:0:
256,192,91388,1,8,0:0:0:0:
256,192,91850,1,8,0:0:0:0:
256,192,92773,1,0,0:0:0:0:
256,192,93234,1,8,0:0:0:0:
256,192,94157,1,8,0:0:0:0:
256,192,94388,1,8,0:0:0:0:
256,192,94619,1,0,0:0:0:0:
256,192,95542,1,8,0:0:0:0:
256,192,96004,1,8,0:0:0:0:
256,192,96465,2,0,L|256:128,12,35
256,192,98311,1,4,0:0:0:0:
256,192,99350,1,8,0:0:0:0:
256,192,99811,1,8,0:0:0:0:
256,192,100504,1,12,0:0:0:0:
256,192,101773,1,12,0:0:0:0:
