osu file format v14

[General]
AudioFilename: audio.mp3
AudioLeadIn: 0
PreviewTime: 48235
Countdown: 0
SampleSet: Soft
StackLeniency: 0.7
Mode: 0
LetterboxInBreaks: 0
WidescreenStoryboard: 1

[Editor]
DistanceSpacing: 0.5
BeatDivisor: 4
GridSize: 16
TimelineZoom: 3.599998

[Metadata]
Title:Coming Home
TitleUnicode:Coming Home
Artist:Ben Schueller
ArtistUnicode:Ben Schueller
Creator:phoneetic
Version:Abberant
Source:NerdOut! - Ark: Survival Evolved: Extinction Song
Tags:
BeatmapID:1891586
BeatmapSetID:894749

[Difficulty]
HPDrainRate:5
CircleSize:4
OverallDifficulty:8
ApproachRate:9.4
SliderMultiplier:2.3
SliderTickRate:1

[Events]
//Background and Video events
0,0,"ark.jpg",0,0
//Break Periods
2,72435,83695
//Storyboard Layer 0 (Background)
//Storyboard Layer 1 (Fail)
//Storyboard Layer 2 (Pass)
//Storyboard Layer 3 (Foreground)
//Storyboard Sound Samples

[TimingPoints]
235,375,4,2,0,100,1,0
235,-66.6666666666667,4,2,0,100,0,0
3235,-133.333333333333,4,2,0,100,0,0
9235,-66.6666666666667,4,2,0,100,0,0
27235,-133.333333333333,4,2,0,100,0,0
30235,-100,4,2,0,100,0,0
33235,-100,4,2,0,100,0,0
36235,-66.6666666666667,4,2,0,100,0,0
48235,-50,4,2,0,100,0,1
57235,-40,4,2,0,100,0,1
58735,-38.4615384615385,4,2,0,100,0,1
58922,-37.037037037037,4,2,0,100,0,1
59110,-35.7142857142857,4,2,0,100,0,1
59297,-34.4827586206897,4,2,0,100,0,1
59485,-33.3333333333333,4,2,0,100,0,1
59672,-32.258064516129,4,2,0,100,0,1
59860,-31.25,4,2,0,100,0,1
60047,-30.3030303030303,4,2,0,100,0,1
60235,-50,4,2,0,100,0,1
69235,-25,4,2,0,100,0,1
72235,-100,4,2,0,100,0,0
120235,-100,4,2,0,100,0,1
144235,-100,4,2,0,100,0,0

[HitObjects]
63,73,235,6,0,P|168:35|76:136,1,345.000013160706
171,303,985,1,8,0:0:0:0:
310,200,1360,1,0,0:0:0:0:
199,67,1735,2,0,B|210:77|210:77|200:84|200:84|211:91|211:91|197:98|197:98|211:104|211:104|199:109|199:109|211:113|211:113|201:120|201:120|213:126|213:126|196:132|196:132|211:137|211:137|199:139|199:139|209:143|209:143|199:150|199:150|209:154|209:154|200:156|200:156|210:164|210:164|199:172|199:172|210:176|210:176|199:181|199:181|211:186|211:186|198:194|198:194|211:204|211:204|196:217|196:217|208:222|208:222|195:233|195:233,1,345.000013160706
346,129,2485,5,8,0:0:0:0:
251,273,2860,1,0,0:0:0:0:
167,294,3235,2,0,P|105:223|146:141,1,172.500006580353
345,90,3985,2,0,P|407:161|366:243,1,172.500006580353,8|0,0:0|0:0,0:0:0:0:
328,292,4735,6,0,P|305:210|372:122,1,172.500006580353
184,92,5485,2,0,P|207:174|140:262,1,172.500006580353,8|0,0:0|0:0,0:0:0:0:
204,323,6235,5,0,0:0:0:0:
228,240,6610,1,0,0:0:0:0:
194,160,6985,1,8,0:0:0:0:
227,80,7360,1,0,0:0:0:0:
302,122,7735,6,0,P|355:173|377:289,1,172.500006580353
304,307,8485,2,0,P|230:284|126:318,1,172.500006580353,8|0,0:0|0:0,0:0:0:0:
192,143,9235,5,0,0:0:0:0:
361,112,9610,1,0,0:0:0:0:
337,282,9985,1,8,0:0:0:0:
361,112,10360,1,0,0:0:0:0:
205,37,10735,6,0,P|93:120|54:329,1,345.000013160706
222,304,11485,1,8,0:0:0:0:
379,232,11860,1,0,0:0:0:0:
328,67,12235,2,0,P|256:179|266:89,1,345.000013160706
117,250,12985,5,8,0:0:0:0:
117,77,13360,1,0,0:0:0:0:
175,239,13735,1,0,0:0:0:0:
188,67,14110,1,0,0:0:0:0:
254,226,14485,5,8,0:0:0:0:
355,86,14860,1,0,0:0:0:0:
184,110,15235,2,0,P|250:193|211:113,2,345.000013160706,0|0|8,0:0|0:0|0:0,0:0:0:0:
213,280,16360,1,0,0:0:0:0:
139,124,16735,6,0,B|248:93|248:93|322:224|457:66,2,345.000013160706,0|0|8,0:0|0:0|0:0,0:0:0:0:
205,283,17860,1,0,0:0:0:0:
147,120,18235,1,0,0:0:0:0:
315,157,18610,1,0,0:0:0:0:
153,216,18985,5,8,0:0:0:0:
313,278,19360,1,0,0:0:0:0:
240,121,19735,1,0,0:0:0:0:
390,36,20110,1,0,0:0:0:0:
383,208,20485,5,8,0:0:0:0:
223,274,20860,1,0,0:0:0:0:
246,102,21235,2,0,B|228:246|228:246|181:303|83:216|112:139,1,345.000013160706
248,49,21985,2,0,P|322:123|171:98,1,345.000013160706,8|0,0:0|0:0,0:0:0:0:
76,293,22735,5,0,0:0:0:0:
247,310,23110,1,0,0:0:0:0:
177,152,23485,1,8,0:0:0:0:
348,165,23860,1,0,0:0:0:0:
220,49,24235,6,0,P|141:126|197:348,1,345.000013160706
276,191,24985,2,0,P|65:182|83:133,1,345.000013160706,8|0,0:0|0:0,0:0:0:0:
190,62,25735,1,0,0:0:0:0:
357,102,26110,1,0,0:0:0:0:
406,267,26485,5,8,0:0:0:0:
250,193,26860,1,0,0:0:0:0:
203,120,27235,2,0,B|136:129|136:129|37:196,1,172.500006580353
82,267,27985,2,0,P|146:320|236:316,1,172.500006580353,8|0,0:0|0:0,0:0:0:0:
235,231,28735,6,0,P|213:160|316:118,1,172.500006580353
293,193,29485,2,0,P|401:195|392:232,1,172.500006580353,8|0,0:0|0:0,0:0:0:0:
286,228,30235,5,0,0:0:0:0:
171,229,30610,1,0,0:0:0:0:
228,129,30985,1,8,0:0:0:0:
317,201,31360,1,0,0:0:0:0:
204,223,31735,5,0,0:0:0:0:
270,129,32110,1,0,0:0:0:0:
347,213,32485,1,8,0:0:0:0:
281,307,32860,1,0,0:0:0:0:
195,229,33235,6,0,B|170:163|120:118|120:118|206:94|198:31,1,230
309,68,33985,2,0,B|377:115|395:171|273:185|380:269,1,230,8|0,0:0|0:0,0:0:0:0:
267,309,34735,2,0,P|176:304|126:160,1,230
173,90,35485,5,8,0:0:0:0:
287,96,35860,1,0,0:0:0:0:
120,142,36235,5,0,0:0:0:0:
283,196,36610,1,0,0:0:0:0:
132,280,36985,1,8,0:0:0:0:
207,124,37360,1,0,0:0:0:0:
268,285,37735,5,0,0:0:0:0:
135,175,38110,1,0,0:0:0:0:
307,187,38485,1,8,0:0:0:0:
427,63,38860,1,0,0:0:0:0:
254,56,39235,6,0,P|94:114|154:258,1,345.000013160706
274,352,39985,2,0,B|306:244|281:276|281:276|291:154|291:154|426:31,1,345.000013160706,8|0,0:0|0:0,0:0:0:0:
494,202,40735,2,0,B|396:206|396:206|304:180|304:180|72:196,1,345.000013160706
80,33,41485,2,0,B|86:140|86:140|145:214|145:214|142:370,1,345.000013160706,8|0,0:0|0:0,0:0:0:0:
226,206,42235,5,0,0:0:0:0:
385,139,42610,1,0,0:0:0:0:
388,311,42985,1,8,0:0:0:0:
310,156,43360,1,0,0:0:0:0:
302,328,43735,5,0,0:0:0:0:
232,170,44110,1,0,0:0:0:0:
219,342,44485,1,8,0:0:0:0:
373,264,44860,1,0,0:0:0:0:
362,91,45235,6,0,B|231:93|262:121|227:186|286:171|160:117|355:130|231:288|18:218,1,345.000013160706
217,340,45985,2,0,P|317:258|278:340,1,345.000013160706
256,192,46735,12,0,47860,0:0:0:0:
74,91,48235,5,0,0:0:0:0:
279,126,48422,1,0,0:0:0:0:
34,231,48610,1,0,0:0:0:0:
226,52,48797,1,0,0:0:0:0:
223,328,48985,5,0,0:0:0:0:
95,128,49172,1,0,0:0:0:0:
362,132,49360,1,0,0:0:0:0:
130,239,49547,1,0,0:0:0:0:
206,50,49735,5,0,0:0:0:0:
284,263,49922,1,0,0:0:0:0:
20,138,50110,1,0,0:0:0:0:
349,105,50297,1,0,0:0:0:0:
160,294,50485,5,0,0:0:0:0:
181,66,50672,1,0,0:0:0:0:
276,252,50860,1,0,0:0:0:0:
70,177,51047,1,0,0:0:0:0:
316,60,51235,5,0,0:0:0:0:
431,233,51422,1,0,0:0:0:0:
134,140,51610,1,0,0:0:0:0:
222,342,51797,1,0,0:0:0:0:
58,83,51985,5,0,0:0:0:0:
363,328,52172,1,0,0:0:0:0:
50,269,52360,1,0,0:0:0:0:
311,62,52547,1,0,0:0:0:0:
203,332,52735,5,0,0:0:0:0:
86,174,52922,1,0,0:0:0:0:
397,171,53110,1,0,0:0:0:0:
102,268,53297,1,0,0:0:0:0:
204,54,53485,5,0,0:0:0:0:
272,262,53672,1,0,0:0:0:0:
55,127,53860,1,0,0:0:0:0:
378,80,54047,1,0,0:0:0:0:
174,293,54235,5,0,0:0:0:0:
219,62,54422,1,0,0:0:0:0:
332,273,54610,1,0,0:0:0:0:
106,187,54797,1,0,0:0:0:0:
307,21,54985,5,0,0:0:0:0:
207,343,55172,1,0,0:0:0:0:
135,55,55360,1,0,0:0:0:0:
397,269,55547,1,0,0:0:0:0:
30,244,55735,5,0,0:0:0:0:
403,62,55922,1,0,0:0:0:0:
216,329,56110,1,0,0:0:0:0:
186,35,56297,1,0,0:0:0:0:
446,250,56485,5,0,0:0:0:0:
44,154,56672,1,0,0:0:0:0:
335,74,56860,1,0,0:0:0:0:
218,283,57047,1,0,0:0:0:0:
151,92,57235,5,0,0:0:0:0:
337,171,57422,1,0,0:0:0:0:
47,201,57610,1,0,0:0:0:0:
448,77,57797,1,0,0:0:0:0:
341,300,57985,5,0,0:0:0:0:
261,64,58172,1,0,0:0:0:0:
151,317,58360,1,0,0:0:0:0:
103,83,58547,1,0,0:0:0:0:
196,144,58735,5,0,0:0:0:0:
345,149,58922,1,0,0:0:0:0:
117,220,59110,1,0,0:0:0:0:
288,62,59297,1,0,0:0:0:0:
313,249,59485,5,0,0:0:0:0:
154,105,59672,1,0,0:0:0:0:
453,108,59860,1,0,0:0:0:0:
76,341,60047,1,0,0:0:0:0:
253,17,60235,5,0,0:0:0:0:
331,169,60422,1,0,0:0:0:0:
86,163,60610,1,0,0:0:0:0:
169,27,60797,1,0,0:0:0:0:
217,285,60985,5,0,0:0:0:0:
51,273,61172,1,0,0:0:0:0:
365,83,61360,1,0,0:0:0:0:
342,273,61547,1,0,0:0:0:0:
127,126,61735,5,0,0:0:0:0:
253,30,61922,1,0,0:0:0:0:
264,275,62110,1,0,0:0:0:0:
161,33,62297,1,0,0:0:0:0:
56,327,62485,5,0,0:0:0:0:
451,164,62672,1,0,0:0:0:0:
27,57,62860,1,0,0:0:0:0:
441,317,63047,1,0,0:0:0:0:
259,60,63235,5,0,0:0:0:0:
331,100,63422,1,0,0:0:0:0:
254,142,63610,1,0,0:0:0:0:
332,186,63797,1,0,0:0:0:0:
249,227,63985,5,0,0:0:0:0:
334,272,64172,1,0,0:0:0:0:
169,277,64360,1,0,0:0:0:0:
261,324,64547,1,0,0:0:0:0:
240,138,64735,5,0,0:0:0:0:
261,324,64922,1,0,0:0:0:0:
154,81,65110,1,0,0:0:0:0:
261,324,65297,1,0,0:0:0:0:
290,53,65485,5,0,0:0:0:0:
170,341,65672,1,0,0:0:0:0:
405,54,65860,1,0,0:0:0:0:
69,162,66047,1,0,0:0:0:0:
304,198,66235,5,0,0:0:0:0:
79,270,66422,1,0,0:0:0:0:
356,278,66610,1,0,0:0:0:0:
29,157,66797,1,0,0:0:0:0:
424,119,66985,5,0,0:0:0:0:
6,318,67172,1,0,0:0:0:0:
387,69,67360,1,0,0:0:0:0:
394,273,67547,1,0,0:0:0:0:
228,52,67735,5,0,0:0:0:0:
161,314,67922,1,0,0:0:0:0:
317,28,68110,1,0,0:0:0:0:
331,359,68297,1,0,0:0:0:0:
161,45,68485,5,0,0:0:0:0:
426,357,68672,1,0,0:0:0:0:
326,9,68860,1,0,0:0:0:0:
94,353,69047,1,0,0:0:0:0:
214,49,69235,5,0,0:0:0:0:
95,142,69422,1,0,0:0:0:0:
330,157,69610,1,0,0:0:0:0:
217,331,69797,1,0,0:0:0:0:
222,11,69985,5,0,0:0:0:0:
15,160,70172,1,0,0:0:0:0:
434,164,70360,1,0,0:0:0:0:
109,45,70547,1,0,0:0:0:0:
124,268,70735,5,0,0:0:0:0:
153,259,71110,1,0,0:0:0:0:
212,121,71297,5,0,0:0:0:0:
338,61,71391,1,0,0:0:0:0:
318,202,71485,1,0,0:0:0:0:
59,137,71672,5,0,0:0:0:0:
277,302,71860,1,0,0:0:0:0:
214,41,72047,1,0,0:0:0:0:
116,350,72235,1,0,0:0:0:0:
40,102,84235,6,0,B|104:77|156:110|156:110|226:155|291:118,1,230
421,42,84985,1,0,0:0:0:0:
382,258,85360,1,0,0:0:0:0:
186,349,85735,2,0,B|249:312|245:207|245:207|148:246|149:217,1,230
61,67,86485,5,0,0:0:0:0:
272,117,86860,1,0,0:0:0:0:
452,247,87235,2,0,B|373:261|349:222|349:222|310:285|206:243,1,230
148,361,87985,6,0,P|112:283|146:132,1,230
37,70,88735,2,0,P|149:52|290:88,1,230
394,22,89485,2,0,B|438:121|438:121|412:288,1,230
64,265,90235,5,0,0:0:0:0:
181,273,90610,1,0,0:0:0:0:
134,50,90985,1,0,0:0:0:0:
126,167,91360,1,0,0:0:0:0:
406,88,91735,5,0,0:0:0:0:
255,198,92110,1,0,0:0:0:0:
412,234,92485,1,0,0:0:0:0:
289,61,92860,1,0,0:0:0:0:
245,352,93235,6,0,B|203:272|203:272|226:214|211:138|211:138|248:159|254:145,1,230
483,53,93985,2,0,B|444:119|391:121|391:121|429:177|484:175,1,230
261,310,94735,2,0,P|356:299|287:241,1,230
95,141,95485,2,0,B|205:149|237:57|237:57|255:75|309:90,1,230
452,197,96235,5,0,0:0:0:0:
208,225,96610,1,0,0:0:0:0:
375,330,96985,1,0,0:0:0:0:
156,121,97360,1,0,0:0:0:0:
391,34,97735,5,0,0:0:0:0:
392,329,98110,1,0,0:0:0:0:
266,106,98485,1,0,0:0:0:0:
499,198,98860,1,0,0:0:0:0:
66,354,99235,6,0,B|106:243|50:197|50:197|108:130,1,230
354,56,99985,2,0,P|293:108|139:60,1,230
135,270,100735,2,0,B|191:258|243:280|243:280|304:312|394:292,1,230
277,39,101485,2,0,B|299:49|299:49|293:52|167:94|98:56,1,230
491,289,102235,5,0,0:0:0:0:
357,151,102610,1,0,0:0:0:0:
470,328,102985,1,0,0:0:0:0:
362,169,103360,1,0,0:0:0:0:
21,95,103735,5,0,0:0:0:0:
155,233,104110,1,0,0:0:0:0:
41,55,104485,1,0,0:0:0:0:
149,214,104860,1,0,0:0:0:0:
498,22,105235,6,0,B|430:72|323:49|323:49|320:83|274:113,1,230
171,50,105985,2,0,P|167:138|324:197,1,230
446,190,106735,2,0,B|442:142|442:142|440:144|385:145|356:107|356:107|385:28,1,230
81,28,107485,1,0,0:0:0:0:
280,266,107860,5,0,0:0:0:0:
192,238,107953,1,0,0:0:0:0:
192,146,108047,1,0,0:0:0:0:
280,117,108141,1,0,0:0:0:0:
334,192,108235,1,0,0:0:0:0:
67,57,108610,5,0,0:0:0:0:
364,37,108985,1,0,0:0:0:0:
232,245,109360,1,0,0:0:0:0:
191,52,109735,1,0,0:0:0:0:
370,202,110110,5,0,0:0:0:0:
411,55,110485,1,0,0:0:0:0:
247,244,110860,1,0,0:0:0:0:
71,66,111235,6,0,P|171:84|341:32,1,230
471,13,111985,2,0,P|454:91|494:243,1,230
382,340,112735,2,0,B|352:357|352:357|327:325|293:318|293:318|351:209,1,230
446,73,113485,2,0,B|356:41|356:41|346:83|231:120,1,230
96,103,114235,5,0,0:0:0:0:
90,246,114610,1,0,0:0:0:0:
224,160,114985,1,0,0:0:0:0:
143,338,115360,1,0,0:0:0:0:
288,90,115735,5,0,0:0:0:0:
323,364,116110,1,0,0:0:0:0:
350,28,116485,1,0,0:0:0:0:
437,368,116860,1,0,0:0:0:0:
209,335,117235,5,0,0:0:0:0:
444,252,117610,1,0,0:0:0:0:
127,117,117985,1,0,0:0:0:0:
472,261,118360,1,0,0:0:0:0:
75,359,118735,5,0,0:0:0:0:
317,103,119110,1,0,0:0:0:0:
181,202,119297,1,0,0:0:0:0:
397,182,119485,1,0,0:0:0:0:
98,130,119672,5,0,0:0:0:0:
452,277,119860,1,0,0:0:0:0:
42,49,120047,5,0,0:0:0:0:
497,349,120235,1,0,0:0:0:0:
366,62,120422,5,0,0:0:0:0:
294,336,120610,1,0,0:0:0:0:
171,153,120797,5,0,0:0:0:0:
396,162,120985,1,0,0:0:0:0:
162,301,121172,5,0,0:0:0:0:
265,78,121360,1,0,0:0:0:0:
335,300,121547,5,0,0:0:0:0:
134,85,121735,1,0,0:0:0:0:
373,107,121922,5,0,0:0:0:0:
271,21,122110,1,0,0:0:0:0:
476,135,122297,5,0,0:0:0:0:
332,342,122485,1,0,0:0:0:0:
186,136,122672,5,0,0:0:0:0:
369,50,122860,1,0,0:0:0:0:
254,301,123047,5,0,0:0:0:0:
241,40,123235,1,0,0:0:0:0:
357,202,123422,5,0,0:0:0:0:
141,179,123610,1,0,0:0:0:0:
339,73,123797,5,0,0:0:0:0:
254,271,123985,1,0,0:0:0:0:
144,71,124172,5,0,0:0:0:0:
109,282,124360,1,0,0:0:0:0:
69,51,124547,5,0,0:0:0:0:
216,332,124735,1,0,0:0:0:0:
316,16,124922,5,0,0:0:0:0:
348,383,125110,1,0,0:0:0:0:
182,15,125297,5,0,0:0:0:0:
191,382,125485,1,0,0:0:0:0:
327,47,125672,5,0,0:0:0:0:
344,338,125860,1,0,0:0:0:0:
199,20,126047,5,0,0:0:0:0:
13,131,126234,1,0,0:0:0:0:
501,265,126422,5,0,0:0:0:0:
12,270,126610,1,0,0:0:0:0:
502,130,126797,5,0,0:0:0:0:
186,39,126985,1,0,0:0:0:0:
405,260,127172,5,0,0:0:0:0:
82,158,127360,1,0,0:0:0:0:
386,49,127547,5,0,0:0:0:0:
333,338,127735,1,0,0:0:0:0:
189,57,127922,5,0,0:0:0:0:
492,328,128110,1,0,0:0:0:0:
81,114,128297,5,0,0:0:0:0:
501,137,128485,1,0,0:0:0:0:
84,269,128672,5,0,0:0:0:0:
259,14,128860,1,0,0:0:0:0:
414,277,129047,5,0,0:0:0:0:
191,123,129235,1,0,0:0:0:0:
279,167,129422,5,0,0:0:0:0:
192,215,129610,1,0,0:0:0:0:
189,40,129797,5,0,0:0:0:0:
192,215,129985,1,0,0:0:0:0:
379,117,130172,5,0,0:0:0:0:
192,215,130360,1,0,0:0:0:0:
160,10,130547,5,0,0:0:0:0:
161,250,130735,1,0,0:0:0:0:
207,13,130922,5,0,0:0:0:0:
196,288,131110,1,0,0:0:0:0:
160,10,131297,5,0,0:0:0:0:
164,320,131485,1,0,0:0:0:0:
213,12,131672,5,0,0:0:0:0:
208,339,131860,1,0,0:0:0:0:
160,10,132047,5,0,0:0:0:0:
445,219,132235,1,0,0:0:0:0:
147,127,132422,5,0,0:0:0:0:
403,83,132610,1,0,0:0:0:0:
342,277,132797,5,0,0:0:0:0:
264,41,132985,1,0,0:0:0:0:
202,359,133172,5,0,0:0:0:0:
464,169,133360,1,0,0:0:0:0:
100,150,133547,5,0,0:0:0:0:
357,304,133735,1,0,0:0:0:0:
260,58,133922,5,0,0:0:0:0:
193,341,134110,1,0,0:0:0:0:
370,21,134297,5,0,0:0:0:0:
85,288,134485,1,0,0:0:0:0:
449,165,134672,5,0,0:0:0:0:
156,103,134860,1,0,0:0:0:0:
357,283,135047,5,0,0:0:0:0:
297,42,135235,1,0,0:0:0:0:
238,293,135422,5,0,0:0:0:0:
338,59,135610,1,0,0:0:0:0:
196,275,135797,5,0,0:0:0:0:
370,90,135985,1,0,0:0:0:0:
164,244,136172,5,0,0:0:0:0:
398,135,136360,1,0,0:0:0:0:
151,210,136547,5,0,0:0:0:0:
391,66,136735,1,0,0:0:0:0:
303,328,136922,5,0,0:0:0:0:
247,57,137110,1,0,0:0:0:0:
297,358,137297,5,0,0:0:0:0:
408,24,137485,1,0,0:0:0:0:
296,380,137672,5,0,0:0:0:0:
223,9,137860,1,0,0:0:0:0:
503,373,138047,5,0,0:0:0:0:
103,119,138235,1,0,0:0:0:0:
471,32,138422,5,0,0:0:0:0:
54,356,138610,1,0,0:0:0:0:
421,26,138797,5,0,0:0:0:0:
291,378,138985,1,0,0:0:0:0:
31,25,139172,5,0,0:0:0:0:
508,57,139360,1,0,0:0:0:0:
8,214,139547,5,0,0:0:0:0:
507,329,139735,1,0,0:0:0:0:
258,7,139922,5,0,0:0:0:0:
15,370,140110,1,0,0:0:0:0:
500,22,140297,5,0,0:0:0:0:
2,13,140485,1,0,0:0:0:0:
492,374,140672,5,0,0:0:0:0:
6,191,140860,1,0,0:0:0:0:
498,195,141047,5,0,0:0:0:0:
81,42,141235,1,0,0:0:0:0:
258,135,141422,2,0,P|334:146|386:130,2,115
81,42,141985,1,0,0:0:0:0:
319,183,142172,2,0,P|395:194|447:178,2,115
81,42,142735,1,0,0:0:0:0:
377,265,142922,2,0,P|453:276|505:260,2,115
81,42,143485,1,0,0:0:0:0:
371,363,143672,1,0,0:0:0:0:
465,20,143860,5,0,0:0:0:0:
427,62,143950,1,0,0:0:0:0:
377,91,144044,1,0,0:0:0:0:
320,101,144138,1,0,0:0:0:0:
264,91,144235,1,0,0:0:0:0:
