osu file format v14

[General]
AudioFilename: EarthinaJar.mp3
AudioLeadIn: 0
PreviewTime: 21951
Countdown: 0
SampleSet: Soft
StackLeniency: 0.7
Mode: 3
LetterboxInBreaks: 0
SpecialStyle: 0
WidescreenStoryboard: 0

[Editor]
DistanceSpacing: 0.8
BeatDivisor: 2
GridSize: 16
TimelineZoom: 2.2

[Metadata]
Title:Earth in a Jar
TitleUnicode:Earth in a Jar
Artist:Ben Prunty
ArtistUnicode:Ben Prunty
Creator:maciek0421
Version:4K Easy
Source:
Tags:
BeatmapID:1300692
BeatmapSetID:606796

[Difficulty]
HPDrainRate:4
CircleSize:4
OverallDifficulty:7
ApproachRate:8
SliderMultiplier:1.8
SliderTickRate:1

[Events]
//Background and Video events
0,0,"earth.jpg",0,0
//Break Periods
//Storyboard Layer 0 (Background)
//Storyboard Layer 1 (Fail)
//Storyboard Layer 2 (Pass)
//Storyboard Layer 3 (Foreground)
//Storyboard Sound Samples

[TimingPoints]
3721,461.538461538462,4,2,0,35,1,0
3721,-100,4,2,0,35,0,0
11105,-100,4,2,0,45,0,0
18490,-100,4,2,0,50,0,0
22182,-100,4,3,0,60,0,0
24028,-100,4,2,0,50,0,0
25413,-100,4,2,0,50,0,0
25644,-100,4,2,0,55,0,0
25874,-100,4,3,0,60,0,0
32105,-100,4,2,0,50,0,0
33259,-100,4,3,0,50,0,1
38336,-100,4,2,0,50,0,0
38797,-100,4,2,0,65,0,0
39490,-100,4,2,0,70,0,0
40182,-100,4,2,0,75,0,0
40644,-100,4,2,0,10,0,0

[HitObjects]
192,192,3721,5,0,0:0:0:0:
320,192,4644,1,0,0:0:0:0:
64,192,5105,1,0,0:0:0:0:
448,192,5567,1,0,0:0:0:0:
64,192,7413,1,0,0:0:0:0:
320,192,8336,1,0,0:0:0:0:
192,192,8797,1,0,0:0:0:0:
448,192,9259,1,0,0:0:0:0:
320,192,9951,1,0,0:0:0:0:
192,192,10644,1,0,0:0:0:0:
64,192,11105,128,0,12028:0:0:0:0:
320,192,12028,128,0,12490:0:0:0:0:
448,192,12490,128,0,12951:0:0:0:0:
192,192,12951,128,0,14797:0:0:0:0:
320,192,14797,1,0,0:0:0:0:
64,192,15721,1,0,0:0:0:0:
320,192,16182,1,0,0:0:0:0:
448,192,16644,1,0,0:0:0:0:
192,192,17105,1,0,0:0:0:0:
320,192,17567,1,0,0:0:0:0:
64,192,18028,1,0,0:0:0:0:
448,192,18490,128,0,19413:0:0:0:0:
192,192,19413,128,0,20336:0:0:0:0:
320,192,20336,128,0,21259:0:0:0:0:
64,192,21259,128,0,22182:0:0:0:0:
448,192,22182,1,0,0:0:0:0:
192,192,22874,1,0,0:0:0:0:
320,192,23567,1,0,0:0:0:0:
64,192,24028,1,0,0:0:0:0:
192,192,24490,1,0,0:0:0:0:
320,192,24951,1,0,0:0:0:0:
448,192,25413,1,0,0:0:0:0:
320,192,25644,1,0,0:0:0:0:
192,192,25874,128,0,26797:0:0:0:0:
64,192,26797,128,0,27721:0:0:0:0:
320,192,27721,128,0,28644:0:0:0:0:
448,192,28644,128,0,29567:0:0:0:0:
192,192,29567,1,0,0:0:0:0:
320,192,30490,1,0,0:0:0:0:
64,192,30951,1,0,0:0:0:0:
448,192,31413,1,0,0:0:0:0:
192,192,32105,1,0,0:0:0:0:
64,192,32797,1,0,0:0:0:0:
320,192,33259,128,0,33951:0:0:0:0:
192,192,33951,1,0,0:0:0:0:
64,192,34413,1,0,0:0:0:0:
192,192,34644,1,0,0:0:0:0:
320,192,34874,1,0,0:0:0:0:
448,192,35105,1,0,0:0:0:0:
192,192,35567,1,0,0:0:0:0:
320,192,36028,1,0,0:0:0:0:
64,192,36490,1,0,0:0:0:0:
448,192,36721,128,0,36951:0:0:0:0:
192,192,36951,1,0,0:0:0:0:
320,192,37413,1,0,0:0:0:0:
64,192,37644,1,0,0:0:0:0:
448,192,38105,1,0,0:0:0:0:
192,192,38336,1,0,0:0:0:0:
320,192,38797,1,0,0:0:0:0:
192,192,39490,1,0,0:0:0:0:
64,192,40182,1,0,0:0:0:0:
320,192,40644,128,0,43182:0:0:0:0:
