osu file format v14

[General]
AudioFilename: audio.mp3
AudioLeadIn: 0
PreviewTime: 3605
Countdown: 0
SampleSet: Soft
StackLeniency: 0.7
Mode: 2
LetterboxInBreaks: 0
WidescreenStoryboard: 0

[Editor]
DistanceSpacing: 1
BeatDivisor: 4
GridSize: 8
TimelineZoom: 1

[Metadata]
Title:Earth in a Jar
TitleUnicode:Earth in a Jar
Artist:Ben Prunty
ArtistUnicode:Ben Prunty
Creator:- Magic Bomb -
Version:Platter
Source:
Tags:MBomb soundtrack chiptunes cinematic Campbell violin piano drums Fragments FTL Faster Than Light
BeatmapID:1054430
BeatmapSetID:495269

[Difficulty]
HPDrainRate:5
CircleSize:3.5
OverallDifficulty:7.5
ApproachRate:7.5
SliderMultiplier:1.6
SliderTickRate:2

[Events]
//Background and Video events
0,0,"earth not in a jar.jpg",0,0
//Break Periods
//Storyboard Layer 0 (Background)
//Storyboard Layer 1 (Fail)
//Storyboard Layer 2 (Pass)
//Storyboard Layer 3 (Foreground)
//Storyboard Sound Samples

[TimingPoints]
3721,461.538461538462,4,2,0,20,1,0
22182,-100,4,2,0,35,0,0
40874,-100,4,2,0,30,0,0
41105,-100,4,2,0,25,0,0
41567,-100,4,2,0,20,0,0
42028,-100,4,2,0,15,0,0
42490,-100,4,2,0,10,0,0
42951,-100,4,2,0,5,0,0

[Colours]
Combo1 : 0,0,255
Combo2 : 0,128,0
Combo3 : 53,154,255
Combo4 : 128,255,0

[HitObjects]
175,192,3721,6,0,P|76:156|127:64,1,240,4|0,0:0|0:0,0:0:0:0:
240,192,4644,1,2,0:0:0:0:
88,192,5105,2,0,L|184:192,1,80,2|0,0:0|0:0,0:0:0:0:
376,192,5567,6,0,P|472:96|408:48,1,240,4|0,0:0|0:0,0:0:0:0:
176,192,6951,2,0,L|264:192,1,80,2|0,0:0|0:0,0:0:0:0:
48,192,7413,6,0,P|32:152|168:72,1,240,4|0,0:0|0:0,0:0:0:0:
56,192,8336,1,2,0:0:0:0:
224,192,8797,2,0,L|136:192,1,80,2|0,0:0|0:0,0:0:0:0:
352,192,9259,6,0,L|112:192,2,240,4|4|4,0:0|0:0|0:0,0:0:0:0:
24,192,11105,6,0,L|120:192,2,80,4|0|0,0:0|0:0|0:0,0:0:0:0:
136,192,11797,1,0,0:0:0:0:
272,192,12028,2,0,L|184:192,1,80,2|0,0:0|0:0,0:0:0:0:
328,192,12490,2,0,L|424:192,1,80,2|0,0:0|0:0,0:0:0:0:
200,192,12951,6,0,L|104:192,2,80,4|0|0,0:0|0:0|0:0,0:0:0:0:
320,192,13644,2,0,L|408:192,2,80,0|0|0,0:0|0:0|0:0,0:0:0:0:
456,192,14336,2,0,L|368:192,1,80,2|0,0:0|0:0,0:0:0:0:
160,192,14797,6,0,L|248:192,2,80,4|0|0,0:0|0:0|0:0,0:0:0:0:
72,192,15490,1,0,0:0:0:0:
176,192,15721,2,0,L|96:192,1,80,2|0,0:0|0:0,0:0:0:0:
208,192,16182,2,0,L|128:192,1,80,2|0,0:0|0:0,0:0:0:0:
360,192,16644,6,0,P|393:158|392:120,1,80,4|0,0:0|0:0,0:0:0:0:
168,192,17105,2,0,P|134:158|136:120,1,80,4|0,0:0|0:0,0:0:0:0:
360,192,17567,2,0,L|456:192,1,80,4|0,0:0|0:0,0:0:0:0:
216,192,18028,2,0,L|120:192,1,80,4|0,0:0|0:0,0:0:0:0:
448,192,18490,5,12,0:0:0:0:
352,192,18721,1,0,0:0:0:0:
256,192,18951,1,0,0:0:0:0:
160,192,19182,1,0,0:0:0:0:
392,192,19413,1,2,0:0:0:0:
488,192,19644,1,0,0:0:0:0:
392,192,19874,1,0,0:0:0:0:
296,192,20105,1,0,0:0:0:0:
64,192,20336,6,0,L|152:192,3,80,2|0|0|0,0:0|0:0|0:0|0:0,0:0:0:0:
352,192,21259,2,0,L|256:192,1,80,2|0,0:0|0:0,0:0:0:0:
384,192,21721,2,0,L|480:192,1,80,0|0,0:0|0:0,0:0:0:0:
152,192,22182,6,0,L|40:192,2,80,8|0|0,0:0|0:0|0:0,0:0:0:0:
392,192,22874,2,0,L|504:192,2,80,8|0|0,0:0|0:0|0:0,0:0:0:0:
152,192,23567,2,0,L|232:192,1,80,8|0,0:0|0:0,0:0:0:0:
120,192,24028,6,0,L|216:192,1,80,2|0,0:0|0:0,0:0:0:0:
312,192,24490,2,0,L|224:192,1,80,0|0,0:0|0:0,0:0:0:0:
344,192,24951,2,0,L|424:192,1,80,2|0,0:0|0:0,0:0:0:0:
296,192,25413,1,8,0:0:0:0:
96,192,25644,1,8,0:0:0:0:
400,192,25874,6,0,L|480:192,1,80,12|0,0:0|0:0,0:0:0:0:
256,192,26336,2,0,L|176:192,1,80,8|0,0:0|0:0,0:0:0:0:
288,192,26797,2,0,L|184:192,1,80,0|0,0:0|0:0,0:0:0:0:
96,192,27259,2,0,L|184:192,1,80,0|0,0:0|0:0,0:0:0:0:
408,192,27721,6,0,L|496:192,2,80,2|0|0,0:0|0:0|0:0,0:0:0:0:
312,192,28413,1,0,0:0:0:0:
216,192,28644,1,2,0:0:0:0:
312,192,28874,1,0,0:0:0:0:
184,192,29105,2,0,L|88:192,1,80,0|0,0:0|0:0,0:0:0:0:
328,192,29567,6,0,L|232:192,2,80,10|0|8,0:0|0:0|0:0,0:0:0:0:
112,192,30259,2,0,L|208:192,2,80,8|0|0,0:0|0:0|0:0,0:0:0:0:
336,192,30951,2,0,L|424:192,1,80,8|0,0:0|0:0,0:0:0:0:
200,192,31413,6,0,B|80:192|80:192|120:192,1,160,2|0,0:0|0:0,0:0:0:0:
344,192,32105,2,0,B|464:192|464:192|424:192,1,160,2|0,0:0|0:0,0:0:0:0:
184,192,32797,2,0,L|80:192,1,80,2|0,0:0|0:0,0:0:0:0:
416,192,33259,5,14,0:0:0:0:
256,192,33721,1,0,0:0:0:0:
368,192,33951,1,8,0:0:0:0:
184,192,34413,1,0,0:0:0:0:
400,192,34644,2,0,L|496:192,1,80,10|0,0:0|0:0,0:0:0:0:
264,192,35105,5,6,0:0:0:0:
64,192,35567,2,0,L|176:192,1,80,0|0,0:0|0:0,0:0:0:0:
360,192,36028,1,2,0:0:0:0:
16,192,36490,2,0,L|104:192,1,80,2|0,0:0|0:0,0:0:0:0:
400,192,36951,6,0,L|312:192,1,80,14|0,0:0|0:0,0:0:0:0:
232,192,37413,1,8,0:0:0:0:
448,192,37644,2,0,L|360:192,2,80,8|0|0,0:0|0:0|0:0,0:0:0:0:
336,192,38336,2,0,L|416:192,1,80,10|0,0:0|0:0,0:0:0:0:
112,192,38797,6,0,L|8:192,2,80,6|0|0,0:0|0:0|0:0,0:0:0:0:
328,192,39490,2,0,L|240:192,2,80,2|0|0,0:0|0:0|0:0,0:0:0:0:
112,192,40182,2,0,L|32:192,1,80,2|0,0:0|0:0,0:0:0:0:
384,192,40644,5,4,0:0:0:0:
256,192,40874,12,0,42951,0:0:0:0:
