osu file format v14

[General]
AudioFilename: audio.mp3
AudioLeadIn: 0
PreviewTime: 71884
Countdown: 0
SampleSet: Soft
StackLeniency: 0.7
Mode: 0
LetterboxInBreaks: 0
WidescreenStoryboard: 1

[Editor]
Bookmarks: 11978,23978,35978,47978,59978,71978,83978,95978,107978,119978,131978,143978,155978,167603
DistanceSpacing: 0.6
BeatDivisor: 4
GridSize: 4
TimelineZoom: 2.1

[Metadata]
Title:We Could Quest Together
TitleUnicode:We Could Quest Together
Artist:Ben Briggs
ArtistUnicode:Ben Briggs
Creator:Mao
Version:Cowboy in Outer Space
Source:
Tags:fearless living mpg mappers' guild fa feature artist venix pandahero instrumental electronic
BeatmapID:1885883
BeatmapSetID:903393

[Difficulty]
HPDrainRate:6
CircleSize:4.8
OverallDifficulty:8
ApproachRate:9
SliderMultiplier:2
SliderTickRate:0.5

[Events]
//Background and Video events
0,0,"bg.jpg",0,0
//Break Periods
//Storyboard Layer 0 (Background)
//Storyboard Layer 1 (Fail)
//Storyboard Layer 2 (Pass)
//Storyboard Layer 3 (Foreground)
//Storyboard Layer 4 (Overlay)
//Storyboard Sound Samples

[TimingPoints]
-22,375,4,2,0,50,1,0
16290,-200,4,2,0,50,0,0
17040,-100,4,2,0,50,0,0
47978,-66.6666666666667,4,2,1,60,0,0
49853,-66.6666666666667,4,2,1,30,0,0
50978,-66.6666666666667,4,2,1,60,0,0
52853,-66.6666666666667,4,2,1,30,0,0
53603,-66.6666666666667,4,2,1,45,0,0
53978,-66.6666666666667,4,2,1,60,0,0
55290,-100,4,2,1,60,0,0
56134,-100,4,2,1,45,0,0
56603,-100,4,2,1,45,0,0
56978,-66.6666666666667,4,2,1,60,0,0
59978,-66.6666666666667,4,2,1,70,0,0
61290,-100,4,2,1,70,0,0
61478,-100,4,2,1,30,0,0
61665,-100,4,2,1,70,0,0
62134,-66.6666666666667,4,2,1,70,0,0
62790,-57.1428571428571,4,2,1,70,0,0
64290,-100,4,2,1,70,0,0
64478,-100,4,2,1,30,0,0
64665,-100,4,2,1,70,0,0
65603,-66.6666666666667,4,2,1,70,0,0
65790,-57.1428571428571,4,2,1,70,0,0
67290,-100,4,2,1,70,0,0
67478,-100,4,2,1,70,0,0
67665,-100,4,2,1,40,0,0
68603,-66.6666666666667,4,2,1,70,0,0
68790,-57.1428571428571,4,2,1,70,0,0
70290,-100,4,2,1,70,0,0
71978,-100,4,1,1,80,0,0
82478,-100,4,1,1,80,0,0
82853,-66.6666666666667,4,1,1,80,0,0
83228,-100,4,1,1,80,0,0
83603,-66.6666666666667,4,1,1,80,0,0
83978,-66.6666666666667,4,2,1,80,0,0
84540,-66.6666666666667,4,1,0,80,0,0
84634,-66.6666666666667,4,2,1,80,0,0
84915,-40,4,2,1,80,0,0
85009,-40,4,2,1,20,0,0
85290,-40,4,2,1,80,0,0
85384,-40,4,2,1,20,0,0
85665,-40,4,2,1,80,0,0
85759,-40,4,2,1,20,0,0
85853,-40,4,1,0,80,0,0
86040,-40,4,2,1,80,0,0
86228,-100,4,2,1,80,0,0
87540,-100,4,1,0,80,0,0
87634,-100,4,2,1,80,0,0
87915,-40,4,2,1,80,0,0
88009,-40,4,2,1,20,0,0
88290,-40,4,2,1,80,0,0
88384,-40,4,2,1,20,0,0
88665,-40,4,2,1,80,0,0
88759,-40,4,2,1,20,0,0
88853,-40,4,1,0,80,0,0
89040,-40,4,2,1,80,0,0
89603,-66.6666666666667,4,2,1,80,0,0
90353,-40,4,2,1,80,0,0
90540,-40,4,1,0,80,0,0
90634,-40,4,2,1,80,0,0
91290,-100,4,2,1,80,0,0
91665,-66.6666666666667,4,2,1,80,0,0
93540,-66.6666666666667,4,1,0,80,0,0
93728,-66.6666666666667,4,2,1,80,0,0
93915,-40,4,2,1,80,0,0
94478,-66.6666666666667,4,2,1,80,0,0
95040,-66.6666666666667,4,1,0,80,0,0
95228,-66.6666666666667,4,2,1,50,0,0
95790,-66.6666666666667,4,2,1,80,0,0
96540,-66.6666666666667,4,1,0,80,0,0
96728,-66.6666666666667,4,2,1,80,0,0
96915,-40,4,2,1,80,0,0
97853,-40,4,1,0,80,0,0
98040,-40,4,2,1,80,0,0
98228,-100,4,2,1,80,0,0
99353,-100,4,2,0,80,0,0
100103,-80,4,2,0,80,0,0
100478,-80,4,2,1,80,0,0
101603,-66.6666666666667,4,2,1,80,0,0
101978,-100,4,2,1,80,0,0
102540,-100,4,2,0,80,0,0
102728,-83.3333333333333,4,2,1,80,0,0
103478,-71.4285714285714,4,2,1,80,0,0
103946,-71.4285714285714,4,1,0,80,0,0
104228,-62.5,4,2,1,80,0,0
104978,-58.8235294117647,4,2,1,80,0,0
105728,-55.5555555555556,4,2,1,80,0,0
106478,-66.6666666666667,4,2,1,80,0,0
107228,-52.6315789473684,4,2,1,80,0,0
107978,-50,4,2,1,90,0,0
108540,-50,4,1,0,90,0,0
108728,-33.3333333333333,4,2,1,90,0,0
109103,-100,4,2,1,60,0,0
109853,-100,4,1,0,60,0,0
110040,-100,4,2,1,60,0,0
110228,-33.3333333333333,4,2,1,90,0,0
110603,-100,4,2,1,60,0,0
110978,-50,4,2,1,90,0,0
111540,-50,4,1,0,90,0,0
111728,-33.3333333333333,4,2,1,90,0,0
112103,-33.3333333333333,4,2,1,60,0,0
112853,-33.3333333333333,4,1,0,60,0,0
113040,-33.3333333333333,4,2,1,60,0,0
113228,-33.3333333333333,4,2,1,90,0,0
113603,-100,4,2,1,60,0,0
113978,-50,4,2,1,90,0,0
114540,-50,4,1,0,90,0,0
114728,-33.3333333333333,4,2,1,90,0,0
115103,-33.3333333333333,4,2,1,60,0,0
115290,-33.3333333333333,4,2,1,90,0,0
116228,-40,4,2,1,90,0,0
116603,-100,4,2,1,60,0,0
116978,-50,4,2,1,90,0,0
117540,-50,4,1,0,90,0,0
117728,-33.3333333333333,4,2,1,90,0,0
118103,-33.3333333333333,4,1,0,60,0,0
118290,-33.3333333333333,4,2,1,90,0,0
119040,-33.3333333333333,4,1,0,90,0,0
119134,-33.3333333333333,4,2,1,90,0,0
119978,-44.4444444444445,4,2,1,90,0,0
120728,-28.5714285714286,4,1,0,80,0,0
121103,-66.6666666666667,4,2,1,60,0,0
121853,-66.6666666666667,4,1,0,60,0,0
122040,-66.6666666666667,4,2,1,60,0,0
122228,-28.5714285714286,4,1,0,80,0,0
122603,-66.6666666666667,4,2,1,60,0,0
122978,-44.4444444444445,4,2,1,90,0,0
123728,-28.5714285714286,4,1,0,80,0,0
124103,-66.6666666666667,4,2,1,60,0,0
124853,-66.6666666666667,4,1,0,60,0,0
125040,-66.6666666666667,4,2,1,60,0,0
125228,-28.5714285714286,4,1,0,80,0,0
125603,-66.6666666666667,4,2,1,60,0,0
125790,-66.6666666666667,4,1,0,60,0,0
125978,-44.4444444444445,4,2,1,90,0,0
126728,-28.5714285714286,4,1,0,80,0,0
126821,-28.5714285714286,4,2,1,60,0,0
127290,-28.5714285714286,4,2,1,90,0,0
128228,-50,4,1,0,80,0,0
128603,-66.6666666666667,4,2,1,60,0,0
128978,-44.4444444444445,4,2,1,90,0,0
129728,-28.5714285714286,4,1,0,80,0,0
129821,-28.5714285714286,4,2,1,60,0,0
130290,-28.5714285714286,4,2,1,90,0,0
131228,-28.5714285714286,4,1,0,90,0,0
131321,-28.5714285714286,4,2,1,90,0,0
131603,-28.5714285714286,4,1,0,90,0,0
131696,-28.5714285714286,4,2,1,90,0,0
131978,-40,4,2,1,90,0,0
132728,-25,4,1,0,80,0,0
132821,-25,4,2,1,90,0,0
133103,-66.6666666666667,4,2,1,60,0,0
134228,-25,4,1,0,80,0,0
134321,-66.6666666666667,4,2,1,90,0,0
134603,-66.6666666666667,4,2,1,60,0,0
134978,-40,4,2,1,90,0,0
135728,-25,4,1,0,90,0,0
135821,-66.6666666666667,4,2,1,60,0,0
137228,-25,4,1,0,80,0,0
137321,-25,4,2,1,90,0,0
137603,-66.6666666666667,4,2,1,60,0,0
137978,-40,4,2,1,90,0,0
138728,-25,4,1,0,90,0,0
138821,-25,4,2,1,60,0,0
139290,-25,4,2,1,90,0,0
140134,-40,4,2,1,90,0,0
140228,-40,4,1,0,80,0,0
140603,-66.6666666666667,4,2,1,90,0,0
140978,-40,4,2,1,90,0,0
141728,-25,4,1,0,80,0,0
141821,-25,4,2,1,60,0,0
142290,-25,4,2,1,90,0,0
142478,-50,4,2,1,90,0,0
142665,-25,4,2,1,90,0,0
143040,-25,4,1,0,80,0,0
143415,-66.6666666666667,4,2,1,90,0,0
143978,-25,4,2,1,90,0,0
144165,-25,4,2,1,60,0,0
145290,-25,4,2,1,30,0,0
146228,-25,4,2,1,60,0,0
148290,-25,4,2,1,30,0,0
149228,-25,4,2,1,60,0,0
149321,-25,4,2,1,40,0,0
149978,-25,4,2,1,60,0,0
151290,-25,4,2,1,30,0,0
152228,-25,4,2,1,60,0,0
154290,-25,4,2,1,30,0,0
155228,-25,4,2,1,60,0,0
155415,-25,4,2,1,40,0,0
155978,-25,4,2,1,60,0,0
157290,-25,4,2,1,30,0,0
158228,-25,4,2,1,60,0,0
160290,-25,4,2,1,30,0,0
161228,-25,4,2,1,60,0,0
161415,-25,4,2,1,30,0,0
161978,-25,4,2,1,60,0,0
163290,-25,4,2,1,30,0,0
164040,-25,4,2,1,60,0,0
166290,-25,4,2,1,30,0,0
166853,-50,4,2,1,40,0,0
167228,-1000,4,2,1,20,0,0
167603,-1000,4,2,1,5,0,0

[Colours]
Combo1 : 106,101,131
Combo2 : 254,103,95
Combo3 : 252,250,214
Combo4 : 255,66,99

[HitObjects]
34,33,11978,6,0,B|58:76|118:85|114:35|180:47|205:100,1,200,4|2,0:0|3:0,0:0:0:0:
266,35,12540,1,2,0:0:0:0:
209,112,12728,1,0,0:0:0:0:
252,201,12915,2,0,P|270:177|294:101,1,100,2|0,3:2|0:0,0:0:0:0:
411,24,13290,6,0,P|397:89|407:237,1,200,10|2,3:2|0:0,0:0:0:0:
403,221,13853,1,2,3:0:0:0:
422,365,14040,2,0,P|431:299|491:163,1,200,2|2,3:0|0:0,0:0:0:0:
460,292,14603,1,2,3:0:0:0:
360,287,14790,1,0,0:0:0:0:
291,359,14978,6,2,B|252:312|256:244|300:256|328:136|243:85,1,300,4|0,0:0|0:0,0:0:0:0:
243,85,15915,1,2,3:0:0:0:
161,152,16103,1,2,0:0:0:0:
68,27,16290,6,2,P|89:84|131:233,1,200,6|0,0:0|0:0,0:0:0:0:
143,226,17134,1,0,0:0:0:0:
116,207,17228,1,2,3:0:0:0:
114,301,17415,1,2,0:0:0:0:
14,231,17603,2,0,P|19:314|53:362,1,100,2|0,0:0|0:0,0:0:0:0:
170,372,17978,5,4,0:0:0:0:
218,284,18165,1,0,3:0:0:0:
312,250,18353,1,2,3:0:0:0:
301,366,18540,2,0,P|289:306|308:249,1,100,2|0,0:0|0:0,0:0:0:0:
382,190,18915,1,0,3:0:0:0:
389,205,19009,1,0,3:0:0:0:
397,218,19103,1,0,3:0:0:0:
473,336,19290,6,0,P|416:312|371:316,1,100,6|0,0:0|0:0,0:0:0:0:
490,236,19665,1,2,3:2:0:0:
457,141,19853,1,2,3:0:0:0:
487,46,20040,2,0,P|496:87|474:152,1,100,2|0,0:0|0:0,0:0:0:0:
378,106,20415,2,0,P|369:65|391:0,1,100,2|0,0:0|0:0,0:0:0:0:
340,200,20790,6,2,P|337:142|225:41,1,200,4|0,0:0|0:0,0:0:0:0:
147,36,21353,1,2,0:3:0:0:
243,149,21540,2,0,P|186:159|129:129,1,100,2|0,0:0|3:0,0:0:0:0:
64,89,21915,1,2,0:0:0:0:
64,89,22290,6,2,P|103:146|143:284,1,200,6|0,3:2|3:0,0:0:0:0:
56,361,22853,1,2,0:0:0:0:
134,298,23040,1,0,3:0:0:0:
182,286,23134,1,0,3:0:0:0:
230,296,23228,1,14,3:2:0:0:
292,373,23415,1,2,0:0:0:0:
358,288,23603,1,2,3:0:0:0:
460,305,23790,2,0,P|469:342|461:370,1,50,2|0,0:3|0:0,0:0:0:0:
366,303,23978,6,2,P|403:249|404:178,1,100,6|0,0:0|3:0,0:0:0:0:
390,132,24353,1,2,3:0:0:0:
492,200,24540,2,2,B|432:216|364:180|380:96|308:56|239:89,1,300
448,24,25290,2,0,P|432:60|420:100,2,50,0|0|0,3:0|3:0|3:0,3:0:0:0:
305,199,25665,5,2,0:0:0:0:
332,110,25853,1,2,3:0:0:0:
225,235,26040,5,0,0:0:0:0:
155,177,26228,1,2,0:0:0:0:
147,87,26415,1,0,0:0:0:0:
189,7,26603,2,0,P|178:58|180:114,1,100,2|0,3:0|0:0,0:0:0:0:
3,72,26978,6,0,P|61:117|76:174,1,100,4|0,0:0|0:0,0:0:0:0:
79,16,27353,2,0,P|79:48|70:77,1,50,2|0,3:0|0:0,0:0:0:0:
4,168,27540,2,2,B|64:152|132:188|116:272|188:312|257:279,1,300,2|0,0:0|0:0,0:0:0:0:
100,245,28290,2,0,P|66:264|46:293,2,50
186,378,28665,5,0,3:0:0:0:
165,294,28853,1,2,0:0:0:0:
269,290,29040,5,2,0:0:0:0:
302,206,29228,1,2,3:0:0:0:
305,116,29415,1,2,0:0:0:0:
274,31,29603,2,2,P|288:81|297:140,1,100,8|0,3:2|0:0,0:0:0:0:
490,105,29978,6,2,P|438:127|385:117,1,100,4|0,0:0|0:0,0:0:0:0:
443,3,30353,2,0,P|438:45|417:61,1,50,2|0,3:0|0:0,0:0:0:0:
434,206,30540,2,2,B|374:225|303:194|313:109|239:74|173:112,1,300,2|0,0:0|0:0,0:0:0:0:
281,236,31290,2,0,P|303:204|310:169,2,50,0|0|0,3:0|3:0|3:0,3:0:0:0:
99,79,31665,5,0,0:0:0:0:
111,161,31853,1,2,0:0:0:0:
24,33,32040,5,0,0:0:0:0:
93,89,32228,1,2,0:0:0:0:
118,175,32415,1,0,0:0:0:0:
88,260,32603,1,2,3:0:0:0:
35,206,32790,1,0,0:0:0:0:
60,352,32978,6,2,B|180:392|252:252|200:256|215:125|324:108,1,400,4|0,0:0|3:0,0:0:0:0:
319,108,33915,1,2,0:0:0:0:
483,60,34103,5,2,0:0:0:0:
459,34,34196,1,0,3:0:0:0:
425,22,34290,2,0,P|407:84|408:150,1,100,4|0,0:0|0:0,0:0:0:0:
501,240,34665,5,2,0:0:0:0:
422,204,34853,1,0,0:0:0:0:
427,296,35040,2,0,P|469:264|495:220,1,100,2|2,0:0|3:0,0:0:0:0:
499,201,35321,1,0,3:0:0:0:
500,179,35415,1,2,0:0:0:0:
363,150,35603,1,2,0:0:0:0:
314,269,35790,6,2,B|362:223|332:136|276:167|269:39|354:3,1,300,4|2,0:0|3:0,0:0:0:0:
270,91,36540,1,0,3:0:0:0:
243,63,36634,1,0,3:0:0:0:
207,48,36728,1,0,3:0:0:0:
190,158,36915,2,2,P|172:98|185:44,1,100,2|0,3:0|0:0,0:0:0:0:
60,38,37290,2,0,P|116:98|130:235,1,200,2|0,3:2|0:0,0:0:0:0:
19,221,37853,5,10,3:2:0:0:
19,221,38040,2,0,P|2:150|29:106,1,100,2|0,0:0|0:0,0:0:0:0:
54,316,38478,5,2,0:1:0:0:
213,271,38790,5,2,0:1:0:0:
355,365,39071,5,2,0:0:0:0:
355,365,39165,2,2,B|332:301|417:233|381:167,1,200,2|2,0:1|3:0,0:0:0:0:
383,172,39915,2,0,P|432:180|487:246,1,100,2|0,3:0|0:0,0:0:0:0:
490,56,40290,2,0,P|481:104|449:142,2,100,2|2|0,3:0|0:0|0:0,0:0:0:0:
368,10,40853,5,0,0:0:0:0:
338,35,40946,1,0,3:0:0:0:
330,71,41040,1,2,0:1:0:0:
224,72,41228,1,2,3:0:0:0:
289,133,41415,1,2,0:1:0:0:
302,222,41603,1,2,0:0:0:0:
302,222,41790,1,2,0:0:0:0:
143,359,41978,6,2,B|131:291|226:239|202:168,2,200,6|2|0,0:0|3:0|3:0,0:0:0:0:
12,192,42978,5,2,0:1:0:0:
168,240,43290,1,2,3:0:0:0:
72,124,43478,5,2,0:1:0:0:
52,324,43759,1,2,0:0:0:0:
161,154,44040,1,2,0:0:0:0:
101,33,44228,5,2,0:1:0:0:
92,210,44509,1,2,0:0:0:0:
185,55,44790,1,2,0:0:0:0:
244,164,44978,5,4,0:0:0:0:
298,104,45165,1,2,0:0:0:0:
389,72,45353,1,0,0:0:0:0:
498,99,45540,5,2,0:1:0:0:
498,99,45915,1,2,3:0:0:0:
498,99,46290,2,0,P|447:132|431:167,1,100,6|0,0:0|0:0,0:0:0:0:
507,347,46665,5,2,0:0:0:0:
428,270,46853,1,0,0:0:0:0:
406,160,47040,2,0,P|415:221|404:270,1,100,2|0,0:1|0:0,0:0:0:0:
324,364,47415,5,2,3:0:0:0:
324,320,47509,1,2,3:0:0:0:
324,276,47603,1,2,3:0:0:0:
324,188,47790,1,2,0:1:0:0:
235,273,47978,6,2,B|181:286|181:286|128:264|128:264|95:216|95:216|97:161,1,225.000008583069,4|0,3:1|0:0,0:3:0:0:
100,136,48353,1,2,3:1:0:0:
66,237,48540,1,2,0:0:0:0:
43,93,48728,1,2,3:1:0:0:
132,287,48915,1,2,0:1:0:0:
132,287,49290,1,2,0:0:0:0:
132,287,49665,1,2,0:0:0:0:
212,135,49853,5,0,3:0:0:0:
217,154,49946,1,0,3:0:0:0:
294,21,50134,1,2,0:0:0:0:
298,42,50228,1,2,0:1:0:0:
296,119,50415,1,0,0:0:0:0:
417,82,50603,1,2,3:0:0:0:
370,20,50790,1,2,0:3:0:0:
504,266,50978,6,0,B|450:279|450:279|397:257|397:257|364:209|364:209|366:154,1,225.000008583069,6|0,3:1|0:0,0:0:0:0:
369,135,51353,1,2,3:1:0:0:
444,189,51540,1,2,0:0:0:0:
320,272,51728,1,2,3:1:0:0:
483,348,51915,1,2,0:1:0:0:
483,348,52290,1,2,3:2:0:0:
483,348,52665,1,2,0:0:0:0:
336,375,52853,5,0,3:0:0:0:
346,356,52946,1,0,3:0:0:0:
235,331,53134,1,2,0:0:0:0:
230,306,53228,1,2,0:1:0:0:
112,373,53415,1,2,0:1:0:0:
81,210,53603,1,2,3:0:0:0:
154,309,53790,1,2,0:3:0:0:
16,272,53978,6,0,B|65:294|65:294|121:282|121:282|162:240|162:240|169:186,1,225.000008583069,6|0,3:1|0:0,0:0:0:0:
173,162,54353,1,2,3:1:0:0:
89,122,54540,1,2,0:0:0:0:
223,68,54728,1,2,3:1:0:0:
57,15,54915,1,2,0:1:0:0:
57,15,55290,6,0,P|101:13|151:36,1,100,2|0,0:1|3:0,0:0:0:0:
254,137,55665,1,2,0:1:0:0:
254,137,55853,1,2,3:2:0:0:
456,21,56134,1,0,0:0:0:0:
413,45,56227,1,2,3:1:0:0:
363,46,56321,1,0,0:0:0:0:
319,24,56415,1,0,0:0:0:0:
470,39,56603,6,0,B|454:57|454:57|446:81,1,50,2|0,3:0|0:0,0:0:0:0:
454,153,56790,2,0,B|469:177|469:177|502:200,1,50,2|0,3:0|0:0,0:0:0:0:
418,311,56978,6,2,B|367:290|367:290|337:241|337:241|339:183|339:183|372:140,1,225.000008583069,6|0,3:1|0:0,0:3:0:0:
387,127,57353,1,2,3:1:0:0:
311,172,57540,1,2,0:0:0:0:
416,220,57728,1,2,3:1:0:0:
318,346,57915,1,2,0:1:0:0:
218,232,58103,1,2,3:0:0:0:
222,265,58196,1,0,3:0:0:0:
246,293,58290,1,2,0:1:0:0:
246,293,58665,1,2,0:1:0:0:
34,358,59040,5,2,0:1:0:0:
59,308,59134,1,0,3:0:0:0:
114,292,59228,1,2,3:0:0:0:
117,373,59415,1,2,0:0:0:0:
174,229,59603,1,2,3:0:0:0:
139,129,59790,1,2,3:0:0:0:
43,81,59978,5,6,3:1:0:0:
131,119,60165,1,0,1:0:0:0:
29,162,60353,5,2,3:1:0:0:
110,50,60540,1,0,3:0:0:0:
211,160,60728,1,2,3:0:0:0:
313,13,60915,1,2,0:1:0:0:
300,142,61103,5,2,0:1:0:0:
256,107,61196,1,0,3:0:0:0:
240,53,61290,2,0,P|271:91|331:114,1,100,2|4,3:0|3:2,0:0:0:0:
503,23,61665,1,2,0:1:0:0:
498,311,62040,1,2,0:1:0:0:
498,311,62134,6,2,B|463:296|463:296|443:263|443:263|444:224|444:224|466:195,1,150.000005722046,2|0,3:1|0:0,0:1:0:0:
483,182,62415,1,0,0:0:0:0:
422,12,62603,6,2,B|419:43|419:43|431:62|431:62|430:91,1,75.0000028610231,2|0,1:3|0:0,0:3:0:0:
329,85,62790,2,2,B|337:118|337:118|357:134|357:134|367:165,1,87.500000834465,2|0,3:0|0:0,0:3:0:0:
310,317,62978,5,0,3:0:0:0:
294,238,63165,1,0,1:0:0:0:
321,328,63353,5,2,1:0:0:0:
236,296,63540,1,2,3:0:0:0:
142,375,63728,1,2,3:1:0:0:
58,231,63915,1,2,0:1:0:0:
24,355,64103,5,0,0:0:0:0:
54,318,64196,1,0,3:0:0:0:
98,301,64290,2,0,P|52:346|28:405,1,100,2|4,3:0|0:0,0:0:0:0:
203,270,64665,1,2,0:1:0:0:
203,270,64853,1,2,0:3:0:0:
165,234,64946,1,0,3:0:0:0:
148,184,65040,1,2,3:1:0:0:
177,98,65228,5,2,0:1:0:0:
141,172,65415,1,2,3:0:0:0:
29,56,65603,6,2,B|57:58|57:58|74:47|74:47|101:48,1,75.0000028610231,2|0,1:3|0:0,0:3:0:0:
232,164,65790,2,2,B|257:142|257:142|263:119|263:119|285:98,1,87.500000834465,2|0,3:0|0:0,0:1:0:0:
450,21,65978,5,0,3:0:0:0:
423,100,66165,1,0,1:0:0:0:
439,7,66353,5,2,3:1:0:0:
501,114,66540,1,2,0:3:0:0:
364,172,66728,1,2,0:1:0:0:
470,330,66915,1,2,0:1:0:0:
456,180,67103,5,0,3:0:0:0:
436,226,67196,1,0,3:0:0:0:
398,258,67290,2,0,P|460:234|491:186,1,100,2|4,3:1|0:0,0:0:0:0:
290,224,67665,1,2,0:1:0:0:
342,367,67853,1,0,0:0:0:0:
338,342,67946,1,2,0:3:0:0:
202,263,68134,1,2,3:0:0:0:
198,288,68227,1,2,0:1:0:0:
246,378,68415,1,2,0:3:0:0:
422,305,68603,6,2,B|398:294|398:294|387:276|387:276|361:267,1,75.0000028610231,2|0,1:3|0:0,0:3:0:0:
219,186,68790,2,2,B|194:174|194:174|180:153|180:153|148:141,1,87.500000834465,2|0,3:0|0:0,0:3:0:0:
443,88,68978,5,0,3:0:0:0:
342,101,69165,1,0,1:0:0:0:
451,99,69353,5,2,3:1:0:0:
328,178,69540,1,2,0:0:0:0:
455,244,69728,1,2,3:0:0:0:
316,354,69915,1,2,0:1:0:0:
202,304,70103,5,0,3:0:0:0:
234,265,70196,1,0,3:0:0:0:
286,258,70290,2,2,P|228:250|148:310,1,150,2|0,0:1|0:0,0:1:0:0:
93,341,70665,2,0,P|88:281|113:238,1,100,2|0,0:1|0:0,0:0:0:0:
208,121,71040,5,2,0:1:0:0:
208,121,71134,1,0,0:0:0:0:
208,121,71228,2,0,L|225:65,3,50,2|0|0|0,1:0|1:0|1:0|1:0,1:0:0:0:
127,75,71603,2,0,L|134:21,3,50,2|0|0|0,1:0|1:0|1:0|1:0,1:0:0:0:
48,36,71978,5,6,0:0:0:0:
84,64,72071,1,0,0:0:0:0:
84,108,72165,1,0,0:0:0:0:
44,132,72259,1,0,0:0:0:0:
16,184,72353,1,2,0:0:0:0:
32,232,72446,1,0,0:0:0:0:
84,232,72540,1,2,0:0:0:0:
108,184,72634,1,0,0:0:0:0:
176,208,72728,5,12,0:2:0:0:
216,186,72821,1,0,0:0:0:0:
223,143,72915,1,2,0:0:0:0:
188,112,73009,1,0,0:0:0:0:
162,61,73103,1,2,0:3:0:0:
180,10,73196,1,0,0:0:0:0:
234,1,73290,1,2,0:0:0:0:
269,40,73384,1,0,0:0:0:0:
324,24,73478,5,4,0:0:0:0:
340,68,73571,1,0,0:0:0:0:
384,60,73665,1,2,0:0:0:0:
400,104,73758,1,0,0:0:0:0:
452,104,73853,1,2,0:3:0:0:
448,156,73946,1,2,0:3:0:0:
492,184,74040,1,0,3:0:0:0:
476,236,74134,1,0,0:0:0:0:
496,304,74228,5,12,0:2:0:0:
453,316,74321,1,0,0:0:0:0:
418,346,74415,1,0,0:0:0:0:
374,344,74509,1,0,0:0:0:0:
336,376,74603,2,0,B|333:349|333:349|348:308,1,50,2|2,0:0|0:0,0:0:0:0:
290,257,74790,2,0,B|300:234|300:234|297:192,1,50,2|0,3:0|0:0,0:0:0:0:
328,128,74978,5,6,0:0:0:0:
300,92,75071,1,0,0:0:0:0:
256,88,75165,1,0,0:0:0:0:
232,124,75259,1,0,0:0:0:0:
188,96,75353,1,2,0:0:0:0:
160,140,75446,1,0,0:0:0:0:
108,140,75540,1,2,0:0:0:0:
80,96,75634,1,0,0:0:0:0:
40,40,75728,5,2,0:0:0:0:
8,72,75821,1,0,0:0:0:0:
8,116,75915,1,2,0:0:0:0:
36,152,76009,1,0,0:0:0:0:
4,196,76103,1,2,0:3:0:0:
36,236,76196,1,0,0:0:0:0:
36,288,76290,1,2,0:0:0:0:
0,328,76384,1,0,0:0:0:0:
56,368,76478,5,6,0:0:0:0:
88,340,76571,1,0,0:0:0:0:
132,340,76665,1,2,0:0:0:0:
164,372,76759,1,0,0:0:0:0:
208,344,76853,1,2,0:3:0:0:
224,296,76946,1,2,0:3:0:0:
180,268,77040,1,0,3:0:0:0:
168,216,77134,1,0,0:0:0:0:
156,143,77228,5,12,0:2:0:0:
199,133,77321,1,0,0:0:0:0:
227,167,77415,1,0,0:0:0:0:
270,177,77509,1,0,0:0:0:0:
306,150,77603,2,0,B|307:177|307:177|325:204,1,50,2|0,0:0|0:0,0:0:0:0:
290,267,77790,2,0,B|308:285|308:285|309:321,1,50,2|0,3:0|0:0,0:0:0:0:
364,368,77978,5,6,0:0:0:0:
388,332,78071,1,0,0:0:0:0:
432,332,78165,1,0,0:0:0:0:
456,292,78259,1,0,0:0:0:0:
508,300,78353,1,2,0:0:0:0:
488,252,78446,1,0,0:0:0:0:
504,204,78540,1,2,0:0:0:0:
480,156,78634,1,0,0:0:0:0:
504,92,78728,5,10,0:2:0:0:
496,48,78821,1,0,0:0:0:0:
456,28,78915,1,2,0:0:0:0:
416,52,79009,1,0,0:0:0:0:
408,104,79103,1,2,0:3:0:0:
360,128,79196,1,0,0:0:0:0:
312,108,79290,1,2,0:0:0:0:
300,56,79384,1,0,0:0:0:0:
240,16,79478,5,6,0:0:0:0:
224,60,79571,1,0,0:0:0:0:
240,104,79665,1,2,0:0:0:0:
228,148,79759,1,0,0:0:0:0:
184,176,79853,1,0,0:0:0:0:
156,132,79946,1,2,0:3:0:0:
104,140,80040,1,2,0:3:0:0:
100,192,80134,1,0,0:0:0:0:
152,240,80228,5,12,0:2:0:0:
196,248,80321,1,0,0:0:0:0:
208,292,80415,1,0,0:0:0:0:
248,312,80509,1,0,0:0:0:0:
241,353,80603,2,0,B|217:357|217:357|193:390,1,50,2|0,0:0|0:0,0:0:0:0:
120,363,80790,2,0,B|119:338|119:338|102:311,1,50,2|0,3:0|0:0,0:0:0:0:
33,300,80978,5,6,0:0:0:0:
49,260,81071,1,0,0:0:0:0:
21,224,81165,1,0,0:0:0:0:
49,188,81259,1,0,0:0:0:0:
68,144,81353,1,2,0:0:0:0:
120,156,81446,1,0,0:0:0:0:
164,128,81540,1,2,0:0:0:0:
216,144,81634,1,0,0:0:0:0:
260,200,81728,5,6,0:2:0:0:
300,184,81821,1,0,0:0:0:0:
340,204,81915,1,2,0:0:0:0:
348,248,82009,1,0,0:0:0:0:
328,296,82103,1,2,0:3:0:0:
356,340,82196,1,0,0:0:0:0:
408,340,82290,1,2,3:0:0:0:
440,296,82384,1,0,0:0:0:0:
478,212,82478,6,0,L|407:230,3,50,6|0|0|0,0:0|0:0|0:0|0:0,0:0:0:0:
405,120,82853,6,0,L|330:89,3,75.0000028610231,2|0|2|0,0:0|0:0|0:0|0:0,0:0:0:0:
216,184,83228,6,0,L|166:199,3,50,12|0|2|0,0:2|0:0|0:0|0:0,0:0:0:0:
86,80,83603,6,0,L|3:39,3,75.0000028610231,2|0|0|0,0:3|0:0|3:0|0:0,0:0:0:0:
86,80,83978,6,2,B|71:116|71:116|83:145|83:145|159:182|159:182|171:211|171:211|157:247,1,225.000008583069,6|0,3:1|0:0,0:3:0:0:
132,312,84353,1,2,1:0:0:0:
100,180,84540,1,0,0:1:0:0:
216,336,84728,1,8,0:0:0:0:
174,111,84915,6,2,B|194:102|194:102|210:109|210:109|231:150|231:150|247:157|247:157|267:148,1,125,2|0,0:1|0:0,0:3:0:0:
308,337,85290,2,2,B|329:341|329:341|344:332|344:332|357:287|357:287|372:278|372:278|393:283,1,125,2|0,0:1|0:0,0:3:0:0:
351,40,85665,2,2,B|372:38|372:38|385:50|385:50|391:97|391:97|404:108|404:108|426:107,1,125,2|0,0:1|0:0,0:1:0:0:
456,39,85853,5,0,0:0:0:0:
434,115,85947,1,0,1:0:0:0:
416,191,86040,1,4,3:0:0:0:
504,359,86228,5,8,0:0:0:0:
504,359,86415,2,0,P|466:297|368:292,1,150,2|0,0:0|0:0,0:0:0:0:
378,298,86790,1,0,3:0:0:0:
279,266,86978,2,0,P|301:313|315:365,1,100,2|0,3:0|0:0,0:0:0:0:
203,191,87353,5,2,1:1:0:0:
144,327,87540,1,0,0:0:0:0:
132,138,87728,1,8,0:0:0:0:
208,368,87915,6,2,B|220:350|220:350|218:333|218:333|182:303|182:303|179:285|179:285|192:268,1,125,2|0,0:1|0:0,0:1:0:0:
40,147,88290,2,2,B|55:162|55:162|55:179|55:179|25:215|25:215|26:232|26:232|41:248,1,125,2|0,0:1|0:0,0:1:0:0:
214,107,88665,2,2,B|219:86|219:86|211:70|211:70|167:54|167:54|158:39|158:39|164:18,1,125,2|0,0:1|0:0,0:1:0:0:
241,0,88853,5,0,0:0:0:0:
169,31,88946,1,0,1:0:0:0:
95,60,89040,1,0,3:0:0:0:
257,191,89228,5,8,0:0:0:0:
299,61,89415,1,2,0:0:0:0:
439,138,89603,6,2,B|404:222|404:222|336:250|336:250|148:186|148:186|80:214|80:214|44:297,1,525.000020027161,2|0,1:0|0:0,0:3:0:0:
41,306,90353,6,2,B|61:297|61:297|77:304|77:304|98:345|98:345|114:352|114:352|134:343,1,125,2|0,0:1|0:0,0:1:0:0:
161,209,90540,2,2,B|181:216|181:216|187:233|187:233|173:276|173:276|180:293|180:293|200:300,1,125,2|0,0:0|0:0,2:3:0:0:
314,225,90728,2,2,B|323:245|323:245|316:261|316:261|275:282|275:282|268:298|268:298|277:318,1,125,10|0,0:0|0:0,0:3:0:0:
410,344,90915,2,2,B|402:364|402:364|385:370|385:370|342:356|342:356|325:363|325:363|318:383,1,125,2|0,0:1|0:0,0:3:0:0:
350,99,91290,6,2,B|358:76|358:76|378:68|378:68|432:85|432:85|451:77|451:77|461:52,1,150,2|0,0:0|0:0,0:3:0:0:
509,8,91665,2,2,B|480:83|480:83|420:106|420:106|260:54|260:54|200:77|200:77|174:146,1,450.000017166138,2|8,0:1|0:0,0:1:0:0:
78,365,92603,5,2,0:3:0:0:
78,365,92790,1,0,3:0:0:0:
0,291,92978,6,2,B|36:305|36:305|65:293|65:293|102:217|102:217|131:205|131:205|167:220,1,225.000008583069,6|0,3:1|0:0,0:1:0:0:
211,275,93353,1,2,1:1:0:0:
73,218,93540,1,0,1:0:0:0:
172,353,93728,1,8,0:0:0:0:
92,131,93915,6,2,B|70:126|70:126|60:113|60:113|64:66|64:66|53:51|53:51|32:48,1,125,2|0,0:1|0:0,0:1:0:0:
237,214,94290,2,2,B|259:209|259:209|269:196|269:196|265:149|265:149|276:134|276:134|297:131,1,125,2|0,3:1|0:0,0:3:0:0:
187,9,94478,6,2,B|206:44|206:44|201:73|201:73|133:124|133:124|126:157|126:157|142:190,1,225.000008583069,6|0,3:1|0:0,0:1:0:0:
175,254,94853,1,2,1:0:0:0:
345,192,95040,1,0,0:0:0:0:
229,311,95228,6,0,L|238:360,3,37.5000014305115,0|0|0|0,1:0|1:0|1:0|1:0,1:0:0:0:
372,118,95603,2,0,L|363:69,2,37.5000014305115,0|0|0,1:0|1:0|1:0,1:0:0:0:
389,49,95790,6,0,L|408:151,1,75.0000028610231,4|0,3:0|0:0,0:0:0:0:
494,69,95978,6,2,B|472:79|472:79|456:105|456:105|451:136|451:136|473:182|473:182|468:213|468:213|452:239|452:239|429:250,1,225.000008583069,6|0,3:1|0:0,0:1:0:0:
361,263,96353,1,2,1:0:0:0:
474,312,96540,1,0,0:0:0:0:
347,186,96728,1,8,0:0:0:0:
410,349,96915,6,2,B|415:361|415:361|430:370|430:370|448:373|448:373|474:360|474:360|492:363|492:363|507:372|507:372|513:386,1,125,2|0,0:1|0:0,0:1:0:0:
191,233,97290,2,2,B|192:222|192:222|203:208|203:208|218:200|218:200|248:202|248:202|263:194|263:194|274:180|274:180|276:167,1,125,2|0,0:1|0:0,0:1:0:0:
34,368,97665,2,2,B|24:362|24:362|16:346|16:346|14:329|14:329|28:303|28:303|27:285|27:285|19:270|19:270|7:263,1,125,2|0,0:1|0:0,0:1:0:0:
7,180,97853,5,0,0:0:0:0:
18,257,97946,1,0,0:0:0:0:
95,285,98040,1,0,3:0:0:0:
159,70,98228,5,8,0:0:0:0:
159,70,98415,2,0,P|155:132|91:201,1,150,2|0,0:0|0:0,0:0:0:0:
83,206,98790,1,2,3:0:0:0:
41,17,98978,2,0,P|66:72|61:120,1,100,0|0,3:0|0:0,0:0:0:0:
224,282,99353,6,0,L|215:350,1,50,2|0,0:1|0:0,0:0:0:0:
183,205,99540,2,0,L|174:137,1,50,2|0,1:0|0:0,0:0:0:0:
249,360,99728,6,2,L|240:292,1,50,8|0,0:0|0:0,0:1:0:0:
208,127,99915,2,0,L|199:195,1,50,2|0,0:1|0:0,0:0:0:0:
387,132,100103,6,0,L|379:70,1,62.5,2|0,1:0|0:0,0:0:0:0:
324,254,100290,2,0,L|316:316,1,62.5,2|0,0:1|0:0,0:0:0:0:
424,18,100478,6,0,L|416:80,1,62.5,6|0,3:1|0:0,0:0:0:0:
361,368,100665,2,0,L|353:306,1,62.5,2|0,0:1|0:0,0:0:0:0:
387,206,100853,5,2,1:3:0:0:
422,195,100946,1,2,1:3:0:0:
458,205,101040,2,0,P|503:239|513:259,1,62.5,0|0,3:0|0:0,0:0:0:0:
371,117,101228,6,2,B|387:89|387:89|427:75,1,62.5,8|0,0:0|0:0,0:3:0:0:
297,167,101415,2,0,B|265:172|265:172|238:205,1,62.5,2|0,0:1|0:0,0:0:0:0:
452,56,101603,6,2,B|416:34|416:34|381:45,1,75.0000028610231,4|0,0:0|0:0,0:3:0:0:
211,225,101790,2,0,B|203:183|203:183|225:155,1,75.0000028610231,2|0,3:1|0:0,0:0:0:0:
81,28,101978,6,2,L|298:54,1,200,6|0,3:1|1:0,0:3:0:0:
408,81,102540,5,0,1:0:0:0:
408,81,102634,1,0,3:0:0:0:
408,81,102728,2,2,L|163:111,1,239.999992675781,8|0,0:0|1:0,0:3:0:0:
44,135,103290,5,2,0:0:0:0:
44,135,103384,1,0,3:0:0:0:
44,135,103478,2,2,L|333:169,1,279.999991455078,6|0,3:1|1:0,0:1:0:0:
335,162,103946,1,0,0:0:0:0:
365,178,104040,5,0,0:0:0:0:
397,176,104134,1,0,2:0:0:0:
421,191,104228,2,2,L|94:229,1,320,8|0,0:0|1:0,0:3:0:0:
13,261,104790,5,0,3:0:0:0:
13,261,104884,1,0,3:0:0:0:
13,261,104978,2,2,L|354:300,1,340.000006484985,6|0,3:1|1:0,0:1:0:0:
457,312,105540,5,2,0:0:0:0:
457,312,105634,1,2,0:0:0:0:
457,312,105728,2,2,L|99:355,1,359.999989013672,8|0,0:0|1:0,0:1:0:0:
186,227,106290,5,0,3:0:0:0:
186,227,106384,1,0,3:0:0:0:
186,227,106478,2,2,L|453:391,1,300.000011444092,6|0,3:1|1:0,0:1:0:0:
370,76,107040,5,0,3:0:0:0:
370,76,107134,1,0,3:0:0:0:
370,76,107228,2,2,L|38:262,1,379.999989852906,8|0,0:0|3:0,0:3:0:0:
131,77,107790,1,2,3:2:0:0:
131,77,107884,1,2,0:0:0:0:
131,77,107978,6,2,L|119:101|108:99|89:84|84:50|107:19|153:8|200:35|219:91|194:155|130:189|50:170|-1:99,1,600,6|0,3:1|0:0,0:1:0:0:
288,174,108728,6,2,L|294:175|295:172|296:167|291:160|281:159|272:166|268:178|275:192|291:197|309:191|319:174|315:152,1,150.000005722046,10|0,0:1|0:0,0:1:0:0:
456,359,109103,5,2,0:3:0:0:
456,359,109290,1,2,0:0:0:0:
429,272,109478,2,0,P|369:280|335:318,1,100,2|0,3:0|0:0,0:0:0:0:
485,202,109853,1,0,0:0:0:0:
448,169,109946,1,0,3:0:0:0:
399,164,110040,1,0,3:0:0:0:
466,52,110228,6,0,L|472:52|473:55|472:60|466:65|456:64|448:55|448:42|458:31|475:29|491:40|496:59|487:79,1,150.000005722046,10|0,0:1|0:0,0:0:0:0:
283,372,110603,5,2,0:0:0:0:
255,292,110790,2,0,L|235:230,1,50,2|0,3:0|0:0,0:0:0:0:
197,141,110978,6,2,L|185:116|174:118|155:133|150:167|173:198|219:209|266:182|285:126|260:62|196:29|116:47|64:118,1,600,6|0,3:1|0:0,0:3:0:0:
154,283,111728,6,2,L|148:286|146:284|143:280|145:271|154:266|165:269|173:279|172:295|159:306|140:307|125:295|120:273,1,150.000005722046,10|0,0:1|0:0,0:3:0:0:
23,32,112103,5,2,0:3:0:0:
23,32,112290,1,0,0:0:0:0:
6,172,112478,1,2,3:0:0:0:
6,172,112853,1,0,0:0:0:0:
52,200,112946,1,0,3:0:0:0:
105,192,113040,1,0,3:0:0:0:
50,338,113228,6,2,L|43:336|43:333|44:328|52:324|61:326|67:336|66:349|54:359|37:358|23:345|21:326|33:307,1,150.000005722046,10|0,0:1|0:0,0:1:0:0:
183,142,113603,5,2,0:0:0:0:
294,166,113790,2,0,L|345:176,1,50,2|0,3:0|0:0,0:0:0:0:
420,70,113978,6,2,L|395:82|388:74|382:50|398:20|435:9|479:28|500:78|481:134|423:170|349:157|299:95|300:8,1,600,6|0,3:1|0:0,0:3:0:0:
475,244,114728,6,2,L|481:246|483:244|484:239|481:231|472:228|461:232|454:243|458:258|472:268|491:266|505:252|506:230,1,150.000005722046,10|0,0:1|0:0,0:1:0:0:
389,338,115103,5,2,1:3:0:0:
302,298,115290,2,2,L|304:291|307:291|312:294|315:302|311:311|300:315|288:312|280:299|283:282|298:270|317:270|334:285,1,150.000005722046,2|0,0:1|0:0,0:3:0:0:
136,348,115665,2,2,L|140:353|138:355|134:358|125:357|119:349|121:338|130:328|145:328|158:339|162:358|151:375|130:382,1,150.000005722046,2|0,0:1|0:0,0:3:0:0:
200,243,115946,1,2,0:3:0:0:
200,243,116040,2,2,L|193:244|192:241|191:236|196:229|206:228|215:235|219:247|212:261|195:266|177:260|168:242|173:221,1,150.000005722046,2|0,0:1|0:0,0:3:0:0:
53,174,116228,6,0,L|64:172|65:177|65:186|56:197|40:198|25:186|20:164|33:142|61:134|90:147|105:177|95:212,1,250,10|0,0:1|0:0,0:0:0:0:
69,284,116603,5,2,0:0:0:0:
70,62,116790,2,0,L|121:81,1,50,2|0,3:0|0:0,0:0:0:0:
268,113,116978,6,2,L|292:101|299:109|304:134|286:163|248:172|206:151|187:100|209:45|270:12|342:29|389:93|383:180,1,600,6|0,3:1|0:0,0:3:0:0:
491,86,117728,6,2,L|485:83|483:85|481:90|484:98|493:102|504:98|511:87|508:72|494:62|475:63|461:77|459:99,1,150.000005722046,10|0,0:1|0:0,0:3:0:0:
412,335,118103,1,0,0:0:0:0:
412,335,118290,2,2,L|418:338|420:336|422:331|419:323|410:319|399:323|392:334|395:349|409:359|428:358|442:344|444:322,1,150.000005722046,2|0,3:1|0:0,0:1:0:0:
234,235,118665,2,2,L|240:232|242:234|244:239|241:247|232:251|221:247|214:236|217:221|231:211|250:212|264:226|266:248,1,150.000005722046,2|0,0:1|0:1,0:1:0:0:
284,335,118946,1,2,0:3:0:0:
284,335,119040,2,0,L|290:338|292:336|294:331|291:323|282:319|271:323|264:334|267:349|281:359|300:358|314:344|316:322,1,150.000005722046,2|0,0:0|0:0,0:0:0:0:
361,195,119228,6,2,L|364:174|354:157|335:151|320:157|314:170|317:183|326:190|336:189|341:181|341:176|339:174|332:175,1,150.000005722046,10|0,0:1|0:0,0:1:0:0:
264,120,119415,2,2,L|251:103|233:98|215:106|208:122|213:135|224:142|236:140|242:133|240:124|236:120|234:120|229:126,1,150.000005722046,2|0,3:1|0:0,0:1:0:0:
130,198,119603,6,0,L|138:197|138:195|137:190|130:184|121:185|114:194|114:207|123:219|139:220|156:209|161:190|153:171,1,150.000005722046,2|0,1:0|0:0,0:0:0:0:
43,271,119790,2,2,L|49:275|51:275|53:270|53:261|45:255|34:257|24:266|23:281|33:294|53:297|70:287|77:268,1,150.000005722046,2|0,3:1|0:0,0:1:0:0:
127,101,119978,6,2,L|112:80|102:84|86:101|87:136|116:161|162:163|202:128|210:71|174:14|103:-6|31:26|-3:103|16:183,1,675.000025749207,6|0,3:1|3:0,0:1:0:0:
173,320,120728,6,2,L|169:325|166:324|162:319|163:311|170:304|182:304|192:312|194:327|185:342|167:347|148:339|139:319|144:297,1,175.00000166893,10|0,0:0|2:0,0:1:0:0:
296,117,121103,5,0,3:0:0:0:
296,117,121290,2,0,P|345:61|424:48,2,150.000005722046,2|0|0,0:0|1:0|3:0,0:0:0:0:
484,136,121853,1,0,0:0:0:0:
437,130,121946,1,0,3:0:0:0:
395,151,122040,1,0,3:0:0:0:
488,250,122228,6,2,L|484:255|481:254|477:249|478:241|485:234|497:234|507:242|509:257|500:272|482:277|463:269|454:249|459:227,1,175.00000166893,10|0,0:0|2:0,0:1:0:0:
272,371,122603,5,2,0:0:0:0:
388,288,122790,2,0,L|304:300,1,75.0000028610231,2|0,3:0|0:0,0:0:0:0:
228,307,122978,6,2,L|209:288|215:279|236:266|269:273|288:306|282:352|242:385|184:383|134:338|126:264|171:200|253:178|328:211,1,675.000025749207,6|0,3:1|3:0,0:3:0:0:
42,337,123728,6,2,L|37:341|34:340|31:335|32:327|39:320|51:321|61:329|62:344|53:359|35:363|16:355|8:334|13:313,1,175.00000166893,10|0,0:0|2:0,0:0:0:0:
104,30,124103,5,0,3:0:0:0:
104,30,124290,2,0,P|59:47|4:137,1,150.000005722046,2|0,0:0|1:0,0:0:0:0:
18,212,124665,1,0,3:0:0:0:
149,105,124853,1,0,0:0:0:0:
109,125,124946,1,0,3:0:0:0:
86,162,125040,1,0,3:0:0:0:
195,212,125228,6,2,L|191:217|188:216|184:211|185:203|192:196|204:196|214:204|216:219|207:234|189:239|170:231|161:211|166:189,1,175.00000166893,10|0,1:0|2:0,0:1:0:0:
396,32,125603,5,0,3:0:0:0:
266,82,125790,2,0,L|350:98,1,75.0000028610231,0|0,0:0|2:0,0:0:0:0:
411,151,125978,6,2,L|434:161|432:171|418:191|385:197|354:174|343:129|368:83|423:63|486:86|520:152|503:228|435:279|353:276,1,675.000025749207,6|0,3:1|3:0,3:0:0:0:
479,358,126728,6,2,L|478:364|475:365|469:363|465:355|467:346|477:339|490:340|500:352|501:369|488:383|468:387|449:375|442:354,1,175.00000166893,10|0,0:0|0:0,0:3:0:0:
325,253,127103,1,0,3:0:0:0:
325,253,127290,6,2,L|329:248|332:249|336:254|335:262|328:269|316:269|306:261|304:246|313:231|331:226|350:234|359:254|354:276,1,175.00000166893,2|0,0:1|0:0,0:1:0:0:
171,345,127665,2,2,L|167:350|164:349|160:344|161:336|168:329|180:329|190:337|192:352|183:367|165:372|146:364|137:344|142:322,1,175.00000166893,2|0,3:1|0:0,0:1:0:0:
222,234,127946,1,2,0:3:0:0:
222,234,128040,2,2,L|218:239|215:238|211:233|212:225|219:218|231:218|241:226|243:241|234:256|216:261|197:253|188:233|193:211,1,175.00000166893,2|0,0:1|0:0,0:1:0:0:
314,134,128228,6,2,L|306:132|304:136|303:143|310:149|321:151|333:143|336:129|328:113|309:105|289:113|276:133|282:158|302:175,1,200,10|0,0:0|2:0,0:0:0:0:
218,83,128603,5,2,0:3:0:0:
376,57,128790,2,0,L|307:26,1,75.0000028610231,0|0,3:0|0:0,0:0:0:0:
93,94,128978,6,2,L|117:100|117:111|106:132|73:143|40:124|22:82|41:33|92:5|158:20|201:79|195:157|134:218|53:226,1,675.000025749207,6|0,3:1|3:0,0:3:0:0:
272,261,129728,6,2,L|266:264|263:261|262:255|266:248|275:245|286:249|292:261|288:275|274:285|255:283|241:268|241:246|254:228,1,175.00000166893,10|0,0:0|0:0,0:3:0:0:
69,359,130103,1,2,0:3:0:0:
181,336,130290,6,2,L|176:331|173:333|170:339|172:346|181:352|192:349|201:340|200:325|188:312|169:310|152:322|147:343|156:364,1,175.00000166893,2|0,3:1|0:0,0:3:0:0:
387,304,130665,2,0,L|383:309|380:308|376:303|377:295|384:288|396:288|406:296|408:311|399:326|381:331|362:323|353:303|358:281,1,175.00000166893,2|0,0:1|0:0,0:0:0:0:
462,219,130946,1,2,0:3:0:0:
462,219,131040,2,0,L|463:225|466:225|472:223|475:215|472:206|461:200|448:203|440:215|441:232|454:245|475:247|492:234|498:212,1,175.00000166893,2|0,3:1|0:0,0:0:0:0:
489,77,131228,6,2,L|494:55|485:35|466:27|448:32|439:47|441:62|451:70|463:70|470:63|471:55|467:50|464:49|460:54,1,175.00000166893,2|0,0:0|0:0,0:3:0:0:
408,143,131415,2,0,L|395:123|375:116|356:123|347:140|351:157|363:166|376:164|384:156|384:146|379:140|373:139|370:140|371:147,1,175.00000166893,2|0,3:1|0:0,0:0:0:0:
249,116,131603,6,2,L|253:121|256:120|260:115|259:107|252:100|240:100|230:108|228:123|237:138|255:143|274:135|283:115|278:93,1,175.00000166893,2|0,0:0|0:0,0:3:0:0:
160,22,131790,2,2,L|159:29|162:30|168:29|173:23|173:13|165:5|152:3|140:12|136:29|145:46|164:53|184:46|197:27,1,175.00000166893,6|0,3:0|0:0,0:3:0:0:
94,173,131978,6,2,L|108:153|117:156|133:174|131:206|104:231|60:232|22:200|14:144|48:90|116:70|184:102|219:176|197:262|118:317,1,750,6|2,3:1|3:0,0:3:0:0:
296,275,132728,6,2,L|288:274|288:277|289:283|295:287|305:286|313:277|313:263|302:252|285:250|269:262|265:281|274:301|297:310|321:302,1,200,10|0,0:0|0:0,0:1:0:0:
487,46,133103,5,2,0:3:0:0:
487,46,133290,1,0,0:0:0:0:
422,113,133478,2,0,P|351:98|292:47,1,150.000005722046,2|0,3:0|0:0,0:0:0:0:
488,168,133853,1,2,0:3:0:0:
461,213,133946,1,2,0:3:0:0:
458,264,134040,1,2,3:0:0:0:
402,340,134228,6,2,L|395:337|394:340|393:346|398:352|408:354|418:347|422:334|414:320|399:314|380:321|371:338|374:360|394:375|419:374,1,200,10|0,0:0|0:0,0:1:0:0:
239,178,134603,5,2,0:0:0:0:
361,254,134790,2,0,L|245:245,1,75.0000028610231,0|0,3:0|0:0,0:0:0:0:
135,287,134978,6,2,L|159:289|162:280|159:256|133:237|96:242|67:275|68:324|105:366|169:375|228:336|247:263|213:189|133:150|40:176,1,750,6|2,3:1|3:0,0:3:0:0:
52,43,135728,6,2,L|44:40|44:43|43:49|49:55|59:56|68:48|71:34|61:21|46:17|28:26|20:44|26:65|50:77|72:75,1,200,2|0,0:0|0:0,0:1:0:0:
306,34,136103,5,2,0:3:0:0:
306,34,136290,1,2,0:0:0:0:
334,116,136478,2,0,P|279:68|174:57,1,150.000005722046,2|0,3:0|0:0,0:0:0:0:
396,24,136853,1,2,0:3:0:0:
420,70,136946,1,2,0:3:0:0:
417,123,137040,1,2,3:0:0:0:
470,217,137228,6,2,L|463:220|462:217|461:211|466:205|476:203|486:210|490:223|482:237|467:243|448:236|439:219|442:197|462:182|487:183,1,200,10|0,0:0|0:0,0:3:0:0:
374,374,137603,5,2,0:0:0:0:
487,328,137790,2,0,L|403:299,1,75.0000028610231,0|0,3:0|0:0,0:0:0:0:
303,268,137978,6,2,L|286:286|278:282|264:262|270:230|300:209|343:213|377:249|378:306|338:355|268:367|205:327|179:249|211:167|296:122,1,750,6|2,3:1|3:0,0:3:0:0:
118,126,138728,6,2,L|125:124|125:128|125:134|118:138|108:137|100:128|100:115|111:103|127:101|144:113|148:132|139:152|116:161|92:154,1,200,10|0,0:0|0:0,0:3:0:0:
114,371,139103,1,2,0:3:0:0:
53,303,139290,6,2,L|45:304|45:300|45:294|52:290|62:291|70:300|70:313|59:325|43:327|26:315|22:296|31:276|54:267|78:274,1,200,2|0,0:1|0:0,0:1:0:0:
241,169,139665,2,2,L|233:167|233:171|233:177|240:181|250:180|258:171|258:158|247:146|231:144|214:156|210:175|219:195|242:204|266:197,1,200,2|0,0:1|0:0,0:1:0:0:
339,265,139946,1,2,0:3:0:0:
339,265,140040,2,0,L|331:266|331:262|331:256|338:252|348:253|356:262|356:275|345:287|329:289|312:277|308:258|317:238|340:229|364:236,1,200,2|0,0:1|0:0,0:0:0:0:
223,321,140228,6,2,L|228:328|224:330|217:333|209:328|204:317|210:303|225:295|244:301|254:318|250:342|232:357|205:359|182:338|178:308,1,250,10|0,0:0|2:0,0:0:0:0:
436,218,140603,1,0,1:0:0:0:
479,358,140790,2,0,L|466:253,1,75.0000028610231,0|0,3:0|0:0,0:0:0:0:
455,145,140978,6,2,L|432:154|426:147|422:124|440:97|476:90|514:111|530:158|508:211|451:239|383:221|341:159|349:78|412:15|508:9,1,750,6|0,3:1|0:0,0:3:0:0:
251,106,141728,6,2,L|243:109|242:105|240:100|245:94|255:91|265:97|270:109|264:124|249:131|229:126|219:110|221:88|239:71|264:70,1,200,10|0,0:0|0:0,0:0:0:0:
127,261,142103,1,2,0:3:0:0:
110,185,142290,6,2,L|105:191|102:189|97:185|99:177|106:170|118:170|128:178|130:194|121:208|101:213|84:204|75:184|83:161|103:147,1,200,2|0,3:1|0:0,0:1:0:0:
17,140,142478,2,0,P|5:186|24:240,1,100,2|0,3:2|0:0,0:0:0:0:
62,331,142665,2,2,L|57:324|54:326|49:330|51:338|58:345|70:345|80:337|82:321|73:307|53:302|36:311|27:331|35:354|55:368,1,200,2|0,0:1|0:0,0:1:0:0:
243,220,143040,6,2,L|239:227|236:224|231:221|231:213|238:205|250:204|260:211|264:227|257:241|237:249|219:241|208:223|213:199|232:183,1,200,2|0,0:0|2:0,0:0:0:0:
309,315,143228,2,2,L|289:311|267:322|260:342|266:361|284:371|299:368|309:355|308:342|299:334|289:334|283:338|283:344|284:348|291:347,1,200,2|0,0:0|2:0,0:0:0:0:
369,209,143415,1,2,1:0:0:0:
409,227,143509,1,0,1:0:0:0:
449,247,143603,1,2,1:0:0:0:
441,290,143696,1,0,1:0:0:0:
434,334,143790,1,2,3:2:0:0:
311,246,143978,5,4,1:0:0:0:
505,98,144165,5,2,0:0:0:0:
366,39,144353,1,2,0:1:0:0:
415,131,144540,1,2,0:0:0:0:
462,27,144728,6,2,B|482:79|482:79|429:98|429:98|410:46|410:46|462:27,1,200,10|0,0:1|0:0,0:1:0:0:
252,364,145290,5,2,1:2:0:0:
252,364,145665,1,2,1:3:0:0:
57,36,146040,1,0,0:0:0:0:
107,145,146228,6,2,B|127:93|127:93|74:74|74:74|55:126|55:126|107:145,1,200,2|0,3:1|0:0,0:1:0:0:
345,141,146978,5,0,3:0:0:0:
479,260,147165,5,2,0:0:0:0:
340,319,147353,1,2,0:1:0:0:
389,227,147540,1,2,0:0:0:0:
436,331,147728,6,2,B|456:279|456:279|403:260|403:260|384:312|384:312|436:331,1,200,10|0,0:1|0:0,0:3:0:0:
252,20,148290,5,2,1:3:0:0:
252,20,148665,1,2,1:3:0:0:
109,299,149040,1,0,0:0:0:0:
59,190,149228,6,2,B|39:242|39:242|92:261|92:261|111:209|111:209|59:190,1,200,2|0,3:1|0:0,0:1:0:0:
173,370,149415,5,0,0:0:0:0:
199,277,149603,1,2,0:0:0:0:
272,211,149790,1,0,0:0:0:0:
282,339,149978,5,0,3:0:0:0:
442,223,150165,5,2,0:0:0:0:
383,362,150353,1,2,0:1:0:0:
350,272,150540,1,2,0:0:0:0:
454,319,150728,6,2,B|402:339|402:339|383:286|383:286|435:267|435:267|454:319,1,200,10|0,0:1|0:0,0:1:0:0:
330,21,151290,5,2,1:3:0:0:
330,21,151665,1,2,1:3:0:0:
285,108,151853,1,2,0:0:0:0:
321,201,152040,1,0,0:0:0:0:
401,79,152228,6,0,B|456:87|456:87|445:143|445:143|391:133|391:133|401:79,1,200,2|0,3:1|0:0,0:0:0:0:
182,225,152978,5,0,3:0:0:0:
58,107,153165,5,2,0:0:0:0:
197,48,153353,1,2,0:1:0:0:
148,140,153540,1,2,0:0:0:0:
101,36,153728,6,2,B|81:88|81:88|134:107|134:107|153:55|153:55|101:36,1,200,10|0,0:1|0:0,0:3:0:0:
292,322,154290,5,2,1:3:0:0:
292,322,154665,1,2,1:3:0:0:
414,26,155040,1,0,0:0:0:0:
461,130,155228,6,2,B|481:78|481:78|428:59|428:59|409:111|409:111|461:130,1,200,2|0,3:1|0:0,0:3:0:0:
380,219,155415,5,0,0:0:0:0:
319,123,155603,1,2,0:0:0:0:
221,67,155790,1,0,0:0:0:0:
329,110,155978,5,0,3:0:0:0:
143,188,156165,5,2,0:0:0:0:
282,247,156353,1,2,0:1:0:0:
239,156,156540,1,2,0:0:0:0:
182,290,156728,6,2,B|162:238|162:238|215:219|215:219|234:271|234:271|182:290,1,200,10|0,0:1|0:0,0:3:0:0:
35,36,157290,5,2,1:3:0:0:
35,36,157665,1,2,1:3:0:0:
98,354,158040,1,0,0:0:0:0:
149,219,158228,6,2,B|169:271|169:271|116:290|116:290|97:238|97:238|149:219,1,200,2|0,3:1|0:0,0:1:0:0:
351,62,158978,5,0,3:0:0:0:
342,229,159165,5,2,0:0:0:0:
481,170,159353,1,2,0:1:0:0:
438,261,159540,1,2,0:0:0:0:
381,127,159728,6,2,B|361:179|361:179|414:198|414:198|433:146|433:146|381:127,1,200,10|0,0:1|0:0,0:3:0:0:
202,357,160290,5,2,1:3:0:0:
202,357,160665,1,2,1:3:0:0:
108,150,161040,1,0,0:0:0:0:
57,285,161228,6,0,B|37:233|37:233|90:214|90:214|109:266|109:266|57:285,1,200,2|0,3:1|0:0,0:0:0:0:
187,205,161415,5,0,0:0:0:0:
112,134,161603,1,2,0:0:0:0:
111,30,161790,1,0,0:0:0:0:
94,132,161978,5,0,3:0:0:0:
237,19,162165,5,2,0:0:0:0:
296,158,162353,1,2,0:1:0:0:
205,115,162540,1,2,0:0:0:0:
339,58,162728,6,2,B|287:38|287:38|268:91|268:91|320:110|320:110|339:58,1,200,10|0,0:1|0:0,0:3:0:0:
443,356,163290,1,2,1:3:0:0:
443,356,163665,1,2,1:3:0:0:
205,269,164040,1,0,0:0:0:0:
339,326,164228,6,2,B|287:346|287:346|268:293|268:293|320:274|320:274|339:326,1,200,2|0,3:1|0:0,0:1:0:0:
228,4,164978,5,0,3:0:0:0:
133,171,165165,5,2,0:0:0:0:
74,32,165353,1,2,0:1:0:0:
163,75,165540,1,2,0:0:0:0:
31,132,165728,6,2,B|83:152|83:152|102:99|102:99|50:80|50:80|31:132,1,200,10|0,0:1|0:1,0:1:0:0:
256,328,166290,5,2,1:3:0:0:
256,328,166665,1,2,1:3:0:0:
256,192,166853,6,2,C|255:183|258:184|265:185|268:191|265:201|256:207|244:206|234:194|234:178|247:164|265:162|283:173|289:196|280:218,1,200,2|0,3:2|0:0,0:3:0:0:
256,36,167228,6,2,L|256:56,1,20,2|0,1:2|0:0,0:0:0:0:
