osu file format v14

[General]
AudioFilename: Ben Briggs - Wave Island.mp3
AudioLeadIn: 0
PreviewTime: 109226
Countdown: 0
SampleSet: Soft
StackLeniency: 0.7
Mode: 0
LetterboxInBreaks: 0
WidescreenStoryboard: 1

[Editor]
Bookmarks: 80,124958
DistanceSpacing: 1.2
BeatDivisor: 8
GridSize: 4
TimelineZoom: 1.5

[Metadata]
Title:Wave Island
TitleUnicode:Wave Island
Artist:Ben Briggs
ArtistUnicode:Ben Briggs
Creator:Gero
Version:Hard
Source:osu!
Tags:Mystery Gift: an Original Pokémon Tribute Mappers' Guild Pichu Pikachu Pokemon Electronic Instrumental
BeatmapID:1951527
BeatmapSetID:934666

[Difficulty]
HPDrainRate:5
CircleSize:4
OverallDifficulty:7
ApproachRate:8
SliderMultiplier:1.4
SliderTickRate:1

[Events]
//Background and Video events
0,0,"BG.jpg",0,0
//Break Periods
//Storyboard Layer 0 (Background)
//Storyboard Layer 1 (Fail)
//Storyboard Layer 2 (Pass)
//Storyboard Layer 3 (Foreground)
//Storyboard Sound Samples

[TimingPoints]
80,487.80487804878,4,2,1,55,1,0
80,-83.3333333333333,4,2,1,55,0,0
15689,-83.3333333333333,4,2,1,60,0,0
29348,-83.3333333333333,4,2,1,65,0,0
46909,-83.3333333333333,4,2,1,70,0,0
62519,-83.3333333333333,4,2,1,65,0,0
78128,-83.3333333333333,4,2,1,70,0,0
93738,-83.3333333333333,4,2,1,75,0,0
109348,-83.3333333333333,4,2,1,80,0,1
123006,-83.3333333333333,4,2,1,75,0,0
123494,-83.3333333333333,4,2,1,70,0,0
123982,-83.3333333333333,4,2,1,65,0,0
124470,-83.3333333333333,4,2,1,60,0,0
124958,-83.3333333333333,4,2,1,55,0,0

[Colours]
Combo1 : 219,160,53
Combo2 : 96,179,219
Combo3 : 136,213,66
Combo4 : 242,220,60

[HitObjects]
360,176,80,6,0,P|419:196|478:176,1,125.999996154785,2|0,3:2|0:0,0:0:0:0:
507,136,567,1,8,0:0:0:0:
419,84,811,1,2,0:0:0:0:
419,84,933,1,0,0:0:0:0:
419,84,1055,2,0,L|293:84,1,125.999996154785,0|0,3:0|0:0,0:0:0:0:
256,112,1543,2,0,P|267:152|256:192,1,83.9999974365235,8|0,0:0|0:0,0:0:0:0:
152,208,2031,6,0,P|93:188|34:208,1,125.999996154785,2|0,3:2|0:0,0:0:0:0:
5,248,2519,1,8,0:0:0:0:
93,300,2762,1,2,0:0:0:0:
93,300,2884,1,0,0:0:0:0:
93,300,3006,2,0,L|219:300,1,125.999996154785,0|0,3:0|0:0,0:0:0:0:
256,272,3494,2,0,P|245:232|256:192,1,83.9999974365235,8|0,0:0|0:0,0:0:0:0:
360,176,3982,6,0,B|395:176|419:194|419:194|443:176|478:176,1,125.999996154785,2|0,3:2|0:0,0:0:0:0:
507,136,4470,1,8,0:0:0:0:
419,84,4714,1,2,0:0:0:0:
419,84,4836,1,0,0:0:0:0:
419,84,4958,2,0,B|359:64|359:64|299:84,1,125.999996154785,0|0,3:0|0:0,0:0:0:0:
256,112,5445,2,0,B|269:152|269:152|256:192,1,83.9999974365235,8|0,0:0|0:0,0:0:0:0:
188,268,5933,6,0,B|216:300|256:316|256:316|296:300|324:268,1,167.999994873047,2|10,3:2|0:0,0:0:0:0:
417,228,6665,2,0,B|430:268|430:268|417:308,1,83.9999974365235,2|0,0:0|3:0,0:0:0:0:
511,344,7153,1,2,0:0:0:0:
511,192,7519,1,2,0:0:0:0:
511,40,7884,6,0,B|487:20|487:20|423:20|423:20|399:40,1,125.999996154785,2|0,3:2|0:0,0:0:0:0:
357,68,8372,1,8,0:0:0:0:
256,68,8616,1,2,0:0:0:0:
256,68,8738,1,0,0:0:0:0:
256,68,8860,2,0,B|166:157,1,125.999996154785,0|0,3:0|0:0,0:0:0:0:
130,193,9348,1,8,0:0:0:0:
57,260,9592,1,0,0:0:0:0:
1,344,9836,6,0,B|25:364|25:364|89:364|89:364|113:344,1,125.999996154785,2|0,3:2|0:0,0:0:0:0:
155,316,10323,1,8,0:0:0:0:
256,316,10567,1,2,0:0:0:0:
256,316,10689,1,2,0:0:0:0:
256,316,10811,2,0,B|345:226,1,125.999996154785,2|0,3:2|0:0,0:0:0:0:
382,191,11299,1,10,0:0:0:0:
455,124,11543,1,0,0:0:0:0:
511,40,11787,6,0,B|487:20|487:20|423:20|423:20|399:40,1,125.999996154785,2|0,3:2|0:0,0:0:0:0:
357,68,12275,2,0,L|315:68,2,41.9999987182618,8|2|2,0:0|0:0|0:0,0:0:0:0:
455,124,12762,1,0,3:0:0:0:
357,180,13006,1,0,0:0:0:0:
357,180,13128,1,0,0:0:0:0:
357,180,13250,1,8,0:0:0:0:
455,236,13494,5,2,0:0:0:0:
455,236,13616,1,2,0:0:0:0:
455,236,13738,2,0,P|466:276|455:316,2,83.9999974365235,0|0|8,3:0|3:0|0:0,0:0:0:0:
357,180,14470,2,0,P|346:140|357:100,2,83.9999974365235,0|8|0,3:0|0:0|3:0,0:0:0:0:
259,236,15201,5,8,3:2:0:0:
244,244,15323,1,8,3:2:0:0:
229,252,15445,1,8,3:2:0:0:
214,260,15567,1,8,3:2:0:0:
199,268,15689,6,0,B|179:268|163:287|163:287|147:268|127:268,1,83.9999974365235,6|0,3:2|0:0,0:0:0:0:
36,228,16177,2,0,B|36:208|17:192|17:192|36:176|36:156,1,83.9999974365235,10|0,0:0|0:0,0:0:0:0:
127,116,16665,2,0,B|147:116|163:97|163:97|179:116|199:116,1,83.9999974365235,2|0,3:2|0:0,0:0:0:0:
290,156,17153,2,0,B|290:176|309:192|309:192|290:208|290:228,1,83.9999974365235,10|0,0:0|0:0,0:0:0:0:
199,268,17640,6,0,B|163:344|163:344|127:268,1,167.999994873047,2|8,3:2|0:0,0:0:0:0:
36,228,18372,1,2,0:0:0:0:
36,228,18494,1,2,0:0:0:0:
36,228,18616,1,2,3:2:0:0:
163,57,19104,1,8,0:0:0:0:
290,228,19592,6,0,B|303:268|303:268|290:308,1,83.9999974365235,2|0,3:2|0:0,0:0:0:0:
382,268,20079,2,0,B|414:242|414:242|457:242,1,83.9999974365235,10|0,0:0|0:0,0:0:0:0:
457,142,20567,2,0,B|414:142|414:142|382:116,1,83.9999974365235,2|0,3:2|0:0,0:0:0:0:
290,76,21055,2,0,B|303:116|303:116|290:156,1,83.9999974365235,10|0,0:0|0:0,0:0:0:0:
196,116,21543,6,0,B|176:72|136:62|136:62|96:72|76:116,1,167.999994873047,2|8,3:2|0:0,0:0:0:0:
8,192,22275,1,2,0:0:0:0:
8,192,22397,1,2,0:0:0:0:
8,192,22519,1,2,3:2:0:0:
75,267,22762,1,2,0:0:0:0:
75,267,22884,1,0,0:0:0:0:
75,267,23006,2,0,L|105:238,2,41.9999987182618,8|2|0,0:0|0:0|0:0,0:0:0:0:
142,342,23494,6,0,B|150:358|174:368|174:368|198:358|206:342,1,83.9999974365235,2|0,3:2|0:0,0:0:0:0:
306,342,23982,2,0,B|314:326|338:316|338:316|362:326|370:342,1,83.9999974365235,10|0,0:0|0:0,0:0:0:0:
444,272,24470,2,0,B|431:232|431:232|444:192,1,83.9999974365235,2|0,3:2|0:0,0:0:0:0:
370,122,24958,2,0,B|383:82|383:82|370:42,1,83.9999974365235,10|0,0:0|0:0,0:0:0:0:
277,82,25445,6,0,B|237:54|201:78|197:82|193:86|157:110|117:82,1,167.999994873047,2|8,3:2|0:0,0:0:0:0:
24,121,26177,1,2,0:0:0:0:
24,121,26299,1,2,0:0:0:0:
24,121,26421,1,2,3:2:0:0:
212,192,26909,1,8,0:0:0:0:
24,263,27397,6,0,P|13:303|24:343,1,83.9999974365235,2|0,3:2|0:0,0:0:0:0:
116,303,27884,2,0,P|105:343|116:383,1,83.9999974365235,10|0,0:0|0:0,0:0:0:0:
208,343,28372,1,2,3:2:0:0:
300,383,28616,1,2,0:0:0:0:
208,343,28860,1,10,0:0:0:0:
300,303,29104,5,2,0:0:0:0:
300,303,29226,1,0,0:0:0:0:
300,303,29348,2,0,P|340:292|380:303,1,83.9999974365235,6|2,3:2|0:0,0:0:0:0:
427,213,29836,2,0,B|431:192|431:192|427:171,1,41.9999987182618,8|2,0:0|0:0,0:0:0:0:
380,81,30201,5,2,0:0:0:0:
380,81,30323,2,0,P|340:92|300:81,1,83.9999974365235,0|2,3:0|0:0,0:0:0:0:
253,171,30811,2,0,B|249:192|249:192|253:213,1,41.9999987182618,8|2,0:0|0:0,0:0:0:0:
300,303,31177,5,2,0:0:0:0:
300,303,31299,2,0,B|340:290|340:290|380:303,1,83.9999974365235,6|2,3:2|0:0,0:0:0:0:
427,213,31787,2,0,B|431:192|431:192|427:171,1,41.9999987182618,8|2,0:0|0:0,0:0:0:0:
380,81,32153,5,2,0:0:0:0:
380,81,32397,1,2,0:0:0:0:
296,25,32640,1,2,0:0:0:0:
296,25,32884,1,2,0:0:0:0:
212,81,33128,5,2,0:0:0:0:
212,81,33250,2,0,B|172:94|172:94|132:81,1,83.9999974365235,0|2,3:0|0:0,0:0:0:0:
85,171,33738,2,0,B|81:192|81:192|85:213,1,41.9999987182618,8|2,0:0|0:0,0:0:0:0:
132,303,34104,5,2,0:0:0:0:
132,303,34348,1,2,0:0:0:0:
216,359,34592,1,2,0:0:0:0:
216,359,34836,1,2,0:0:0:0:
300,303,35079,5,2,0:0:0:0:
300,303,35201,2,0,P|340:292|380:303,1,83.9999974365235,0|2,3:0|0:0,0:0:0:0:
400,203,35689,2,0,P|420:208|440:203,1,41.9999987182618,8|2,0:0|0:0,0:0:0:0:
420,103,36055,5,2,0:0:0:0:
338,47,36299,1,2,0:0:0:0:
256,103,36543,1,2,0:0:0:0:
174,47,36787,1,2,0:0:0:0:
92,103,37031,5,0,0:0:0:0:
92,103,37153,2,0,B|64:143|88:179|92:183|96:187|120:223|92:263,1,167.999994873047,2|10,3:2|0:0,0:0:0:0:
174,319,37884,2,0,B|215:328|215:328|256:319,1,83.9999974365235,2|0,0:0|3:0,0:0:0:0:
357,318,38372,1,2,0:0:0:0:
440,192,38738,1,2,0:0:0:0:
357,66,39104,6,0,B|334:54|334:54|302:54|302:54|279:66,1,83.9999974365235,6|2,3:2|0:0,0:0:0:0:
196,12,39592,1,8,0:0:0:0:
196,12,39714,1,2,0:0:0:0:
113,66,39958,2,0,P|73:55|33:66,1,83.9999974365235,2|2,0:0|0:0,0:0:0:0:
73,160,40445,2,0,B|85:186|85:186|85:195|85:195|92:191|92:191|92:200|92:200|104:227,1,83.9999974365235,2|2,0:0|0:0,0:0:0:0:
155,318,40933,5,2,0:0:0:0:
155,318,41055,2,0,B|178:330|178:330|210:330|210:330|233:318,1,83.9999974365235,0|2,3:0|0:0,0:0:0:0:
316,372,41543,1,8,0:0:0:0:
316,372,41665,1,2,0:0:0:0:
399,318,41909,2,0,P|439:329|479:318,1,83.9999974365235,2|2,0:0|0:0,0:0:0:0:
439,224,42397,2,0,B|426:197|426:197|426:188|426:188|419:192|419:192|419:183|419:183|407:156,1,83.9999974365235,2|2,0:0|0:0,0:0:0:0:
357,66,42884,5,2,0:0:0:0:
357,66,43006,2,0,B|334:66|318:53|318:53|302:66|279:66,1,83.9999974365235,0|2,3:0|0:0,0:0:0:0:
196,12,43494,1,8,0:0:0:0:
196,12,43616,1,2,0:0:0:0:
113,66,43860,2,0,B|74:50|74:50|35:66,1,83.9999974365235,2|2,0:0|0:0,0:0:0:0:
73,160,44348,2,0,B|85:186|85:186|85:195|85:195|92:191|92:191|92:200|92:200|104:227,1,83.9999974365235,2|2,0:0|0:0,0:0:0:0:
155,318,44836,5,2,0:0:0:0:
155,318,44958,2,0,P|194:332|233:318,1,83.9999974365235,6|2,3:2|0:0,0:0:0:0:
333,318,45445,2,0,P|353:313|373:318,1,41.9999987182618,8|2,0:0|0:0,0:0:0:0:
411,224,45811,1,2,3:2:0:0:
411,224,45933,2,0,P|372:210|333:224,1,83.9999974365235,0|2,0:0|3:2,0:0:0:0:
233,224,46421,2,0,P|213:229|193:224,1,41.9999987182618,8|10,0:0|0:0,0:0:0:0:
155,318,46787,5,10,0:0:0:0:
155,318,46909,2,0,B|114:327|114:327|73:318,1,83.9999974365235,6|2,3:2|0:0,0:0:0:0:
35,224,47397,1,8,0:0:0:0:
35,224,47519,1,2,0:0:0:0:
72,130,47762,2,0,P|61:90|72:50,1,83.9999974365235,2|2,0:0|0:0,0:0:0:0:
164,90,48250,2,0,L|247:77,1,83.9999974365235,2|2,0:0|0:0,0:0:0:0:
357,66,48738,5,2,0:0:0:0:
357,66,48860,2,0,B|398:57|398:57|439:66,1,83.9999974365235,0|2,3:0|0:0,0:0:0:0:
477,160,49348,1,8,0:0:0:0:
477,160,49470,1,2,0:0:0:0:
440,254,49714,2,0,P|451:294|440:334,1,83.9999974365235,2|2,0:0|0:0,0:0:0:0:
348,294,50201,2,0,L|264:306,1,83.9999974365235,2|2,0:0|0:0,0:0:0:0:
155,318,50689,5,2,0:0:0:0:
155,318,50811,2,0,B|139:314|131:286|131:286|139:258|155:254,1,83.9999974365235,0|2,3:0|0:0,0:0:0:0:
76,192,51299,1,8,0:0:0:0:
76,192,51421,1,2,0:0:0:0:
155,130,51665,1,2,0:0:0:0:
234,191,51909,1,2,0:0:0:0:
155,130,52153,1,2,0:0:0:0:
233,69,52397,1,2,0:0:0:0:
311,130,52640,5,0,0:0:0:0:
311,130,52762,2,0,B|383:87|383:87|455:130,1,167.999994873047,2|10,3:2|0:0,0:0:0:0:
383,202,53494,2,0,P|372:242|383:282,1,83.9999974365235,2|0,0:0|3:0,0:0:0:0:
455,354,53982,1,2,0:0:0:0:
311,354,54348,1,2,0:0:0:0:
167,354,54714,6,0,P|156:314|167:274,1,83.9999974365235,0|2,3:0|0:0,0:0:0:0:
112,192,55201,1,8,0:0:0:0:
112,192,55323,1,2,0:0:0:0:
167,110,55567,2,0,P|156:70|167:30,2,83.9999974365235,2|2|2,0:0|0:0|0:0,0:0:0:0:
222,192,56299,1,2,0:0:0:0:
277,110,56543,5,2,0:0:0:0:
277,110,56665,2,0,B|318:101|318:101|359:110,1,83.9999974365235,0|2,3:0|0:0,0:0:0:0:
414,192,57153,1,8,0:0:0:0:
414,192,57275,1,2,0:0:0:0:
359,274,57519,5,2,0:0:0:0:
359,274,57640,2,0,P|328:301|306:336,1,83.9999974365235,2|0,3:2|0:0,0:0:0:0:
206,337,58128,2,0,P|184:301|153:274,1,83.9999974365235,10|0,0:0|0:0,0:0:0:0:
98,192,58616,6,0,P|73:136|98:80,1,125.999996154785,2|0,3:2|0:0,0:0:0:0:
148,80,59104,2,0,L|148:32,2,41.9999987182618,10|2|0,0:0|0:0|0:0,0:0:0:0:
249,80,59592,2,0,P|289:69|329:80,1,83.9999974365235,0|0,3:0|0:0,0:0:0:0:
400,151,60079,1,8,0:0:0:0:
471,81,60323,5,2,0:0:0:0:
471,81,60445,1,2,0:0:0:0:
471,81,60567,2,0,B|517:151|517:151|471:221,1,167.999994873047,2|8,3:2|0:0,0:0:0:0:
400,151,61299,2,0,B|446:221|446:221|400:291,1,167.999994873047,2|0,0:0|0:0,0:0:0:0:
329,221,62031,1,8,0:0:0:0:
329,221,62153,1,0,3:0:0:0:
329,221,62275,1,2,0:0:0:0:
256,291,62519,6,0,L|242:330,2,41.9999987182618,4|0|2,3:2|0:0|0:0,0:0:0:0:
183,221,63006,2,0,L|169:260,2,41.9999987182618,10|0|2,0:0|0:0|0:0,0:0:0:0:
110,151,63494,2,0,L|96:190,2,41.9999987182618,2|0|2,3:2|0:0|0:0,0:0:0:0:
37,81,63982,1,10,0:0:0:0:
37,81,64104,1,0,0:0:0:0:
37,81,64226,1,2,0:0:0:0:
110,11,64470,6,0,B|185:11|185:11|193:15|193:15|201:19|201:19|276:19,1,167.999994873047,2|10,3:2|0:0,0:0:0:0:
355,81,65201,1,0,0:0:0:0:
277,143,65445,2,0,P|237:132|197:143,1,83.9999974365235,2|0,3:2|0:0,0:0:0:0:
355,205,65933,2,0,P|395:194|435:205,1,83.9999974365235,10|0,0:0|0:0,0:0:0:0:
277,267,66421,6,0,B|270:287|270:287|277:307,2,41.9999987182618,0|0|2,3:0|0:0|0:0,0:0:0:0:
199,329,66909,2,0,B|206:349|206:349|199:369,2,41.9999987182618,10|0|2,0:0|0:0|0:0,0:0:0:0:
121,267,67397,2,0,B|114:287|114:287|121:307,2,41.9999987182618,2|0|2,3:2|0:0|0:0,0:0:0:0:
43,329,67884,1,10,0:0:0:0:
43,329,68006,1,0,0:0:0:0:
43,329,68128,1,2,0:0:0:0:
121,267,68372,6,0,B|149:227|125:191|121:187|117:183|93:147|121:107,1,167.999994873047,2|10,3:2|0:0,0:0:0:0:
189,35,69104,1,0,0:0:0:0:
256,108,69348,2,0,P|296:119|336:108,1,83.9999974365235,2|0,3:2|0:0,0:0:0:0:
403,181,69836,5,10,0:0:0:0:
418,189,69958,1,2,0:0:0:0:
433,197,70079,1,2,0:0:0:0:
448,205,70201,1,2,0:0:0:0:
463,213,70323,6,0,L|481:175,2,41.9999987182618,0|0|2,3:0|0:0|0:0,0:0:0:0:
391,284,70811,2,0,L|409:322,2,41.9999987182618,10|0|2,0:0|0:0|0:0,0:0:0:0:
319,213,71299,2,0,L|337:175,2,41.9999987182618,2|0|2,3:2|0:0|0:0,0:0:0:0:
247,284,71787,1,10,0:0:0:0:
247,284,71909,1,0,0:0:0:0:
247,284,72031,1,2,0:0:0:0:
175,213,72275,6,0,B|163:253|119:271|119:271|75:253|63:213,1,167.999994873047,2|10,3:2|0:0,0:0:0:0:
119,129,73006,1,0,0:0:0:0:
175,45,73250,2,0,B|216:36|216:36|257:45,1,83.9999974365235,2|0,3:2|0:0,0:0:0:0:
313,129,73738,1,10,0:0:0:0:
313,129,73860,1,0,0:0:0:0:
313,129,73982,1,0,0:0:0:0:
369,213,74226,6,0,P|390:210|411:213,2,41.9999987182618,0|0|2,3:0|0:0|0:0,0:0:0:0:
308,296,74714,2,0,L|330:331,2,41.9999987182618,10|0|2,0:0|0:0|0:0,0:0:0:0:
204,296,75201,2,0,L|181:331,2,41.9999987182618,2|0|2,3:2|0:0|0:0,0:0:0:0:
143,213,75689,1,10,0:0:0:0:
143,213,75811,1,0,0:0:0:0:
143,213,75933,1,2,0:0:0:0:
199,129,76177,6,0,B|256:191|256:191|313:129,1,167.999994873047,2|10,3:2|0:0,0:0:0:0:
369,213,76909,1,0,0:0:0:0:
425,129,77153,2,0,L|425:45,1,83.9999974365235,2|0,3:2|0:0,0:0:0:0:
481,213,77640,5,10,0:0:0:0:
481,229,77762,1,2,0:0:0:0:
481,245,77884,1,2,0:0:0:0:
481,261,78006,1,2,0:0:0:0:
481,277,78128,5,4,3:2:0:0:
408,346,78372,1,2,0:0:0:0:
408,346,78494,1,2,0:0:0:0:
408,346,78616,2,0,P|368:357|328:346,1,83.9999974365235,10|2,0:0|0:0,0:0:0:0:
256,276,79104,1,2,3:2:0:0:
184,345,79348,1,2,0:0:0:0:
256,276,79592,2,0,L|256:192,1,83.9999974365235,10|2,0:0|0:0,0:0:0:0:
328,125,80079,6,0,B|281:125|256:89|256:89|231:125|184:125,1,167.999994873047,2|10,3:2|0:0,0:0:0:0:
256,192,80811,1,0,0:0:0:0:
184,259,81055,2,0,B|231:259|256:295|256:295|281:259|328:259,1,167.999994873047,2|10,3:2|0:0,0:0:0:0:
256,192,81787,1,0,0:0:0:0:
328,125,82031,5,0,3:0:0:0:
400,192,82275,1,2,0:0:0:0:
400,192,82397,1,2,0:0:0:0:
400,192,82519,2,0,L|451:259,1,83.9999974365235,10|2,0:0|0:0,0:0:0:0:
389,339,83006,1,2,3:2:0:0:
328,259,83250,1,2,0:0:0:0:
389,339,83494,1,10,0:0:0:0:
328,259,83738,1,2,0:0:0:0:
267,339,83982,6,0,B|227:311|191:335|187:339|183:343|147:367|107:339,1,167.999994873047,2|10,3:2|0:0,0:0:0:0:
46,259,84714,1,0,0:0:0:0:
107,179,84958,2,0,P|118:139|107:99,1,83.9999974365235,2|0,3:2|0:0,0:0:0:0:
168,19,85445,5,10,0:0:0:0:
184,19,85567,1,2,0:0:0:0:
200,19,85689,1,2,0:0:0:0:
216,19,85811,1,2,0:0:0:0:
232,19,85933,5,0,3:0:0:0:
293,99,86177,1,2,0:0:0:0:
293,99,86299,1,2,0:0:0:0:
293,99,86421,2,0,B|333:112|333:112|373:99,1,83.9999974365235,10|2,0:0|0:0,0:0:0:0:
434,19,86909,1,2,3:2:0:0:
495,99,87153,1,2,0:0:0:0:
434,19,87397,1,10,0:0:0:0:
495,99,87640,1,2,0:0:0:0:
434,179,87884,6,0,B|383:229|383:229|380:237|380:237|375:232|375:232|372:240|372:240|322:290,1,167.999994873047,2|10,3:2|0:0,0:0:0:0:
256,216,88616,1,0,0:0:0:0:
189,290,88860,2,0,B|139:240|139:240|136:232|136:232|131:237|131:237|128:229|128:229|78:179,1,167.999994873047,2|10,3:2|0:0,0:0:0:0:
17,99,89592,1,2,0:0:0:0:
78,19,89836,5,0,3:0:0:0:
139,99,90079,1,2,0:0:0:0:
139,99,90201,1,2,0:0:0:0:
139,99,90323,2,0,L|198:158,1,83.9999974365235,10|2,0:0|0:0,0:0:0:0:
296,48,90811,2,0,P|256:37|216:48,1,83.9999974365235,2|2,3:2|0:0,0:0:0:0:
313,158,91299,2,0,L|373:99,1,83.9999974365235,10|2,0:0|0:0,0:0:0:0:
434,19,91787,6,0,B|459:99|459:99|434:179,1,167.999994873047,2|10,3:2|0:0,0:0:0:0:
496,260,92519,1,0,0:0:0:0:
434,341,92762,2,0,B|393:350|393:350|352:341,1,83.9999974365235,2|2,3:2|0:0,0:0:0:0:
290,260,93250,5,10,0:0:0:0:
274,260,93372,1,2,0:0:0:0:
258,260,93494,1,2,0:0:0:0:
242,260,93616,1,2,0:0:0:0:
226,260,93738,6,0,L|198:180,1,83.9999974365235,6|0,3:2|0:0,0:0:0:0:
256,96,94226,1,10,0:0:0:0:
313,180,94470,2,0,L|367:20,1,167.999994873047,2|2,0:0|0:0,0:0:0:0:
424,105,95201,1,10,0:0:0:0:
481,21,95445,1,2,0:0:0:0:
424,105,95689,6,0,B|411:145|411:145|424:185,1,83.9999974365235,0|2,3:0|0:0,0:0:0:0:
481,269,96177,1,10,0:0:0:0:
424,353,96421,2,0,B|370:353|344:308|344:308|272:308,1,167.999994873047,2|2,0:0|0:0,0:0:0:0:
201,379,97153,1,10,0:0:0:0:
130,308,97397,1,2,0:0:0:0:
201,237,97640,6,0,P|212:197|201:157,1,83.9999974365235,0|2,3:0|0:0,0:0:0:0:
272,86,98128,1,10,0:0:0:0:
201,15,98372,2,0,B|151:65|151:65|148:73|148:73|143:68|143:68|140:76|140:76|90:126,1,167.999994873047,2|2,0:0|0:0,0:0:0:0:
12,192,99104,1,10,0:0:0:0:
12,192,99348,1,2,0:0:0:0:
88,256,99592,6,0,B|100:296|144:315|144:315|188:296|200:256,1,167.999994873047,2|10,3:2|0:0,0:0:0:0:
276,320,100323,1,2,0:0:0:0:
352,256,100567,1,0,3:0:0:0:
352,256,100689,1,2,0:0:0:0:
352,256,100811,1,2,0:0:0:0:
428,320,101055,1,10,0:0:0:0:
428,320,101177,1,2,0:0:0:0:
428,320,101299,1,2,0:0:0:0:
504,256,101543,6,0,B|504:227|504:227|508:219|508:219|500:219|500:219|504:211|504:211|504:182,1,83.9999974365235,2|2,3:2|0:0,0:0:0:0:
428,118,102031,1,10,0:0:0:0:
504,54,102275,2,0,B|428:18|428:18|352:54,1,167.999994873047,2|2,0:0|0:0,0:0:0:0:
276,118,103006,1,10,0:0:0:0:
352,182,103250,1,2,0:0:0:0:
276,118,103494,6,0,B|253:106|253:106|221:106|221:106|198:118,1,83.9999974365235,0|2,3:0|0:0,0:0:0:0:
122,182,103982,1,10,0:0:0:0:
198,246,104226,1,2,0:0:0:0:
198,246,104348,1,2,0:0:0:0:
198,246,104470,1,2,3:2:0:0:
122,310,104714,1,0,0:0:0:0:
122,310,104836,1,0,0:0:0:0:
122,310,104958,2,0,L|38:310,1,83.9999974365235,10|0,0:0|0:0,0:0:0:0:
198,374,105445,5,2,3:2:0:0:
274,310,105689,1,2,0:0:0:0:
198,246,105933,1,10,0:0:0:0:
274,310,106177,2,0,B|297:322|297:322|329:322|329:322|352:310,1,83.9999974365235,2|0,0:0|3:0,0:0:0:0:
428,246,106665,1,2,0:0:0:0:
428,246,106909,1,10,0:0:0:0:
352,182,107153,5,2,0:0:0:0:
352,182,107275,1,2,0:0:0:0:
352,182,107397,2,0,B|352:100|352:100|320:20,1,167.999994873047,2|8,3:2|0:0,0:0:0:0:
256,100,108128,5,0,1:0:0:0:
256,100,108250,1,0,1:0:0:0:
256,100,108372,2,0,L|256:142,3,41.9999987182618,2|2|2|2,3:2|0:0|0:0|0:0,0:0:0:0:
256,164,108860,5,8,3:2:0:0:
256,185,108982,1,8,3:2:0:0:
256,206,109104,1,8,3:2:0:0:
256,227,109226,1,8,3:2:0:0:
256,248,109348,5,6,3:2:0:0:
180,348,109592,1,2,1:2:0:0:
256,269,109836,1,10,3:2:0:0:
332,348,110079,2,0,B|416:348|416:348|475:288,1,167.999994873047,2|2,1:2|1:2,0:0:0:0:
489,273,110689,1,2,0:0:0:0:
503,258,110811,1,10,3:2:0:0:
424,192,111055,1,2,1:2:0:0:
345,126,111299,6,0,P|334:86|345:46,1,83.9999974365235,0|2,3:0|1:2,0:0:0:0:
256,0,111787,1,10,3:2:0:0:
167,46,112031,2,0,B|167:117|167:117|163:125|163:125|171:125|171:125|167:133|167:133|167:204,1,167.999994873047,2|2,1:2|1:2,0:0:0:0:
145,204,112640,1,2,0:0:0:0:
123,204,112762,1,10,3:2:0:0:
51,275,113006,1,2,1:2:0:0:
123,346,113250,6,0,B|143:346|159:365|159:365|175:346|195:346,1,83.9999974365235,0|2,3:0|1:2,0:0:0:0:
266,275,113738,1,10,3:2:0:0:
337,346,113982,2,0,B|486:268,1,167.999994873047,2|2,1:2|1:2,0:0:0:0:
493,249,114592,1,2,0:0:0:0:
499,229,114714,1,10,3:2:0:0:
448,141,114958,1,2,1:2:0:0:
397,229,115201,6,0,B|361:209|349:163|349:163|337:209|301:229,1,167.999994873047,2|10,3:2|3:2,0:0:0:0:
256,138,115933,1,2,1:2:0:0:
210,228,116177,1,0,3:0:0:0:
210,228,116299,1,2,0:0:0:0:
210,228,116421,1,2,1:2:0:0:
165,138,116665,1,10,3:2:0:0:
165,138,116787,1,2,0:0:0:0:
165,138,116909,1,2,1:2:0:0:
120,228,117153,5,6,3:2:0:0:
75,138,117397,1,2,1:2:0:0:
75,138,117519,1,2,0:0:0:0:
75,138,117640,1,10,3:2:0:0:
30,228,117884,2,0,B|10:236|6:260|6:260|10:284|30:292,1,83.9999974365235,2|0,1:2|3:0,0:0:0:0:
75,382,118372,1,2,1:2:0:0:
75,382,118494,1,2,0:0:0:0:
75,382,118616,1,10,3:2:0:0:
120,292,118860,1,2,1:2:0:0:
165,382,119104,5,0,3:0:0:0:
210,292,119348,1,2,1:2:0:0:
210,292,119470,1,2,0:0:0:0:
210,292,119592,1,10,3:2:0:0:
257,382,119836,2,0,B|280:370|280:370|312:370|312:370|335:382,1,83.9999974365235,2|0,1:2|3:0,0:0:0:0:
382,292,120323,1,2,1:2:0:0:
382,292,120445,1,2,0:0:0:0:
382,292,120567,1,10,3:2:0:0:
337,202,120811,1,2,1:2:0:0:
382,112,121055,5,0,3:0:0:0:
427,202,121299,1,2,1:2:0:0:
427,202,121421,1,2,0:0:0:0:
427,202,121543,1,10,3:2:0:0:
472,112,121787,2,0,B|492:104|496:80|496:80|492:56|472:48,1,83.9999974365235,2|0,1:2|3:0,0:0:0:0:
382,48,122275,1,2,1:2:0:0:
382,48,122397,1,2,0:0:0:0:
382,48,122519,2,0,B|362:56|358:80|358:80|362:104|382:112,1,83.9999974365235,10|2,3:2|1:2,0:0:0:0:
427,202,123006,5,6,3:2:0:0:
256,192,123128,12,2,124958,3:2:0:0:
