osu file format v14

[General]
AudioFilename: audio.mp3
AudioLeadIn: 0
PreviewTime: 0
Countdown: 0
SampleSet: Soft
StackLeniency: 0.7
Mode: 0
LetterboxInBreaks: 0
WidescreenStoryboard: 1

[Editor]
DistanceSpacing: 0.9
BeatDivisor: 4
GridSize: 8
TimelineZoom: 1.3

[Metadata]
Title:Fearless Living
TitleUnicode:Fearless Living
Artist:Ben Briggs
ArtistUnicode:Ben Briggs
Creator:Lasse
Version:Easy
Source:
Tags:electronic instrumental featured artist mappers' guild
BeatmapID:1951736
BeatmapSetID:934415

[Difficulty]
HPDrainRate:3
CircleSize:3.2
OverallDifficulty:3.4
ApproachRate:4.4
SliderMultiplier:1.7
SliderTickRate:1

[Events]
//Background and Video events
0,0,"a.jpg",0,0
//Break Periods
//Storyboard Layer 0 (Background)
//Storyboard Layer 1 (Fail)
//Storyboard Layer 2 (Pass)
//Storyboard Layer 3 (Foreground)
//Storyboard Sound Samples

[TimingPoints]
-21,600,4,2,1,40,1,0
8979,-125,4,2,1,40,0,0
9579,-125,4,2,1,45,0,0
19179,-125,4,2,1,50,0,0
35279,-125,4,2,1,5,0,0
35379,-125,4,2,1,50,0,0
36479,-125,4,2,1,5,0,0
36579,-125,4,2,1,50,0,0
37679,-125,4,2,1,5,0,0
37779,-125,4,2,1,50,0,0
38379,-111.111111111111,4,2,1,52,0,0
57579,-100,4,2,1,52,0,0
76779,-93.4579439252336,4,2,1,62,0,1
113979,-93.4579439252336,4,2,1,55,0,1
114129,-93.4579439252336,4,2,1,60,0,1
114879,-93.4579439252336,4,2,1,58,0,1
115179,-117.647058823529,4,2,1,54,0,0
115779,-117.647058823529,4,2,1,54,0,0
153579,-133.333333333333,4,2,1,48,0,0
163179,-133.333333333333,4,2,1,46,0,0
172779,-100,4,2,1,46,0,0

[Colours]
Combo1 : 250,190,230
Combo2 : 130,200,230
Combo3 : 255,230,140
Combo4 : 170,245,170

[HitObjects]
43,217,8979,1,8,0:1:0:0:
0,85,9579,6,0,B|70:77|128:121|128:121|170:75|249:69,1,272,8|8,0:1|0:1,0:0:0:0:
382,46,11379,1,8,0:1:0:0:
483,136,11979,2,0,B|478:273|478:273|351:179,1,272,8|8,0:1|0:1,0:0:0:0:
258,114,13779,1,8,0:1:0:0:
138,178,14379,6,0,B|12:230|12:230|147:303,1,272,8|8,0:1|0:1,0:0:0:0:
256,348,16179,1,8,0:1:0:0:
388,315,16779,2,0,L|408:169,1,136,8|8,0:1|0:1,0:0:0:0:
339,61,17979,2,0,B|300:43|300:43|276:47|276:47|232:31,2,102,8|8|8,0:1|0:0|0:1,0:0:0:0:
403,110,19179,6,0,B|414:180|381:182|392:251,1,136,12|8,0:1|0:0,0:0:0:0:
446,313,20079,1,8,0:1:0:0:
446,313,20379,2,0,L|307:296,1,136,2|8,0:3|0:0,0:0:0:0:
191,360,21579,2,0,L|52:343,1,136,8|8,0:1|0:0,0:0:0:0:
9,215,22779,1,2,0:3:0:0:
99,113,23379,1,8,0:0:0:0:
229,150,23979,6,0,B|294:173|294:173|362:149,1,136,8|8,0:1|0:0,0:0:0:0:
372,72,24879,1,8,0:1:0:0:
372,72,25179,2,0,B|315:32|315:32|243:38,1,136,2|8,0:3|0:0,0:0:0:0:
135,112,26379,2,0,L|115:262,1,136,8|8,0:1|0:0,0:0:0:0:
195,358,27579,1,2,0:3:0:0:
296,267,28179,1,8,0:0:0:0:
408,343,28779,6,0,P|450:345|464:260,1,136,8|8,0:1|0:0,0:0:0:0:
424,199,29679,2,0,B|427:159|427:159|439:138|439:138|443:94,2,102,8|8|8,0:1|0:0|0:0,0:0:0:0:
337,303,31179,2,0,B|317:291|293:290|293:290|275:306|253:314|253:314|228:315|185:302,1,136,2|8,3:3|3:2,0:0:0:0:
145,257,32079,2,0,B|89:251|99:272|31:261,2,102,8|8|8,0:1|0:2|0:0,0:0:0:0:
271,206,33579,6,0,B|275:203|275:203|280:200|280:200|288:197|288:197|292:194|292:194|300:194|300:194|307:190|307:190|315:189|315:189|322:184|322:184|330:182|330:182|336:178|336:178|344:180|344:180|348:175|348:175|356:174|356:174|359:170|359:170|367:170|367:170|372:166|372:166|377:165|377:165|384:164|384:164|389:160|389:160|396:158,1,136,2|8,3:3|0:0,0:0:0:0:
487,109,34679,2,0,B|446:103|446:103|421:111|421:111|398:94|398:94|336:85,1,158.666666666667,8|8,0:0|0:0,0:0:0:0:
214,24,35979,6,0,B|221:72|197:131|197:131|209:161,1,136,8|8,0:0|0:0,0:0:0:0:
297,257,37179,2,0,B|337:296|345:343|345:343|399:357,1,136,8|10,0:0|0:0,0:0:0:0:
483,230,38379,6,0,B|487:185|487:185|481:155|481:155|487:105,2,114.749996498108,14|2|8,0:1|0:0|0:1,0:0:0:0:
439,302,39579,2,0,B|379:289|379:289|354:301|354:301|278:288,1,152.999995330811,2|8,0:0|0:0,0:0:0:0:
218,333,40479,1,2,0:0:0:0:
145,290,40779,2,0,B|105:273|105:273|67:280|67:280|11:259,2,114.749996498108,10|2|8,0:1|0:0|0:1,0:0:0:0:
218,249,41979,1,2,0:0:0:0:
160,107,42579,1,8,0:0:0:0:
303,18,43179,6,0,B|355:22|355:22|369:35|369:35|443:50,2,114.749996498108,10|2|8,0:1|0:0|0:1,0:0:0:0:
244,78,44379,2,0,B|234:138|234:138|247:162|247:162|238:239,1,152.999995330811,2|8,0:0|0:0,0:0:0:0:
221,308,45279,1,2,0:0:0:0:
143,340,45579,2,0,B|5:355,2,114.749996498108,10|2|8,0:1|0:0|0:1,0:0:0:0:
221,308,46779,1,2,0:0:0:0:
365,358,47379,1,8,0:0:0:0:
478,255,47979,6,0,B|482:206|482:206|493:190|493:190|497:116,1,114.749996498108,10|2,0:1|0:0,0:0:0:0:
439,81,48729,2,0,B|434:59|434:59|435:28|435:28|429:1,2,76.4999976654053,2|8|8,0:0|0:0|0:0,0:0:0:0:
393,186,49779,1,10,0:0:0:0:
272,91,50379,2,0,B|247:89|224:78|224:78|211:95|177:110|177:110|151:95|109:93,1,152.999995330811,2|10,3:3|3:2,0:0:0:0:
51,122,51279,2,0,B|31:148|31:148|26:197|26:197|2:233,2,114.749996498108,8|8|8,0:1|0:2|0:0,0:0:0:0:
182,42,52779,6,0,B|192:38|192:38|198:39|198:39|207:38|207:38|213:40|213:40|220:36|220:36|229:37|229:37|238:34|238:34|247:36|247:36|255:35|255:35|263:36|263:36|270:30|270:30|276:34|276:34|285:31|285:31|289:34|289:34|297:30|297:30|304:32|304:32|309:31|309:31|317:29|317:29|323:30|323:30|331:29,1,152.999995330811,2|8,3:0|0:0,0:0:0:0:
404,63,53679,2,0,B|430:98|430:98|429:128|429:128|471:188,2,114.749996498108,8|8|10,0:1|0:0|0:0,0:0:0:0:
236,42,55179,2,0,B|209:39|188:27|188:27|174:43|140:57|140:57|120:41|73:38,1,152.999995330811,2|10,3:0|3:2,0:0:0:0:
25,83,56079,2,0,L|8:162,1,76.4999976654053,8|8,0:1|2:1,0:0:0:0:
176,352,57579,6,0,L|360:352,1,170,14|10,0:1|0:0,0:0:0:0:
466,231,58779,2,0,L|466:47,1,170,2|8,0:0|0:0,0:0:0:0:
396,12,59679,1,2,0:0:0:0:
326,61,59979,2,0,L|326:231,1,170,10|10,0:1|0:0,0:0:0:0:
205,351,61179,1,2,0:0:0:0:
84,230,61779,1,10,0:0:0:0:
204,109,62379,6,0,L|388:109,1,170,10|10,0:1|0:0,0:0:0:0:
496,231,63579,2,0,L|312:231,1,170,2|8,0:0|0:0,0:0:0:0:
265,291,64479,1,2,0:0:0:0:
204,230,64779,2,0,L|204:60,1,170,10|10,0:1|0:0,0:0:0:0:
34,60,65979,1,2,0:0:0:0:
34,230,66579,1,10,0:0:0:0:
204,230,67179,6,0,L|388:230,1,170,10|10,0:1|0:0,0:0:0:0:
494,350,68379,2,0,L|310:350,1,170,2|8,0:0|0:0,0:0:0:0:
239,350,69279,1,2,0:0:0:0:
239,265,69579,2,0,L|239:95,1,170,10|10,0:1|0:0,0:0:0:0:
409,95,70779,1,2,0:0:0:0:
409,265,71379,1,8,0:0:0:0:
239,265,71979,6,0,B|228:264|228:264|223:267|223:267|211:265|211:265|204:269|204:269|192:264|192:264|183:266|183:266|171:262|171:262|158:267|158:267|146:264|146:264|137:266|137:266|128:261|128:261|120:264|120:264|109:263|109:263|104:265|104:265|91:262|91:262|84:264|84:264|76:264|76:264|54:263,1,170,2|10,3:0|0:0,0:0:0:0:
17,203,72879,2,0,B|17:152|17:152|3:132|3:132|3:80,2,127.5,10|8|10,0:1|0:0|0:0,0:0:0:0:
157,298,74379,2,0,B|186:301|212:293|212:293|223:314|256:337|256:337|286:327|307:331,1,170,2|10,3:0|3:2,0:0:0:0:
389,372,75279,2,0,B|389:340|389:340|390:333|390:333|388:325|388:325|389:260,1,85,8|0,0:1|0:0,0:0:0:0:
512,63,76779,5,12,0:1:0:0:
512,63,77079,2,0,B|462:56|462:56|435:73|435:73|363:62,1,136.42499583664,2|2,0:0|0:0,0:0:0:0:
246,44,77979,2,0,B|196:37|196:37|169:54|169:54|97:43,2,136.42499583664,2|2|2,0:0|0:0|0:0,0:0:0:0:
381,64,79329,1,2,0:0:0:0:
441,186,79779,1,10,0:0:0:0:
330,266,80229,2,0,B|276:255|276:255|197:286,1,136.42499583664,2|10,0:0|0:1,0:0:0:0:
115,319,80979,2,0,B|119:268|78:237|78:237|56:186|91:138,1,181.899994448853,10|8,0:0|0:1,0:0:0:0:
139,82,81879,6,0,P|202:55|309:63,1,136.42499583664,2|2,0:0|0:0,0:0:0:0:
375,138,82779,2,0,P|437:164|505:167,2,136.42499583664,2|2|2,0:1|0:0|0:0,0:0:0:0:
268,53,84129,1,2,0:0:0:0:
190,165,84579,1,10,0:0:0:0:
95,67,85029,2,0,B|57:44|57:44|2:73|11:146,1,136.42499583664,2|10,0:0|0:1,0:0:0:0:
24,208,85779,2,0,L|-2:329,2,90.9499972244264,10|2|8,0:0|0:0|0:1,0:0:0:0:
107,170,86679,6,0,B|181:152|164:193|251:180,1,136.42499583664,2|2,0:0|0:0,0:0:0:0:
370,138,87579,2,0,B|377:88|377:88|363:61|363:61|371:-11,2,136.42499583664,2|2|2,0:0|0:0|0:0,0:0:0:0:
463,237,88929,1,2,0:0:0:0:
407,361,89379,1,10,0:0:0:0:
273,332,89829,2,0,B|224:326|224:326|192:343|192:343|139:340,1,136.42499583664,2|10,0:0|0:1,0:0:0:0:
57,302,90579,2,0,B|51:231|51:231|39:208|39:208|33:121,1,181.899994448853,10|8,0:0|0:1,0:0:0:0:
104,67,91479,6,0,B|175:54|168:100|234:94,1,136.42499583664,2|2,0:0|0:0,0:0:0:0:
362,47,92379,2,0,B|450:15|450:15|487:40,2,136.42499583664,2|2|2,0:0|0:0|0:0,0:0:0:0:
233,94,93729,1,2,0:0:0:0:
283,220,94179,1,10,0:0:0:0:
188,318,94629,2,0,P|129:344|49:293,1,136.42499583664,2|10,0:0|0:1,0:0:0:0:
20,239,95379,2,0,L|13:118,2,90.9499972244264,10|2|8,0:0|0:0|0:1,0:0:0:0:
38,328,96279,6,0,P|96:360|159:340,1,136.42499583664,2|2,0:0|0:0,0:0:0:0:
224,219,97179,2,0,B|231:169|231:169|214:142|214:142|225:70,2,136.42499583664,2|2|2,0:0|0:0|0:0,0:0:0:0:
277,344,98529,1,2,0:0:0:0:
412,362,98979,1,10,0:0:0:0:
485,246,99429,2,0,B|478:196|478:196|495:169|495:169|484:97,1,136.42499583664,2|10,0:0|0:1,0:0:0:0:
423,49,100179,2,0,B|379:44|338:70|338:70|302:41|252:43,1,181.899994448853,10|8,0:0|0:1,0:0:0:0:
197,116,101079,6,0,B|194:172|194:172|180:195|180:195|175:248,1,136.42499583664,2|2,0:0|0:0,0:0:0:0:
275,341,101979,2,0,P|339:361|384:299,2,136.42499583664,2|2|2,0:0|0:0|0:0,0:0:0:0:
175,248,103329,1,2,0:0:0:0:
237,126,103779,1,10,0:0:0:0:
137,33,104229,2,0,P|71:20|38:81,1,136.42499583664,2|10,0:0|0:1,0:0:0:0:
17,160,104979,2,0,L|-1:282,2,90.9499972244264,10|2|8,0:0|0:0|0:1,0:0:0:0:
105,138,105879,6,0,B|176:127|162:170|246:159,1,136.42499583664,2|2,0:0|0:0,0:0:0:0:
333,63,106779,2,0,P|391:28|484:65,2,136.42499583664,2|2|2,0:0|0:0|0:0,0:0:0:0:
236,161,108129,1,2,0:0:0:0:
246,297,108579,1,10,0:0:0:0:
370,353,109029,2,0,P|436:357|490:318,1,136.42499583664,2|10,0:0|0:1,0:0:0:0:
494,227,109779,2,0,B|476:171|476:171|491:117|491:117|464:45,1,181.899994448853,10|8,0:0|0:1,0:0:0:0:
380,28,110679,6,0,B|335:36|335:36|311:65|311:65|253:77,1,136.42499583664,2|2,0:0|0:0,0:0:0:0:
124,100,111579,2,0,B|85:84|68:61|68:61|33:47|-10:66,2,136.42499583664,2|2|2,0:0|0:0|0:0,0:0:0:0:
259,75,112929,1,2,0:0:0:0:
236,209,113379,2,0,P|282:270|361:274,1,136.42499583664,10|2,0:0|0:0,0:0:0:0:
426,257,114129,2,0,B|431:228|431:228|429:197|429:197|447:159|447:159|446:118,1,136.42499583664,10|10,3:2|1:2,0:0:0:0:
411,41,114879,2,0,B|376:32|376:32|362:38|362:38|314:22,1,90.9499972244264,10|12,3:1|0:1,0:0:0:0:
179,20,115779,6,0,B|183:50|177:72|177:72|186:96|186:96|150:138|99:177|114:303|203:344,1,361.250006890297,10|10,0:0|0:1,0:0:0:0:
479,373,118479,1,10,0:1:0:0:
503,157,119379,1,10,0:0:0:0:
503,157,119679,2,0,B|423:171|423:171|391:128|391:128|305:106,1,216.750004134178,10|8,0:1|0:0,0:0:0:0:
67,17,121779,6,0,L|53:114,1,72.2500013780594,10|10,0:0|0:1,0:0:0:0:
182,265,122979,2,0,L|171:336,1,72.2500013780594,10|10,0:0|0:1,0:0:0:0:
385,375,124179,1,10,0:0:0:0:
471,259,124779,6,0,B|454:200|454:200|492:119|468:30,1,216.750004134178,10|2,0:1|0:0,0:0:0:0:
184,23,126879,2,0,B|164:93|202:174|202:174|206:272|119:299,1,289.000005512238,10|10,0:1|0:1,0:0:0:0:
12,117,128979,1,10,0:0:0:0:
12,117,129279,2,0,B|82:113|82:113|113:136|113:136|240:135,1,216.750004134178,10|8,0:1|0:0,0:0:0:0:
467,52,131379,6,0,L|375:30,1,72.2500013780594,10|10,0:0|0:1,0:0:0:0:
336,243,132579,2,0,L|244:221,1,72.2500013780594,10|10,0:0|0:1,0:0:0:0:
114,70,133779,6,0,P|84:50|19:121,1,144.500002756119,10|14,0:0|0:1,0:0:0:0:
83,239,134979,2,0,B|134:235|134:235|142:244|142:244|195:247,1,108.375002067089,10|2,0:0|0:0,0:0:0:0:
416,353,136479,6,0,B|428:316|428:316|413:263|413:263|426:205,1,144.500002756119,10|2,0:1|0:0,0:0:0:0:
488,84,137679,1,10,0:1:0:0:
359,20,138279,1,2,0:0:0:0:
295,149,138879,2,0,B|283:186|283:186|291:289|291:289|218:348,1,216.750004134178,10|10,0:1|0:0,0:0:0:0:
90,360,140379,1,2,0:0:0:0:
21,232,140979,5,10,0:0:0:0:
21,232,141279,2,0,P|34:140|166:97,1,216.750004134178,10|10,0:1|0:0,0:0:0:0:
190,131,142479,2,0,P|230:155|395:113,1,216.750004134178,10|10,0:1|0:0,0:0:0:0:
486,16,143979,2,0,P|418:81|439:215,1,216.750004134178,10|2,0:1|0:1,0:0:0:0:
206,342,146079,6,0,B|153:325|153:325|115:336|115:336|41:320,1,144.500002756119,10|2,0:1|0:0,0:0:0:0:
11,194,147279,2,0,B|22:153|22:153|20:131|20:131|36:69,2,108.375002067089,10|8|10,0:1|0:1|0:0,0:0:0:0:
35,254,148479,1,10,0:1:0:0:
285,84,149679,5,2,0:0:0:0:
285,84,149979,2,0,P|351:58|422:66,1,144.500002756119,2|10,0:0|0:0,0:0:0:0:
480,99,150879,2,0,L|471:333,1,216.750004134178,10|10,0:1|0:0,0:0:0:0:
422,360,152079,1,10,0:1:0:0:
254,259,152979,2,0,L|251:174,1,72.2500013780594,10|0,0:0|0:0,0:0:0:0:
246,129,153579,6,0,P|223:63|65:86,1,255.000009727478,10|2,0:1|0:0,0:0:0:0:
14,303,155979,2,0,L|294:284,1,255.000009727478,2|2,0:0|0:0,0:0:0:0:
487,353,158379,1,2,0:0:0:0:
510,124,159579,1,2,0:0:0:0:
293,48,160779,2,0,L|102:17,2,191.250007295609,2|2|2,0:0|0:0|0:3,0:0:0:0:
402,114,163179,6,0,P|436:166|384:354,1,255.000009727478,2|2,0:0|0:0,0:0:0:0:
169,368,165579,2,0,P|90:271|105:148,1,255.000009727478,2|2,0:0|0:0,0:0:0:0:
292,15,167979,1,2,0:0:0:0:
495,120,169179,1,2,0:0:0:0:
388,323,170379,2,0,B|325:305|325:305|272:329|272:329|194:305,1,191.250007295609,2|2,0:0|0:0,0:0:0:0:
36,222,172179,2,0,L|26:84,1,127.500004863739,2|2,0:3|0:2,0:0:0:0:
