osu file format v14

[General]
AudioFilename: audio.mp3
AudioLeadIn: 0
PreviewTime: 57596
Countdown: 1
SampleSet: Soft
StackLeniency: 0.7
Mode: 1
LetterboxInBreaks: 0
WidescreenStoryboard: 1

[Editor]
DistanceSpacing: 0.8
BeatDivisor: 4
GridSize: 16
TimelineZoom: 1

[Metadata]
Title:Fearless Living
TitleUnicode:Fearless Living
Artist:Ben Briggs
ArtistUnicode:Ben Briggs
Creator:Jorkseljund
Version:Oni
Source:
Tags:
BeatmapID:1808543
BeatmapSetID:851777

[Difficulty]
HPDrainRate:4
CircleSize:4
OverallDifficulty:5
ApproachRate:5
SliderMultiplier:1.5
SliderTickRate:1

[Events]
//Background and Video events
0,0,"wallpaper2you_494710.jpg",0,0
//Break Periods
//Storyboard Layer 0 (Background)
//Storyboard Layer 1 (Fail)
//Storyboard Layer 2 (Pass)
//Storyboard Layer 3 (Foreground)
//Storyboard Sound Samples

[TimingPoints]
-4,600,4,2,0,100,1,0
57596,-90.9090909090909,4,2,0,100,0,1
75596,-90.9090909090909,4,2,0,100,0,0
76796,-90.9090909090909,4,2,0,100,0,1
115196,-100,4,2,0,100,0,0

[HitObjects]
25,209,8996,5,8,0:0:0:0:
25,209,9296,1,0,0:0:0:0:
25,209,9596,1,0,0:0:0:0:
130,151,10196,1,0,0:0:0:0:
236,94,10796,1,0,0:0:0:0:
236,94,11396,1,0,0:0:0:0:
236,94,11996,1,0,0:0:0:0:
236,94,12596,1,0,0:0:0:0:
236,94,13196,1,0,0:0:0:0:
236,94,13796,1,8,0:0:0:0:
236,94,14096,1,0,0:0:0:0:
236,94,14396,5,0,0:0:0:0:
148,176,14996,1,0,0:0:0:0:
61,259,15596,1,0,0:0:0:0:
148,176,16196,1,0,0:0:0:0:
61,259,16796,1,0,0:0:0:0:
148,176,17396,1,0,0:0:0:0:
61,259,17996,1,0,0:0:0:0:
130,219,18396,1,0,0:0:0:0:
147,209,18496,1,0,0:0:0:0:
148,176,18596,1,8,0:0:0:0:
104,217,18896,1,0,0:0:0:0:
104,217,19196,5,4,0:0:0:0:
162,203,19496,1,0,0:0:0:0:
191,196,19646,1,0,0:0:0:0:
220,189,19796,1,8,0:0:0:0:
278,177,20096,1,0,0:0:0:0:
221,156,20396,1,8,0:0:0:0:
192,145,20546,1,8,0:0:0:0:
163,134,20696,1,0,0:0:0:0:
188,118,20846,1,0,0:0:0:0:
106,114,20996,1,8,0:0:0:0:
150,225,21596,1,0,0:0:0:0:
150,225,21896,1,0,0:0:0:0:
150,225,22046,1,0,0:0:0:0:
150,225,22196,1,8,0:0:0:0:
135,166,22496,1,0,0:0:0:0:
123,107,22796,1,8,0:0:0:0:
123,107,22946,1,8,0:0:0:0:
123,107,23096,1,0,0:0:0:0:
151,98,23246,1,0,0:0:0:0:
100,161,23396,1,8,0:0:0:0:
126,146,23546,1,0,0:0:0:0:
89,189,23696,1,8,0:0:0:0:
136,152,23996,5,0,0:0:0:0:
195,141,24296,1,0,0:0:0:0:
224,136,24446,1,0,0:0:0:0:
253,131,24596,1,8,0:0:0:0:
207,170,24896,1,0,0:0:0:0:
162,209,25196,1,0,0:0:0:0:
139,229,25346,1,8,0:0:0:0:
116,249,25496,1,0,0:0:0:0:
94,269,25646,1,0,0:0:0:0:
94,269,25796,1,8,0:0:0:0:
138,229,26396,1,0,0:0:0:0:
160,209,26546,1,0,0:0:0:0:
182,189,26696,1,0,0:0:0:0:
204,169,26846,1,0,0:0:0:0:
227,149,26996,1,8,0:0:0:0:
173,121,27296,1,8,0:0:0:0:
146,107,27446,1,0,0:0:0:0:
204,169,27596,1,8,0:0:0:0:
204,169,27746,1,0,0:0:0:0:
204,169,27896,1,0,0:0:0:0:
225,147,28046,1,0,0:0:0:0:
246,125,28196,1,8,0:0:0:0:
186,119,28496,1,8,0:0:0:0:
126,113,28796,5,0,0:0:0:0:
119,172,29096,1,0,0:0:0:0:
115,201,29246,1,0,0:0:0:0:
112,230,29396,1,8,0:0:0:0:
127,172,29696,1,0,0:0:0:0:
78,180,29796,1,0,0:0:0:0:
97,181,29896,1,0,0:0:0:0:
98,191,29996,1,8,0:0:0:0:
126,182,30146,1,0,0:0:0:0:
154,172,30296,1,8,0:0:0:0:
145,122,30596,1,8,0:0:0:0:
256,167,31196,1,0,0:0:0:0:
286,141,31396,1,8,0:0:0:0:
301,128,31596,1,0,0:0:0:0:
261,126,31796,1,8,0:0:0:0:
211,159,32096,1,0,0:0:0:0:
194,170,32196,1,0,0:0:0:0:
177,181,32296,1,0,0:0:0:0:
160,192,32396,1,8,0:0:0:0:
185,176,32546,1,0,0:0:0:0:
210,160,32696,1,8,0:0:0:0:
152,144,32996,1,8,0:0:0:0:
187,126,33296,1,0,0:0:0:0:
204,117,33396,1,0,0:0:0:0:
221,108,33496,1,0,0:0:0:0:
201,102,33596,5,8,0:0:0:0:
238,86,33796,1,0,0:0:0:0:
293,63,33996,1,0,0:0:0:0:
368,35,34196,1,8,0:0:0:0:
318,68,34496,1,8,0:0:0:0:
289,78,34646,1,0,0:0:0:0:
260,88,34796,1,8,0:0:0:0:
231,98,34946,1,0,0:0:0:0:
202,108,35096,1,8,0:0:0:0:
142,105,35396,1,8,0:0:0:0:
196,176,35846,1,0,0:0:0:0:
213,200,35996,1,0,0:0:0:0:
196,176,36446,1,0,0:0:0:0:
213,200,36596,1,0,0:0:0:0:
196,176,37046,1,0,0:0:0:0:
213,200,37196,1,0,0:0:0:0:
138,150,37646,1,8,0:0:0:0:
213,200,37796,1,0,0:0:0:0:
238,145,38096,1,8,0:0:0:0:
178,134,38396,5,4,0:0:0:0:
160,191,38696,1,0,0:0:0:0:
160,191,38846,1,0,0:0:0:0:
160,191,38996,1,8,0:0:0:0:
160,191,39146,1,0,0:0:0:0:
160,191,39296,1,0,0:0:0:0:
127,140,39596,1,8,0:0:0:0:
156,137,39746,1,8,0:0:0:0:
185,135,39896,1,0,0:0:0:0:
244,131,40196,1,8,0:0:0:0:
184,125,40496,1,0,0:0:0:0:
154,122,40646,1,8,0:0:0:0:
124,119,40796,1,0,0:0:0:0:
152,171,41096,1,8,0:0:0:0:
166,197,41246,1,0,0:0:0:0:
180,223,41396,1,8,0:0:0:0:
194,249,41546,1,8,0:0:0:0:
209,274,41696,1,0,0:0:0:0:
174,225,41996,1,0,0:0:0:0:
156,200,42146,1,8,0:0:0:0:
138,175,42296,1,0,0:0:0:0:
120,150,42446,1,0,0:0:0:0:
102,125,42596,1,8,0:0:0:0:
131,121,42746,1,0,0:0:0:0:
160,117,42896,1,8,0:0:0:0:
133,171,43196,5,0,0:0:0:0:
162,118,43496,1,8,0:0:0:0:
176,91,43646,1,0,0:0:0:0:
191,65,43796,1,8,0:0:0:0:
191,65,43946,1,8,0:0:0:0:
191,65,44096,1,0,0:0:0:0:
239,100,44396,1,8,0:0:0:0:
263,117,44546,1,8,0:0:0:0:
287,134,44696,1,0,0:0:0:0:
287,134,44846,1,0,0:0:0:0:
287,134,44996,1,8,0:0:0:0:
230,152,45296,1,8,0:0:0:0:
173,171,45596,1,0,0:0:0:0:
128,131,45896,1,0,0:0:0:0:
105,111,46046,1,0,0:0:0:0:
82,91,46196,1,8,0:0:0:0:
59,146,46496,1,0,0:0:0:0:
117,158,46796,1,0,0:0:0:0:
146,164,46946,1,8,0:0:0:0:
175,170,47096,1,0,0:0:0:0:
204,176,47246,1,0,0:0:0:0:
233,182,47396,1,8,0:0:0:0:
207,166,47546,1,0,0:0:0:0:
181,150,47696,1,8,0:0:0:0:
132,114,47996,5,0,0:0:0:0:
83,78,48296,1,0,0:0:0:0:
83,78,48446,1,0,0:0:0:0:
83,78,48596,1,8,0:0:0:0:
94,136,48896,1,0,0:0:0:0:
113,138,48996,1,0,0:0:0:0:
132,140,49096,1,0,0:0:0:0:
151,143,49196,1,8,0:0:0:0:
163,170,49346,1,0,0:0:0:0:
175,197,49496,1,8,0:0:0:0:
239,133,49796,1,8,0:0:0:0:
179,126,50096,1,0,0:0:0:0:
119,120,50396,1,8,0:0:0:0:
89,117,50596,1,8,0:0:0:0:
119,142,50796,1,0,0:0:0:0:
149,167,50996,1,0,0:0:0:0:
200,136,51296,1,8,0:0:0:0:
217,126,51396,1,8,0:0:0:0:
234,116,51496,1,0,0:0:0:0:
251,106,51596,1,0,0:0:0:0:
241,134,51746,1,8,0:0:0:0:
231,162,51896,1,0,0:0:0:0:
175,138,52196,1,8,0:0:0:0:
227,166,52496,1,0,0:0:0:0:
244,175,52596,1,0,0:0:0:0:
261,184,52696,1,0,0:0:0:0:
261,164,52796,5,8,0:0:0:0:
262,124,52996,1,0,0:0:0:0:
264,84,53196,1,0,0:0:0:0:
264,84,53396,1,8,0:0:0:0:
210,111,53696,1,8,0:0:0:0:
239,104,53846,1,0,0:0:0:0:
268,97,53996,1,8,0:0:0:0:
297,90,54146,1,8,0:0:0:0:
326,84,54296,1,0,0:0:0:0:
269,105,54596,1,8,0:0:0:0:
149,120,55196,1,0,0:0:0:0:
119,124,55396,1,8,0:0:0:0:
119,124,55596,1,0,0:0:0:0:
119,124,55796,1,8,0:0:0:0:
177,135,56096,1,0,0:0:0:0:
196,138,56196,1,0,0:0:0:0:
196,138,56296,1,0,0:0:0:0:
196,138,56396,1,8,0:0:0:0:
208,165,56546,1,0,0:0:0:0:
220,192,56696,1,0,0:0:0:0:
233,218,56846,1,0,0:0:0:0:
203,216,56996,1,8,0:0:0:0:
173,215,57146,1,0,0:0:0:0:
143,214,57296,1,8,0:0:0:0:
113,213,57446,1,0,0:0:0:0:
130,184,57596,5,4,0:0:0:0:
184,146,57896,1,8,0:0:0:0:
211,127,58046,1,0,0:0:0:0:
238,108,58196,1,0,0:0:0:0:
238,108,58346,1,8,0:0:0:0:
265,126,58496,1,0,0:0:0:0:
292,143,58646,1,0,0:0:0:0:
319,161,58796,1,8,0:0:0:0:
287,170,58946,1,0,0:0:0:0:
255,180,59096,1,0,0:0:0:0:
223,190,59246,1,8,0:0:0:0:
191,200,59396,1,0,0:0:0:0:
183,167,59546,1,0,0:0:0:0:
159,210,59696,1,8,0:0:0:0:
155,177,59846,1,8,0:0:0:0:
151,144,59996,1,0,0:0:0:0:
214,125,60296,1,8,0:0:0:0:
214,125,60446,1,0,0:0:0:0:
214,125,60596,1,0,0:0:0:0:
214,125,60746,1,8,0:0:0:0:
214,125,60896,1,8,0:0:0:0:
186,143,61046,1,0,0:0:0:0:
163,119,61196,1,8,0:0:0:0:
117,166,61496,1,0,0:0:0:0:
94,189,61646,1,8,0:0:0:0:
71,213,61796,1,0,0:0:0:0:
49,237,61946,1,0,0:0:0:0:
49,237,62096,1,8,0:0:0:0:
49,237,62246,1,0,0:0:0:0:
106,205,62546,5,0,0:0:0:0:
134,189,62696,1,8,0:0:0:0:
162,173,62846,1,8,0:0:0:0:
191,157,62996,1,0,0:0:0:0:
220,141,63146,1,8,0:0:0:0:
195,118,63296,1,0,0:0:0:0:
162,121,63446,1,0,0:0:0:0:
170,95,63596,1,8,0:0:0:0:
200,81,63746,1,0,0:0:0:0:
160,160,63896,1,0,0:0:0:0:
155,192,64046,1,8,0:0:0:0:
150,224,64196,1,8,0:0:0:0:
145,256,64346,1,0,0:0:0:0:
142,288,64496,1,8,0:0:0:0:
142,288,64646,1,8,0:0:0:0:
132,256,64796,1,0,0:0:0:0:
163,190,65096,1,8,0:0:0:0:
170,157,65246,1,0,0:0:0:0:
177,124,65396,1,0,0:0:0:0:
186,92,65546,1,8,0:0:0:0:
218,99,65696,1,0,0:0:0:0:
250,106,65846,1,0,0:0:0:0:
254,138,65996,1,8,0:0:0:0:
188,140,66296,1,8,0:0:0:0:
155,141,66446,1,0,0:0:0:0:
122,142,66596,1,8,0:0:0:0:
89,143,66746,1,0,0:0:0:0:
56,144,66896,1,8,0:0:0:0:
23,145,67046,1,8,0:0:0:0:
55,137,67196,5,0,0:0:0:0:
119,122,67496,1,8,0:0:0:0:
151,114,67646,1,8,0:0:0:0:
183,107,67796,1,0,0:0:0:0:
211,90,67946,1,8,0:0:0:0:
239,73,68096,1,8,0:0:0:0:
250,137,68396,1,8,0:0:0:0:
256,169,68546,1,8,0:0:0:0:
256,169,68696,1,0,0:0:0:0:
256,169,68846,1,8,0:0:0:0:
256,169,68996,1,8,0:0:0:0:
256,169,69146,1,0,0:0:0:0:
223,163,69296,1,8,0:0:0:0:
159,146,69596,1,0,0:0:0:0:
129,86,69896,1,8,0:0:0:0:
129,86,70046,1,8,0:0:0:0:
129,86,70196,1,0,0:0:0:0:
129,86,70346,1,8,0:0:0:0:
129,86,70496,1,8,0:0:0:0:
164,141,70796,1,8,0:0:0:0:
181,168,70946,1,8,0:0:0:0:
199,195,71096,1,0,0:0:0:0:
199,195,71246,1,8,0:0:0:0:
199,195,71396,1,8,0:0:0:0:
224,174,71546,1,0,0:0:0:0:
249,153,71696,1,8,0:0:0:0:
274,132,71846,1,0,0:0:0:0:
256,192,71996,12,8,72596,0:0:0:0:
72,132,72896,5,0,0:0:0:0:
93,132,72996,1,0,0:0:0:0:
72,132,73096,1,0,0:0:0:0:
72,132,73196,1,8,0:0:0:0:
72,132,73346,1,0,0:0:0:0:
72,132,73496,1,8,0:0:0:0:
134,151,73796,1,0,0:0:0:0:
199,146,74096,1,8,0:0:0:0:
231,144,74246,1,8,0:0:0:0:
233,111,74396,1,0,0:0:0:0:
276,114,74596,1,0,0:0:0:0:
319,117,74796,1,0,0:0:0:0:
362,120,74996,1,8,0:0:0:0:
296,131,75296,1,0,0:0:0:0:
274,134,75396,1,0,0:0:0:0:
252,137,75496,1,0,0:0:0:0:
230,140,75596,1,8,0:0:0:0:
201,156,75746,1,0,0:0:0:0:
172,172,75896,1,0,0:0:0:0:
143,188,76046,1,0,0:0:0:0:
114,204,76196,1,8,0:0:0:0:
105,172,76346,1,0,0:0:0:0:
96,140,76496,1,8,0:0:0:0:
88,107,76646,1,0,0:0:0:0:
120,111,76796,5,4,0:0:0:0:
154,167,77096,1,8,0:0:0:0:
171,194,77246,1,8,0:0:0:0:
188,221,77396,1,0,0:0:0:0:
188,221,77546,1,8,0:0:0:0:
218,208,77696,1,0,0:0:0:0:
278,182,77996,1,8,0:0:0:0:
308,169,78146,1,8,0:0:0:0:
338,156,78296,1,0,0:0:0:0:
338,156,78446,1,8,0:0:0:0:
338,156,78596,1,0,0:0:0:0:
338,156,78746,1,0,0:0:0:0:
338,156,78896,1,8,0:0:0:0:
308,140,79046,1,8,0:0:0:0:
278,125,79196,1,0,0:0:0:0:
212,132,79496,1,8,0:0:0:0:
179,135,79646,1,8,0:0:0:0:
146,138,79796,1,0,0:0:0:0:
113,142,79946,1,8,0:0:0:0:
103,110,80096,1,0,0:0:0:0:
127,48,80396,1,8,0:0:0:0:
127,48,80546,1,8,0:0:0:0:
127,48,80696,1,0,0:0:0:0:
127,48,80846,1,8,0:0:0:0:
121,80,80996,1,0,0:0:0:0:
115,112,81146,1,0,0:0:0:0:
109,144,81296,1,8,0:0:0:0:
103,176,81446,1,8,0:0:0:0:
135,179,81596,5,0,0:0:0:0:
200,184,81896,1,8,0:0:0:0:
167,181,82046,1,8,0:0:0:0:
167,181,82196,1,0,0:0:0:0:
167,181,82346,1,8,0:0:0:0:
167,181,82496,1,0,0:0:0:0:
179,116,82796,1,8,0:0:0:0:
179,116,82946,1,8,0:0:0:0:
179,116,83096,1,0,0:0:0:0:
179,116,83246,1,8,0:0:0:0:
209,103,83396,1,0,0:0:0:0:
188,181,83546,1,0,0:0:0:0:
193,213,83696,1,8,0:0:0:0:
198,245,83846,1,8,0:0:0:0:
198,245,83996,1,0,0:0:0:0:
228,186,84296,1,8,0:0:0:0:
243,156,84446,1,8,0:0:0:0:
258,126,84596,1,0,0:0:0:0:
274,97,84746,1,8,0:0:0:0:
290,68,84896,1,0,0:0:0:0:
179,116,85196,1,8,0:0:0:0:
179,116,85346,1,8,0:0:0:0:
179,116,85496,1,0,0:0:0:0:
179,116,85646,1,8,0:0:0:0:
209,103,85796,1,0,0:0:0:0:
188,181,85946,1,0,0:0:0:0:
193,213,86096,1,8,0:0:0:0:
198,245,86246,1,8,0:0:0:0:
198,245,86396,5,0,0:0:0:0:
228,186,86696,1,8,0:0:0:0:
243,156,86846,1,8,0:0:0:0:
258,126,86996,1,0,0:0:0:0:
274,97,87146,1,8,0:0:0:0:
290,68,87296,1,0,0:0:0:0:
225,55,87596,1,8,0:0:0:0:
192,48,87746,1,8,0:0:0:0:
159,41,87896,1,0,0:0:0:0:
126,35,88046,1,8,0:0:0:0:
130,67,88196,1,0,0:0:0:0:
134,99,88346,1,0,0:0:0:0:
138,131,88496,1,8,0:0:0:0:
143,163,88646,1,8,0:0:0:0:
148,195,88796,1,0,0:0:0:0:
153,227,88946,1,8,0:0:0:0:
189,171,89246,1,0,0:0:0:0:
207,143,89396,1,8,0:0:0:0:
225,115,89546,1,8,0:0:0:0:
192,109,89696,1,0,0:0:0:0:
159,103,89846,1,8,0:0:0:0:
92,175,90296,1,8,0:0:0:0:
151,147,90596,1,0,0:0:0:0:
180,133,90746,1,8,0:0:0:0:
210,119,90896,1,0,0:0:0:0:
240,105,91046,5,0,0:0:0:0:
174,105,91346,1,0,0:0:0:0:
108,105,91646,1,0,0:0:0:0:
75,105,91796,1,8,0:0:0:0:
131,139,92096,1,0,0:0:0:0:
162,147,92246,1,0,0:0:0:0:
75,105,92396,1,0,0:0:0:0:
192,133,92546,1,8,0:0:0:0:
255,113,92846,1,0,0:0:0:0:
286,103,92996,1,8,0:0:0:0:
253,104,93146,1,8,0:0:0:0:
220,105,93296,1,0,0:0:0:0:
187,106,93446,1,8,0:0:0:0:
191,203,93896,1,8,0:0:0:0:
190,171,94046,1,8,0:0:0:0:
161,154,94196,1,0,0:0:0:0:
135,133,94346,1,8,0:0:0:0:
224,175,94646,1,0,0:0:0:0:
224,175,94796,1,8,0:0:0:0:
164,147,95096,1,8,0:0:0:0:
225,122,95396,1,0,0:0:0:0:
255,109,95546,1,8,0:0:0:0:
285,97,95696,1,8,0:0:0:0:
315,85,95846,5,0,0:0:0:0:
220,113,96296,1,8,0:0:0:0:
188,122,96446,1,8,0:0:0:0:
156,131,96596,1,0,0:0:0:0:
124,141,96746,1,8,0:0:0:0:
204,198,97196,1,8,0:0:0:0:
177,178,97346,1,8,0:0:0:0:
149,159,97496,1,0,0:0:0:0:
149,159,97646,1,8,0:0:0:0:
220,113,98096,1,8,0:0:0:0:
188,122,98246,1,0,0:0:0:0:
156,131,98696,1,0,0:0:0:0:
204,176,98996,1,0,0:0:0:0:
228,198,99146,1,8,0:0:0:0:
141,150,99596,1,8,0:0:0:0:
111,134,99746,1,8,0:0:0:0:
143,126,99896,1,0,0:0:0:0:
175,119,100046,1,8,0:0:0:0:
239,105,100496,1,8,0:0:0:0:
271,99,100646,1,8,0:0:0:0:
257,197,100946,5,0,0:0:0:0:
253,229,101096,1,8,0:0:0:0:
224,212,101246,1,8,0:0:0:0:
196,193,101396,1,0,0:0:0:0:
168,174,101546,1,8,0:0:0:0:
257,197,101846,1,0,0:0:0:0:
253,229,101996,1,8,0:0:0:0:
224,212,102146,1,8,0:0:0:0:
196,193,102296,1,0,0:0:0:0:
168,174,102446,1,8,0:0:0:0:
257,197,102746,1,0,0:0:0:0:
253,229,102896,1,8,0:0:0:0:
224,212,103046,1,8,0:0:0:0:
196,193,103196,1,0,0:0:0:0:
168,174,103346,1,8,0:0:0:0:
257,197,103646,1,0,0:0:0:0:
253,229,103796,1,8,0:0:0:0:
224,212,103946,1,8,0:0:0:0:
196,193,104096,1,0,0:0:0:0:
168,174,104246,1,8,0:0:0:0:
257,197,104546,1,0,0:0:0:0:
253,229,104696,1,8,0:0:0:0:
224,212,104846,1,8,0:0:0:0:
196,193,104996,1,0,0:0:0:0:
168,174,105146,1,8,0:0:0:0:
184,145,105296,1,8,0:0:0:0:
167,116,105446,1,0,0:0:0:0:
193,95,105596,5,8,0:0:0:0:
219,75,105746,1,8,0:0:0:0:
223,140,106046,1,8,0:0:0:0:
225,172,106196,1,8,0:0:0:0:
229,237,106496,1,0,0:0:0:0:
180,191,106796,1,8,0:0:0:0:
155,168,106946,1,8,0:0:0:0:
130,145,107096,1,0,0:0:0:0:
105,122,107246,1,8,0:0:0:0:
98,154,107396,1,8,0:0:0:0:
170,110,107696,1,8,0:0:0:0:
233,128,107996,1,8,0:0:0:0:
233,128,108146,1,8,0:0:0:0:
233,128,108296,1,0,0:0:0:0:
233,128,108446,1,8,0:0:0:0:
167,135,108746,1,8,0:0:0:0:
134,138,108896,1,8,0:0:0:0:
101,142,109046,1,0,0:0:0:0:
82,169,109196,1,8,0:0:0:0:
125,218,109496,1,8,0:0:0:0:
184,190,109796,1,0,0:0:0:0:
213,176,109946,1,8,0:0:0:0:
243,162,110096,1,8,0:0:0:0:
273,148,110246,5,0,0:0:0:0:
207,145,110546,1,8,0:0:0:0:
143,128,110846,1,0,0:0:0:0:
111,119,110996,1,8,0:0:0:0:
78,111,111146,1,0,0:0:0:0:
110,111,111296,1,8,0:0:0:0:
142,116,111446,1,0,0:0:0:0:
174,121,111596,1,8,0:0:0:0:
206,127,111746,1,8,0:0:0:0:
187,154,111896,1,0,0:0:0:0:
202,124,112046,1,0,0:0:0:0:
217,94,112196,1,8,0:0:0:0:
233,65,112346,1,8,0:0:0:0:
200,72,112496,1,0,0:0:0:0:
249,36,112646,1,8,0:0:0:0:
185,54,112946,1,8,0:0:0:0:
166,151,113396,1,8,0:0:0:0:
159,183,113546,1,8,0:0:0:0:
153,215,113696,1,8,0:0:0:0:
180,196,113846,1,0,0:0:0:0:
207,178,113996,1,8,0:0:0:0:
175,169,114146,1,0,0:0:0:0:
262,143,114296,1,8,0:0:0:0:
240,117,114446,1,8,0:0:0:0:
219,91,114596,1,0,0:0:0:0:
176,40,114896,1,8,0:0:0:0:
156,66,115046,1,0,0:0:0:0:
144,104,115196,5,4,0:0:0:0:
193,137,115496,1,0,0:0:0:0:
218,153,115646,1,0,0:0:0:0:
242,169,115796,1,8,0:0:0:0:
182,164,116096,1,0,0:0:0:0:
152,161,116246,1,0,0:0:0:0:
122,159,116396,1,0,0:0:0:0:
178,138,116696,1,0,0:0:0:0:
234,118,116996,1,8,0:0:0:0:
234,118,117296,1,4,0:0:0:0:
114,112,117896,1,0,0:0:0:0:
143,113,118046,1,0,0:0:0:0:
172,115,118196,1,8,0:0:0:0:
224,86,118496,1,12,0:0:0:0:
237,205,119096,1,8,0:0:0:0:
237,205,119246,1,0,0:0:0:0:
237,205,119396,1,8,0:0:0:0:
237,205,119696,5,4,0:0:0:0:
138,136,120296,1,0,0:0:0:0:
138,136,120446,1,0,0:0:0:0:
138,136,120596,1,8,0:0:0:0:
138,136,120896,1,0,0:0:0:0:
138,136,121196,1,0,0:0:0:0:
193,113,121796,1,0,0:0:0:0:
220,101,121946,1,0,0:0:0:0:
248,90,122096,1,8,0:0:0:0:
154,165,122696,1,0,0:0:0:0:
177,109,122996,1,8,0:0:0:0:
204,97,123146,1,8,0:0:0:0:
232,86,123296,1,0,0:0:0:0:
116,181,124096,1,0,0:0:0:0:
93,200,124196,1,8,0:0:0:0:
143,168,124496,1,0,0:0:0:0:
193,135,124796,5,8,0:0:0:0:
249,116,125096,1,0,0:0:0:0:
304,126,125246,1,0,0:0:0:0:
306,97,125396,1,0,0:0:0:0:
306,97,125696,1,8,0:0:0:0:
192,136,126296,1,0,0:0:0:0:
165,150,126446,1,0,0:0:0:0:
139,165,126596,1,8,0:0:0:0:
215,117,126896,1,12,0:0:0:0:
95,128,127496,1,8,0:0:0:0:
65,130,127646,1,0,0:0:0:0:
35,133,127796,1,8,0:0:0:0:
94,129,128096,1,4,0:0:0:0:
163,90,128496,1,0,0:0:0:0:
183,125,128596,1,0,0:0:0:0:
177,85,128696,1,8,0:0:0:0:
228,116,128996,1,8,0:0:0:0:
279,147,129296,5,12,0:0:0:0:
159,150,129896,1,0,0:0:0:0:
99,151,130196,1,8,0:0:0:0:
115,32,130796,1,0,0:0:0:0:
147,82,131096,1,0,0:0:0:0:
180,131,131396,1,0,0:0:0:0:
196,155,131546,1,0,0:0:0:0:
196,155,131696,1,8,0:0:0:0:
112,68,132296,1,0,0:0:0:0:
171,71,132596,1,8,0:0:0:0:
200,72,132746,1,0,0:0:0:0:
229,74,132896,1,8,0:0:0:0:
169,178,133646,1,0,0:0:0:0:
169,178,133796,1,8,0:0:0:0:
197,125,134096,1,0,0:0:0:0:
225,72,134396,5,4,0:0:0:0:
143,160,134996,1,8,0:0:0:0:
179,142,135196,1,8,0:0:0:0:
233,116,135396,1,0,0:0:0:0:
136,90,135896,1,0,0:0:0:0:
97,79,136196,1,0,0:0:0:0:
126,86,136346,1,0,0:0:0:0:
155,93,136496,1,12,0:0:0:0:
271,122,137096,1,8,0:0:0:0:
296,105,137246,1,8,0:0:0:0:
328,137,137396,1,0,0:0:0:0:
328,137,137696,1,12,0:0:0:0:
209,155,138296,1,0,0:0:0:0:
226,144,138446,1,8,0:0:0:0:
260,123,138596,1,0,0:0:0:0:
201,110,138896,5,12,0:0:0:0:
81,114,139496,1,0,0:0:0:0:
81,114,139796,1,8,0:0:0:0:
200,122,140396,1,8,0:0:0:0:
259,126,140696,1,0,0:0:0:0:
262,66,140996,1,8,0:0:0:0:
233,74,141146,1,0,0:0:0:0:
204,82,141296,1,0,0:0:0:0:
95,133,141896,1,0,0:0:0:0:
41,159,142196,1,8,0:0:0:0:
41,159,142346,1,0,0:0:0:0:
41,159,142496,1,8,0:0:0:0:
160,154,143096,1,0,0:0:0:0:
178,118,143296,1,0,0:0:0:0:
220,154,143396,1,8,0:0:0:0:
254,104,143696,1,0,0:0:0:0:
301,67,143996,5,8,0:0:0:0:
253,104,144296,1,0,0:0:0:0:
205,141,144596,1,0,0:0:0:0:
158,178,144896,1,8,0:0:0:0:
273,146,145496,1,0,0:0:0:0:
273,146,145646,1,0,0:0:0:0:
273,146,145796,1,8,0:0:0:0:
213,140,146096,1,12,0:0:0:0:
159,32,146696,1,8,0:0:0:0:
185,85,146996,1,0,0:0:0:0:
212,73,147146,1,0,0:0:0:0:
211,138,147296,1,12,0:0:0:0:
289,120,147696,1,0,0:0:0:0:
308,115,147796,1,0,0:0:0:0:
327,110,147896,1,8,0:0:0:0:
267,115,148196,1,8,0:0:0:0:
207,114,148496,5,4,0:0:0:0:
97,163,149096,1,0,0:0:0:0:
97,163,149396,1,8,0:0:0:0:
97,163,149696,1,0,0:0:0:0:
126,157,149846,1,0,0:0:0:0:
155,151,149996,1,8,0:0:0:0:
207,121,150296,1,0,0:0:0:0:
259,91,150596,1,8,0:0:0:0:
229,91,150746,1,0,0:0:0:0:
259,91,150896,1,0,0:0:0:0:
268,51,151496,1,0,0:0:0:0:
268,51,151796,1,8,0:0:0:0:
268,51,151946,1,0,0:0:0:0:
268,51,152096,1,8,0:0:0:0:
215,79,152696,1,0,0:0:0:0:
158,99,152996,1,8,0:0:0:0:
197,91,153196,1,0,0:0:0:0:
236,83,153396,1,0,0:0:0:0:
275,75,153596,5,4,0:0:0:0:
239,123,153896,1,0,0:0:0:0:
188,90,154196,1,0,0:0:0:0:
203,171,154496,1,8,0:0:0:0:
252,137,154796,1,0,0:0:0:0:
302,103,155096,1,8,0:0:0:0:
352,70,155396,1,0,0:0:0:0:
352,70,155696,1,0,0:0:0:0:
352,70,155996,1,8,0:0:0:0:
239,123,156296,1,0,0:0:0:0:
188,90,156596,1,0,0:0:0:0:
203,171,156896,1,8,0:0:0:0:
252,137,157196,1,0,0:0:0:0:
302,103,157496,1,8,0:0:0:0:
352,70,157796,1,0,0:0:0:0:
352,70,158096,1,8,0:0:0:0:
323,80,158246,1,0,0:0:0:0:
352,70,158396,5,8,0:0:0:0:
294,87,158696,1,0,0:0:0:0:
236,105,158996,1,0,0:0:0:0:
176,113,159296,1,8,0:0:0:0:
146,117,159446,1,8,0:0:0:0:
116,121,159596,1,0,0:0:0:0:
86,125,159746,1,8,0:0:0:0:
115,119,159896,1,0,0:0:0:0:
26,134,160196,1,8,0:0:0:0:
85,134,160496,1,8,0:0:0:0:
114,134,160646,1,8,0:0:0:0:
143,134,160796,1,0,0:0:0:0:
201,122,161096,1,8,0:0:0:0:
232,71,161396,1,0,0:0:0:0:
264,20,161696,1,0,0:0:0:0:
233,71,161996,1,8,0:0:0:0:
141,148,162596,1,8,0:0:0:0:
118,167,162746,1,0,0:0:0:0:
118,167,162896,1,8,0:0:0:0:
118,167,163046,1,8,0:0:0:0:
118,167,163196,5,8,0:0:0:0:
239,123,163496,1,0,0:0:0:0:
188,90,163796,1,0,0:0:0:0:
203,171,164096,1,8,0:0:0:0:
252,137,164396,1,0,0:0:0:0:
302,103,164696,1,8,0:0:0:0:
352,70,164996,1,0,0:0:0:0:
352,70,165296,1,0,0:0:0:0:
352,70,165596,1,8,0:0:0:0:
239,123,165896,1,0,0:0:0:0:
188,90,166196,1,0,0:0:0:0:
203,171,166496,1,8,0:0:0:0:
252,137,166796,1,0,0:0:0:0:
302,103,167096,1,8,0:0:0:0:
352,70,167396,1,0,0:0:0:0:
352,70,167696,1,8,0:0:0:0:
322,75,167846,1,0,0:0:0:0:
352,70,167996,5,8,0:0:0:0:
292,79,168296,1,0,0:0:0:0:
232,88,168596,1,0,0:0:0:0:
172,95,168896,1,8,0:0:0:0:
142,99,169046,1,8,0:0:0:0:
112,103,169196,1,0,0:0:0:0:
82,107,169346,1,8,0:0:0:0:
52,111,169496,1,0,0:0:0:0:
92,154,169796,1,8,0:0:0:0:
150,142,170096,1,0,0:0:0:0:
179,136,170246,1,0,0:0:0:0:
208,130,170396,1,0,0:0:0:0:
212,70,170696,1,8,0:0:0:0:
152,73,170996,1,0,0:0:0:0:
92,76,171296,1,0,0:0:0:0:
32,79,171596,1,8,0:0:0:0:
137,135,172196,1,0,0:0:0:0:
163,149,172346,1,0,0:0:0:0:
189,163,172496,1,8,0:0:0:0:
189,163,172646,1,8,0:0:0:0:
189,163,172796,5,8,0:0:0:0:
239,123,173096,1,0,0:0:0:0:
188,90,173396,1,0,0:0:0:0:
203,171,173696,1,8,0:0:0:0:
252,137,173996,1,0,0:0:0:0:
302,103,174296,1,8,0:0:0:0:
352,70,174596,1,0,0:0:0:0:
352,70,174896,1,0,0:0:0:0:
352,70,175196,1,8,0:0:0:0:
239,123,175496,1,0,0:0:0:0:
188,90,175796,1,0,0:0:0:0:
203,171,176096,1,8,0:0:0:0:
252,137,176396,1,0,0:0:0:0:
302,103,176696,1,8,0:0:0:0:
352,70,176996,1,0,0:0:0:0:
352,70,177296,1,0,0:0:0:0:
323,78,177446,1,0,0:0:0:0:
352,70,177596,5,8,0:0:0:0:
294,87,177896,1,0,0:0:0:0:
236,105,178196,1,0,0:0:0:0:
178,122,178496,1,8,0:0:0:0:
149,131,178646,1,8,0:0:0:0:
120,140,178796,1,0,0:0:0:0:
120,140,178946,1,8,0:0:0:0:
120,140,179096,1,0,0:0:0:0:
179,142,179396,1,8,0:0:0:0:
238,144,179696,1,0,0:0:0:0:
208,143,179846,1,8,0:0:0:0:
208,143,179996,1,0,0:0:0:0:
148,134,180296,1,8,0:0:0:0:
267,139,180896,1,0,0:0:0:0:
207,137,181196,1,8,0:0:0:0:
97,87,181796,1,8,0:0:0:0:
97,87,181946,1,8,0:0:0:0:
97,87,182096,1,0,0:0:0:0:
97,87,182246,1,0,0:0:0:0:
97,87,182396,5,8,0:0:0:0:
153,106,182696,1,0,0:0:0:0:
209,126,182996,1,0,0:0:0:0:
265,146,183296,1,8,0:0:0:0:
145,138,183896,1,0,0:0:0:0:
85,134,184196,1,8,0:0:0:0:
85,134,184496,1,0,0:0:0:0:
85,134,184796,1,8,0:0:0:0:
85,134,185096,1,0,0:0:0:0:
85,134,185396,1,0,0:0:0:0:
144,132,185696,1,8,0:0:0:0:
263,123,186296,1,0,0:0:0:0:
322,120,186596,1,8,0:0:0:0:
322,120,186896,1,0,0:0:0:0:
293,130,187046,1,0,0:0:0:0:
264,140,187196,5,8,0:0:0:0:
204,143,187496,1,0,0:0:0:0:
144,146,187796,1,0,0:0:0:0:
203,144,188096,1,8,0:0:0:0:
232,143,188246,1,8,0:0:0:0:
261,142,188396,1,0,0:0:0:0:
290,141,188546,1,8,0:0:0:0:
319,140,188696,1,0,0:0:0:0:
260,127,188996,1,8,0:0:0:0:
201,114,189296,1,0,0:0:0:0:
171,107,189446,1,0,0:0:0:0:
141,101,189596,1,0,0:0:0:0:
124,158,189896,1,8,0:0:0:0:
92,273,190496,1,0,0:0:0:0:
108,215,190796,1,8,0:0:0:0:
