osu file format v14

[General]
AudioFilename: audio.mp3
AudioLeadIn: 0
PreviewTime: 57596
Countdown: 1
SampleSet: Soft
StackLeniency: 0.7
Mode: 1
LetterboxInBreaks: 0
WidescreenStoryboard: 1

[Editor]
DistanceSpacing: 0.8
BeatDivisor: 4
GridSize: 16
TimelineZoom: 1

[Metadata]
Title:Fearless Living
TitleUnicode:Fearless Living
Artist:Ben Briggs
ArtistUnicode:Ben Briggs
Creator:Jorkseljund
Version:Muzukashii
Source:
Tags:
BeatmapID:1780665
BeatmapSetID:851777

[Difficulty]
HPDrainRate:5
CircleSize:4
OverallDifficulty:5
ApproachRate:5
SliderMultiplier:1.5
SliderTickRate:1

[Events]
//Background and Video events
0,0,"wallpaper2you_494710.jpg",0,0
//Break Periods
//Storyboard Layer 0 (Background)
//Storyboard Layer 1 (Fail)
//Storyboard Layer 2 (Pass)
//Storyboard Layer 3 (Foreground)
//Storyboard Sound Samples

[TimingPoints]
-4,600,4,2,0,100,1,0
57596,-90.9090909090909,4,2,0,100,0,1
75596,-90.9090909090909,4,2,0,100,0,0
76796,-90.9090909090909,4,2,0,100,0,1
115196,-100,4,2,0,100,0,0

[HitObjects]
239,179,8996,5,8,0:0:0:0:
239,179,9296,1,0,0:0:0:0:
190,143,9596,1,0,0:0:0:0:
304,178,10196,1,0,0:0:0:0:
418,214,10796,1,0,0:0:0:0:
302,181,11396,1,0,0:0:0:0:
302,181,11996,1,0,0:0:0:0:
302,181,12596,1,0,0:0:0:0:
302,181,13196,1,0,0:0:0:0:
302,181,13796,1,8,0:0:0:0:
302,181,14096,1,0,0:0:0:0:
302,181,14396,5,0,0:0:0:0:
188,141,14996,1,0,0:0:0:0:
188,141,15596,1,0,0:0:0:0:
188,141,16196,1,0,0:0:0:0:
188,141,16796,1,0,0:0:0:0:
188,141,17396,1,0,0:0:0:0:
188,141,17996,1,0,0:0:0:0:
188,141,18296,1,0,0:0:0:0:
188,141,18446,1,0,0:0:0:0:
188,141,18596,1,8,0:0:0:0:
129,156,18896,1,0,0:0:0:0:
70,171,19196,5,4,0:0:0:0:
129,178,19496,1,0,0:0:0:0:
154,162,19646,1,0,0:0:0:0:
188,185,19796,1,8,0:0:0:0:
218,133,20096,1,0,0:0:0:0:
218,133,20696,1,0,0:0:0:0:
218,133,20996,1,8,0:0:0:0:
110,80,21596,1,0,0:0:0:0:
163,106,21896,1,0,0:0:0:0:
163,106,22046,1,0,0:0:0:0:
163,106,22196,1,8,0:0:0:0:
148,164,22496,1,0,0:0:0:0:
134,222,22796,1,0,0:0:0:0:
161,210,22946,1,8,0:0:0:0:
188,199,23096,1,0,0:0:0:0:
135,170,23396,1,8,0:0:0:0:
118,112,23696,1,8,0:0:0:0:
159,125,23996,5,0,0:0:0:0:
129,178,24296,1,0,0:0:0:0:
154,162,24446,1,0,0:0:0:0:
188,185,24596,1,8,0:0:0:0:
218,133,24896,1,0,0:0:0:0:
218,133,25496,1,0,0:0:0:0:
218,133,25796,1,8,0:0:0:0:
110,80,26396,1,0,0:0:0:0:
163,106,26696,1,0,0:0:0:0:
163,106,26846,1,0,0:0:0:0:
163,106,26996,1,8,0:0:0:0:
148,164,27296,1,0,0:0:0:0:
134,222,27596,1,0,0:0:0:0:
161,210,27746,1,8,0:0:0:0:
188,199,27896,1,0,0:0:0:0:
135,170,28196,1,8,0:0:0:0:
118,112,28496,1,8,0:0:0:0:
159,125,28796,5,0,0:0:0:0:
129,178,29096,1,0,0:0:0:0:
154,162,29246,1,0,0:0:0:0:
188,185,29396,1,8,0:0:0:0:
218,133,29696,1,0,0:0:0:0:
178,87,29996,1,8,0:0:0:0:
178,87,30146,1,8,0:0:0:0:
218,133,30296,1,8,0:0:0:0:
218,133,30596,1,8,0:0:0:0:
110,80,31196,1,0,0:0:0:0:
163,106,31396,1,0,0:0:0:0:
163,106,31596,1,0,0:0:0:0:
163,106,31796,1,8,0:0:0:0:
148,164,32096,1,8,0:0:0:0:
176,153,32246,1,8,0:0:0:0:
134,222,32396,1,0,0:0:0:0:
188,199,32696,1,0,0:0:0:0:
135,170,32996,1,8,0:0:0:0:
118,112,33296,1,8,0:0:0:0:
159,125,33596,5,0,0:0:0:0:
186,112,33746,1,0,0:0:0:0:
213,99,33896,1,0,0:0:0:0:
240,87,34046,1,0,0:0:0:0:
267,75,34196,1,8,0:0:0:0:
219,111,34496,1,8,0:0:0:0:
195,129,34646,1,8,0:0:0:0:
171,147,34796,1,0,0:0:0:0:
151,123,34946,1,8,0:0:0:0:
131,99,35096,1,0,0:0:0:0:
110,155,35396,1,8,0:0:0:0:
199,154,35846,1,8,0:0:0:0:
229,154,35996,1,8,0:0:0:0:
199,154,36446,1,8,0:0:0:0:
229,154,36596,1,8,0:0:0:0:
199,154,37046,1,8,0:0:0:0:
229,154,37196,1,8,0:0:0:0:
139,146,37646,1,0,0:0:0:0:
169,149,37796,1,0,0:0:0:0:
150,92,38096,1,8,0:0:0:0:
177,145,38396,5,4,0:0:0:0:
129,178,38696,1,0,0:0:0:0:
154,162,38846,1,0,0:0:0:0:
188,185,38996,1,8,0:0:0:0:
218,133,39296,1,0,0:0:0:0:
160,115,39596,1,8,0:0:0:0:
131,106,39746,1,8,0:0:0:0:
218,133,39896,1,0,0:0:0:0:
218,133,40196,1,8,0:0:0:0:
110,80,40796,1,0,0:0:0:0:
163,106,41096,1,0,0:0:0:0:
163,106,41246,1,0,0:0:0:0:
163,106,41396,1,8,0:0:0:0:
148,164,41696,1,0,0:0:0:0:
134,222,41996,1,0,0:0:0:0:
161,210,42146,1,8,0:0:0:0:
188,199,42296,1,0,0:0:0:0:
135,170,42596,1,8,0:0:0:0:
118,112,42896,1,8,0:0:0:0:
159,125,43196,5,0,0:0:0:0:
129,178,43496,1,0,0:0:0:0:
154,162,43646,1,0,0:0:0:0:
188,185,43796,1,8,0:0:0:0:
218,133,44096,1,0,0:0:0:0:
161,114,44396,1,8,0:0:0:0:
132,104,44546,1,8,0:0:0:0:
218,133,44696,1,0,0:0:0:0:
218,133,44996,1,8,0:0:0:0:
110,80,45596,1,0,0:0:0:0:
163,106,45896,1,0,0:0:0:0:
163,106,46046,1,0,0:0:0:0:
163,106,46196,1,8,0:0:0:0:
148,164,46496,1,0,0:0:0:0:
134,222,46796,1,0,0:0:0:0:
161,210,46946,1,8,0:0:0:0:
188,199,47096,1,0,0:0:0:0:
135,170,47396,1,8,0:0:0:0:
118,112,47696,1,8,0:0:0:0:
159,125,47996,5,0,0:0:0:0:
129,178,48296,1,0,0:0:0:0:
154,162,48446,1,0,0:0:0:0:
188,185,48596,1,8,0:0:0:0:
218,133,48896,1,0,0:0:0:0:
178,87,49196,1,8,0:0:0:0:
178,87,49346,1,8,0:0:0:0:
218,133,49496,1,8,0:0:0:0:
218,133,49796,1,8,0:0:0:0:
277,122,50096,1,0,0:0:0:0:
110,80,50396,1,0,0:0:0:0:
163,106,50596,1,0,0:0:0:0:
163,106,50796,1,0,0:0:0:0:
163,106,50996,1,8,0:0:0:0:
148,164,51296,1,8,0:0:0:0:
176,153,51446,1,8,0:0:0:0:
134,222,51596,1,0,0:0:0:0:
188,199,51896,1,0,0:0:0:0:
135,170,52196,1,8,0:0:0:0:
118,112,52496,1,8,0:0:0:0:
159,125,52796,5,0,0:0:0:0:
186,112,52946,1,0,0:0:0:0:
213,99,53096,1,0,0:0:0:0:
240,87,53246,1,0,0:0:0:0:
267,75,53396,1,8,0:0:0:0:
219,111,53696,1,8,0:0:0:0:
195,129,53846,1,8,0:0:0:0:
171,147,53996,1,0,0:0:0:0:
151,123,54146,1,8,0:0:0:0:
131,99,54296,1,0,0:0:0:0:
110,155,54596,1,8,0:0:0:0:
199,154,55196,1,8,0:0:0:0:
229,154,55396,1,8,0:0:0:0:
199,154,55596,1,8,0:0:0:0:
229,154,55796,1,8,0:0:0:0:
170,139,56096,1,0,0:0:0:0:
150,134,56246,1,0,0:0:0:0:
229,154,56396,1,8,0:0:0:0:
169,149,56996,1,8,0:0:0:0:
150,92,57296,1,8,0:0:0:0:
209,102,57596,5,4,0:0:0:0:
152,122,57896,1,8,0:0:0:0:
191,190,58196,1,0,0:0:0:0:
213,209,58346,1,8,0:0:0:0:
124,128,58646,1,0,0:0:0:0:
147,149,58796,1,8,0:0:0:0:
150,141,59096,1,0,0:0:0:0:
124,128,59246,1,8,0:0:0:0:
173,162,59546,1,0,0:0:0:0:
124,128,59696,1,8,0:0:0:0:
124,128,59996,1,0,0:0:0:0:
236,89,60296,1,8,0:0:0:0:
176,81,60596,1,0,0:0:0:0:
239,148,60746,1,8,0:0:0:0:
210,173,61046,1,8,0:0:0:0:
181,163,61196,1,0,0:0:0:0:
96,130,61496,1,0,0:0:0:0:
125,141,61646,1,8,0:0:0:0:
39,108,61946,1,0,0:0:0:0:
39,108,62096,1,8,0:0:0:0:
39,108,62246,5,0,0:0:0:0:
97,119,62546,1,0,0:0:0:0:
127,122,62696,1,8,0:0:0:0:
180,149,62996,1,0,0:0:0:0:
180,149,63146,1,8,0:0:0:0:
121,134,63446,1,0,0:0:0:0:
91,126,63596,1,8,0:0:0:0:
32,112,63896,1,0,0:0:0:0:
32,112,64046,1,8,0:0:0:0:
91,122,64346,1,0,0:0:0:0:
120,127,64496,1,8,0:0:0:0:
134,105,64796,1,0,0:0:0:0:
207,131,65096,1,8,0:0:0:0:
176,81,65396,1,0,0:0:0:0:
239,148,65546,1,8,0:0:0:0:
210,173,65846,1,8,0:0:0:0:
181,163,65996,1,0,0:0:0:0:
96,130,66296,1,0,0:0:0:0:
125,141,66446,1,8,0:0:0:0:
39,108,66746,1,0,0:0:0:0:
39,108,66896,1,8,0:0:0:0:
39,108,67046,5,0,0:0:0:0:
97,119,67346,1,0,0:0:0:0:
127,122,67496,1,8,0:0:0:0:
156,121,67646,1,8,0:0:0:0:
180,149,67796,1,0,0:0:0:0:
180,149,67946,1,8,0:0:0:0:
91,126,68396,1,8,0:0:0:0:
122,120,68546,1,8,0:0:0:0:
32,112,68696,1,0,0:0:0:0:
32,112,68846,1,8,0:0:0:0:
91,122,69146,1,0,0:0:0:0:
120,127,69296,1,8,0:0:0:0:
134,105,69596,1,0,0:0:0:0:
207,131,69896,1,8,0:0:0:0:
202,160,70046,1,8,0:0:0:0:
198,189,70196,1,0,0:0:0:0:
194,218,70346,1,8,0:0:0:0:
173,243,70496,1,8,0:0:0:0:
136,148,70796,1,8,0:0:0:0:
116,125,70946,1,8,0:0:0:0:
93,144,71096,1,0,0:0:0:0:
175,133,71246,1,8,0:0:0:0:
234,136,71546,1,0,0:0:0:0:
192,157,71696,1,8,0:0:0:0:
230,210,71996,5,0,0:0:0:0:
169,184,72296,1,8,0:0:0:0:
138,171,72446,1,8,0:0:0:0:
164,95,72596,1,0,0:0:0:0:
131,91,72746,1,8,0:0:0:0:
145,155,73046,1,0,0:0:0:0:
152,187,73196,1,8,0:0:0:0:
182,174,73346,1,8,0:0:0:0:
212,161,73496,1,0,0:0:0:0:
183,144,73646,1,8,0:0:0:0:
119,160,73946,1,0,0:0:0:0:
87,168,74096,1,8,0:0:0:0:
139,208,74396,1,0,0:0:0:0:
176,185,74596,1,0,0:0:0:0:
213,162,74796,1,0,0:0:0:0:
250,139,74996,1,8,0:0:0:0:
185,123,75296,1,0,0:0:0:0:
152,115,75446,1,0,0:0:0:0:
122,108,75596,1,8,0:0:0:0:
364,211,76796,5,4,0:0:0:0:
298,201,77096,1,8,0:0:0:0:
232,192,77396,1,0,0:0:0:0:
199,187,77546,1,8,0:0:0:0:
168,128,77846,1,0,0:0:0:0:
153,98,77996,1,8,0:0:0:0:
153,98,78296,1,0,0:0:0:0:
153,98,78446,1,8,0:0:0:0:
153,98,78746,1,0,0:0:0:0:
153,98,78896,1,8,0:0:0:0:
124,128,79196,1,0,0:0:0:0:
236,89,79496,1,8,0:0:0:0:
240,121,79646,1,8,0:0:0:0:
176,81,79796,1,0,0:0:0:0:
239,148,79946,1,8,0:0:0:0:
181,163,80396,1,8,0:0:0:0:
208,181,80546,1,8,0:0:0:0:
96,130,80696,1,0,0:0:0:0:
125,141,80846,1,8,0:0:0:0:
39,108,81146,1,0,0:0:0:0:
39,108,81296,1,8,0:0:0:0:
39,108,81446,5,0,0:0:0:0:
97,119,81746,1,0,0:0:0:0:
127,122,81896,1,8,0:0:0:0:
180,149,82196,1,0,0:0:0:0:
180,149,82346,1,8,0:0:0:0:
121,134,82646,1,0,0:0:0:0:
91,126,82796,1,8,0:0:0:0:
32,112,83096,1,0,0:0:0:0:
32,112,83246,1,8,0:0:0:0:
91,122,83546,1,0,0:0:0:0:
120,127,83696,1,8,0:0:0:0:
134,105,83996,1,0,0:0:0:0:
207,131,84296,1,8,0:0:0:0:
234,149,84446,1,8,0:0:0:0:
176,81,84596,1,0,0:0:0:0:
239,148,84746,1,8,0:0:0:0:
210,173,85046,1,0,0:0:0:0:
181,163,85196,1,8,0:0:0:0:
96,130,85496,1,0,0:0:0:0:
125,141,85646,1,8,0:0:0:0:
39,108,85946,1,0,0:0:0:0:
39,108,86096,1,8,0:0:0:0:
39,108,86246,5,0,0:0:0:0:
97,119,86546,1,0,0:0:0:0:
127,122,86696,1,8,0:0:0:0:
156,121,86846,1,8,0:0:0:0:
180,149,86996,1,0,0:0:0:0:
180,149,87146,1,8,0:0:0:0:
91,126,87596,1,8,0:0:0:0:
122,120,87746,1,8,0:0:0:0:
32,112,87896,1,0,0:0:0:0:
32,112,88046,1,8,0:0:0:0:
120,127,88496,1,8,0:0:0:0:
92,108,88646,1,8,0:0:0:0:
134,105,88796,1,0,0:0:0:0:
103,92,88946,1,8,0:0:0:0:
198,189,89396,1,8,0:0:0:0:
194,218,89546,1,8,0:0:0:0:
173,243,89696,1,0,0:0:0:0:
161,212,89846,1,8,0:0:0:0:
93,144,90296,1,8,0:0:0:0:
72,206,90596,1,8,0:0:0:0:
234,136,90746,1,0,0:0:0:0:
192,157,90896,1,8,0:0:0:0:
230,210,91196,5,0,0:0:0:0:
202,192,91346,1,8,0:0:0:0:
230,210,91646,1,8,0:0:0:0:
164,91,91796,1,0,0:0:0:0:
110,52,92096,1,8,0:0:0:0:
230,210,92246,1,8,0:0:0:0:
171,179,92546,1,0,0:0:0:0:
138,171,92696,1,8,0:0:0:0:
164,91,92996,1,8,0:0:0:0:
135,73,93146,1,8,0:0:0:0:
229,101,93296,1,0,0:0:0:0:
182,174,93446,1,8,0:0:0:0:
86,198,93896,1,8,0:0:0:0:
54,207,94046,1,8,0:0:0:0:
22,218,94196,1,0,0:0:0:0:
22,218,94346,1,8,0:0:0:0:
120,212,94796,1,8,0:0:0:0:
185,208,95096,1,8,0:0:0:0:
215,149,95396,1,8,0:0:0:0:
200,178,95546,1,8,0:0:0:0:
200,178,95696,1,0,0:0:0:0:
200,178,95846,5,0,0:0:0:0:
283,231,96296,1,8,0:0:0:0:
254,213,96446,1,8,0:0:0:0:
254,213,96596,1,0,0:0:0:0:
254,213,96746,1,8,0:0:0:0:
254,213,97196,1,8,0:0:0:0:
254,213,97346,1,8,0:0:0:0:
254,213,97496,1,0,0:0:0:0:
254,213,97646,1,8,0:0:0:0:
167,164,98096,1,8,0:0:0:0:
138,148,98246,1,0,0:0:0:0:
176,56,98696,1,0,0:0:0:0:
202,116,98996,1,0,0:0:0:0:
188,29,99146,1,8,0:0:0:0:
208,91,99596,1,8,0:0:0:0:
218,122,99746,1,8,0:0:0:0:
228,153,99896,1,0,0:0:0:0:
238,184,100046,1,8,0:0:0:0:
151,136,100496,1,8,0:0:0:0:
122,119,100646,5,8,0:0:0:0:
187,117,101096,1,8,0:0:0:0:
219,117,101246,1,8,0:0:0:0:
251,117,101396,1,0,0:0:0:0:
283,117,101546,1,8,0:0:0:0:
239,206,101996,1,8,0:0:0:0:
254,176,102146,1,8,0:0:0:0:
254,176,102296,1,0,0:0:0:0:
254,176,102446,1,8,0:0:0:0:
188,169,102896,1,8,0:0:0:0:
155,166,103046,1,8,0:0:0:0:
122,163,103196,1,0,0:0:0:0:
122,163,103346,1,8,0:0:0:0:
217,138,103796,1,8,0:0:0:0:
185,146,103946,1,8,0:0:0:0:
185,146,104096,1,0,0:0:0:0:
185,146,104246,1,8,0:0:0:0:
114,75,104696,1,8,0:0:0:0:
114,75,104846,1,8,0:0:0:0:
114,75,104996,1,0,0:0:0:0:
114,75,105146,1,8,0:0:0:0:
114,75,105296,1,8,0:0:0:0:
161,121,105596,5,8,0:0:0:0:
184,144,105746,1,8,0:0:0:0:
231,190,106046,1,8,0:0:0:0:
231,190,106196,1,8,0:0:0:0:
168,210,106496,1,0,0:0:0:0:
168,210,106796,1,8,0:0:0:0:
168,210,106946,1,8,0:0:0:0:
208,157,107246,1,8,0:0:0:0:
228,130,107396,1,8,0:0:0:0:
162,121,107696,1,8,0:0:0:0:
121,173,107996,1,8,0:0:0:0:
101,199,108146,1,8,0:0:0:0:
135,142,108446,1,8,0:0:0:0:
169,86,108746,1,8,0:0:0:0:
169,86,108896,1,8,0:0:0:0:
184,150,109196,1,0,0:0:0:0:
199,214,109496,1,0,0:0:0:0:
215,277,109796,1,0,0:0:0:0:
206,244,109946,1,8,0:0:0:0:
206,244,110096,1,0,0:0:0:0:
179,183,110396,5,0,0:0:0:0:
154,202,110546,1,8,0:0:0:0:
163,136,110846,1,8,0:0:0:0:
163,136,110996,1,8,0:0:0:0:
226,119,111296,1,8,0:0:0:0:
205,181,111596,1,8,0:0:0:0:
194,212,111746,1,0,0:0:0:0:
172,187,111896,1,8,0:0:0:0:
174,275,112196,1,8,0:0:0:0:
166,242,112346,1,8,0:0:0:0:
174,275,112496,1,0,0:0:0:0:
194,212,112646,1,8,0:0:0:0:
186,179,112946,1,8,0:0:0:0:
126,100,113396,1,8,0:0:0:0:
105,73,113546,1,8,0:0:0:0:
105,73,113696,1,8,0:0:0:0:
157,113,113996,1,0,0:0:0:0:
182,133,114146,1,8,0:0:0:0:
207,153,114296,1,8,0:0:0:0:
233,173,114446,1,0,0:0:0:0:
204,156,114596,1,0,0:0:0:0:
200,180,114896,1,8,0:0:0:0:
144,157,115196,5,4,0:0:0:0:
195,126,115496,1,0,0:0:0:0:
246,95,115796,1,8,0:0:0:0:
189,200,116396,1,0,0:0:0:0:
189,200,116696,1,0,0:0:0:0:
189,200,116996,1,8,0:0:0:0:
189,200,117296,1,4,0:0:0:0:
147,86,117896,1,0,0:0:0:0:
127,142,118196,1,0,0:0:0:0:
147,86,118496,1,12,0:0:0:0:
107,199,119096,1,0,0:0:0:0:
87,255,119396,1,8,0:0:0:0:
138,223,119696,1,4,0:0:0:0:
182,111,120296,1,0,0:0:0:0:
182,111,120596,1,8,0:0:0:0:
105,203,121196,1,0,0:0:0:0:
29,296,121796,1,0,0:0:0:0:
47,272,121946,1,0,0:0:0:0:
66,249,122096,1,8,0:0:0:0:
157,93,122996,1,8,0:0:0:0:
142,119,123146,1,0,0:0:0:0:
142,119,123296,1,0,0:0:0:0:
75,108,124046,1,0,0:0:0:0:
228,276,124196,1,8,0:0:0:0:
189,230,124496,1,0,0:0:0:0:
150,183,124796,5,8,0:0:0:0:
183,67,125396,1,8,0:0:0:0:
321,129,125696,1,0,0:0:0:0:
203,155,126296,1,0,0:0:0:0:
144,169,126596,1,0,0:0:0:0:
85,183,126896,1,12,0:0:0:0:
201,155,127496,1,0,0:0:0:0:
201,155,127796,1,0,0:0:0:0:
201,155,128096,1,12,0:0:0:0:
81,146,128696,1,0,0:0:0:0:
81,146,128846,1,0,0:0:0:0:
81,146,128996,1,8,0:0:0:0:
140,156,129296,1,12,0:0:0:0:
259,155,129896,1,0,0:0:0:0:
259,155,130196,1,8,0:0:0:0:
142,124,130796,1,0,0:0:0:0:
142,124,131396,1,0,0:0:0:0:
142,124,131546,1,0,0:0:0:0:
142,124,131696,1,8,0:0:0:0:
43,274,132596,1,0,0:0:0:0:
59,249,132746,1,0,0:0:0:0:
75,224,132896,1,8,0:0:0:0:
223,122,133796,1,8,0:0:0:0:
192,238,134396,5,4,0:0:0:0:
138,130,134996,1,8,0:0:0:0:
174,114,135296,1,0,0:0:0:0:
229,90,135896,1,0,0:0:0:0:
234,149,136196,1,8,0:0:0:0:
174,157,136496,1,4,0:0:0:0:
55,175,137096,1,8,0:0:0:0:
5,183,137396,1,0,0:0:0:0:
5,183,137696,1,12,0:0:0:0:
121,155,138296,1,8,0:0:0:0:
63,170,138596,1,0,0:0:0:0:
121,155,138896,1,12,0:0:0:0:
236,124,139496,1,0,0:0:0:0:
178,139,139796,1,8,0:0:0:0:
297,151,140396,1,8,0:0:0:0:
297,151,140696,1,0,0:0:0:0:
297,151,140996,1,8,0:0:0:0:
297,151,141296,1,0,0:0:0:0:
177,152,141896,1,0,0:0:0:0:
117,152,142196,1,8,0:0:0:0:
117,152,142496,1,0,0:0:0:0:
214,222,143096,1,0,0:0:0:0:
165,186,143396,1,8,0:0:0:0:
61,125,143996,5,8,0:0:0:0:
118,141,144296,1,0,0:0:0:0:
175,157,144596,1,0,0:0:0:0:
232,173,144896,1,8,0:0:0:0:
114,150,145496,1,0,0:0:0:0:
114,150,145796,1,0,0:0:0:0:
114,150,146096,1,12,0:0:0:0:
220,205,146696,1,8,0:0:0:0:
273,232,146996,1,0,0:0:0:0:
273,232,147296,1,12,0:0:0:0:
284,142,147746,1,0,0:0:0:0:
181,153,147896,1,8,0:0:0:0:
135,114,148196,1,8,0:0:0:0:
135,114,148496,1,4,0:0:0:0:
242,166,149096,1,0,0:0:0:0:
295,192,149396,1,8,0:0:0:0:
239,169,149696,1,0,0:0:0:0:
211,158,149846,1,0,0:0:0:0:
211,158,149996,1,8,0:0:0:0:
97,117,150596,1,8,0:0:0:0:
97,117,150896,1,0,0:0:0:0:
196,183,151496,1,0,0:0:0:0:
245,216,151796,1,0,0:0:0:0:
295,248,152096,1,8,0:0:0:0:
141,153,152996,1,8,0:0:0:0:
115,137,153196,1,0,0:0:0:0:
89,121,153396,1,0,0:0:0:0:
63,105,153596,5,4,0:0:0:0:
122,99,153896,1,0,0:0:0:0:
177,122,154196,1,0,0:0:0:0:
232,145,154496,1,8,0:0:0:0:
215,87,154796,1,0,0:0:0:0:
215,87,155096,1,8,0:0:0:0:
215,87,155396,1,0,0:0:0:0:
215,87,155696,1,0,0:0:0:0:
63,105,155996,1,8,0:0:0:0:
122,99,156296,1,0,0:0:0:0:
177,122,156596,1,0,0:0:0:0:
232,145,156896,1,8,0:0:0:0:
215,87,157196,1,0,0:0:0:0:
215,87,157496,1,8,0:0:0:0:
215,87,157796,1,0,0:0:0:0:
215,87,158096,1,0,0:0:0:0:
193,108,158246,1,8,0:0:0:0:
63,105,158396,5,8,0:0:0:0:
122,99,158696,1,0,0:0:0:0:
177,122,158996,1,0,0:0:0:0:
232,145,159296,1,8,0:0:0:0:
215,87,159596,1,0,0:0:0:0:
215,87,159896,1,0,0:0:0:0:
215,87,160196,1,8,0:0:0:0:
215,87,160496,1,0,0:0:0:0:
155,91,160796,1,0,0:0:0:0:
203,145,161096,1,8,0:0:0:0:
116,121,161696,1,0,0:0:0:0:
87,113,161996,1,8,0:0:0:0:
191,171,162596,1,0,0:0:0:0:
164,156,162746,1,0,0:0:0:0:
164,156,162896,1,0,0:0:0:0:
164,156,163046,1,0,0:0:0:0:
63,105,163196,5,8,0:0:0:0:
122,99,163496,1,0,0:0:0:0:
177,122,163796,1,0,0:0:0:0:
232,145,164096,1,8,0:0:0:0:
215,87,164396,1,0,0:0:0:0:
215,87,164696,1,8,0:0:0:0:
215,87,164996,1,0,0:0:0:0:
215,87,165296,1,0,0:0:0:0:
63,105,165596,1,8,0:0:0:0:
122,99,165896,1,0,0:0:0:0:
177,122,166196,1,0,0:0:0:0:
232,145,166496,1,8,0:0:0:0:
215,87,166796,1,0,0:0:0:0:
215,87,167096,1,8,0:0:0:0:
215,87,167396,1,0,0:0:0:0:
215,87,167696,1,0,0:0:0:0:
194,109,167846,1,8,0:0:0:0:
63,105,167996,5,8,0:0:0:0:
122,99,168296,1,0,0:0:0:0:
177,122,168596,1,0,0:0:0:0:
232,145,168896,1,0,0:0:0:0:
202,151,169046,1,0,0:0:0:0:
215,87,169196,1,8,0:0:0:0:
215,87,169496,1,0,0:0:0:0:
215,87,169796,1,0,0:0:0:0:
215,87,170096,1,8,0:0:0:0:
209,146,170396,1,0,0:0:0:0:
203,205,170696,1,8,0:0:0:0:
192,324,171296,1,0,0:0:0:0:
197,264,171596,1,8,0:0:0:0:
220,146,172196,1,0,0:0:0:0:
220,146,172346,1,0,0:0:0:0:
220,146,172496,1,0,0:0:0:0:
220,146,172646,1,0,0:0:0:0:
220,146,172796,5,8,0:0:0:0:
160,135,173096,1,0,0:0:0:0:
100,125,173396,1,0,0:0:0:0:
216,153,173996,1,0,0:0:0:0:
274,168,174296,1,8,0:0:0:0:
215,153,174596,1,0,0:0:0:0:
273,167,174896,1,0,0:0:0:0:
214,153,175196,1,8,0:0:0:0:
157,171,175496,1,0,0:0:0:0:
100,190,175796,1,0,0:0:0:0:
72,200,176396,1,0,0:0:0:0:
72,200,176696,1,8,0:0:0:0:
72,200,176996,1,0,0:0:0:0:
72,200,177296,1,0,0:0:0:0:
101,196,177446,1,0,0:0:0:0:
72,200,177596,5,8,0:0:0:0:
130,188,177896,1,0,0:0:0:0:
188,176,178196,1,8,0:0:0:0:
143,136,178496,1,0,0:0:0:0:
120,115,178646,1,0,0:0:0:0:
120,115,178796,1,0,0:0:0:0:
120,115,178946,1,8,0:0:0:0:
120,115,179096,1,0,0:0:0:0:
172,144,179396,1,8,0:0:0:0:
231,149,179696,1,0,0:0:0:0:
260,151,179846,1,0,0:0:0:0:
289,153,179996,1,0,0:0:0:0:
318,156,180296,1,8,0:0:0:0:
198,144,180896,1,0,0:0:0:0:
138,138,181196,1,8,0:0:0:0:
239,201,181796,1,0,0:0:0:0:
213,185,181946,1,0,0:0:0:0:
213,185,182096,1,0,0:0:0:0:
213,185,182246,1,0,0:0:0:0:
213,185,182396,5,8,0:0:0:0:
159,157,182696,1,0,0:0:0:0:
105,130,182996,1,0,0:0:0:0:
220,98,183596,1,0,0:0:0:0:
162,114,183896,1,8,0:0:0:0:
162,114,184196,1,0,0:0:0:0:
162,114,184496,1,0,0:0:0:0:
162,114,184796,1,8,0:0:0:0:
270,164,185396,1,0,0:0:0:0:
161,113,185996,1,0,0:0:0:0:
215,138,186296,1,8,0:0:0:0:
215,138,186596,1,0,0:0:0:0:
215,138,186896,1,0,0:0:0:0:
215,138,187196,1,8,0:0:0:0:
137,46,187796,1,0,0:0:0:0:
214,137,188396,1,0,0:0:0:0:
94,125,188996,1,0,0:0:0:0:
31,120,189596,1,0,0:0:0:0:
86,142,189896,1,8,0:0:0:0:
197,187,190496,1,0,0:0:0:0:
141,165,190796,1,8,0:0:0:0:
