osu file format v14

[General]
AudioFilename: audio.mp3
AudioLeadIn: 0
PreviewTime: 57596
Countdown: 1
SampleSet: Soft
StackLeniency: 0.7
Mode: 1
LetterboxInBreaks: 0
WidescreenStoryboard: 0

[Editor]
DistanceSpacing: 0.8
BeatDivisor: 4
GridSize: 16
TimelineZoom: 1

[Metadata]
Title:Fearless Living
TitleUnicode:Fearless Living
Artist:Ben Briggs
ArtistUnicode:Ben Briggs
Creator:Jorkseljund
Version:Kantan
Source:
Tags:
BeatmapID:1780664
BeatmapSetID:851777

[Difficulty]
HPDrainRate:7
CircleSize:4
OverallDifficulty:3
ApproachRate:5
SliderMultiplier:1.5
SliderTickRate:1

[Events]
//Background and Video events
0,0,"wallpaper2you_494710.jpg",0,0
//Break Periods
//Storyboard Layer 0 (Background)
//Storyboard Layer 1 (Fail)
//Storyboard Layer 2 (Pass)
//Storyboard Layer 3 (Foreground)
//Storyboard Sound Samples

[TimingPoints]
-4,600,4,2,0,100,1,0
57596,-100,4,2,0,100,0,1
75596,-100,4,2,0,100,0,0
76796,-100,4,2,0,100,0,1
115196,-100,4,2,0,100,0,0

[HitObjects]
143,65,8996,5,8,0:0:0:0:
170,118,9596,1,0,0:0:0:0:
302,221,10796,1,0,0:0:0:0:
182,31,11996,1,0,0:0:0:0:
139,250,13196,1,0,0:0:0:0:
163,140,13796,1,8,0:0:0:0:
139,249,14396,5,0,0:0:0:0:
242,50,15596,1,0,0:0:0:0:
151,254,16796,1,0,0:0:0:0:
243,49,17996,1,0,0:0:0:0:
197,151,18596,1,8,0:0:0:0:
197,151,19196,5,4,0:0:0:0:
307,170,19796,1,8,0:0:0:0:
83,165,20996,1,8,0:0:0:0:
305,136,22196,1,8,0:0:0:0:
291,106,23396,1,8,0:0:0:0:
214,187,23996,5,0,0:0:0:0:
292,106,24596,1,8,0:0:0:0:
91,206,25796,1,8,0:0:0:0:
260,59,26996,1,8,0:0:0:0:
70,177,28196,1,8,0:0:0:0:
166,119,28796,5,0,0:0:0:0:
70,177,29396,1,8,0:0:0:0:
121,77,29996,1,0,0:0:0:0:
293,171,30596,1,8,0:0:0:0:
72,130,31796,1,8,0:0:0:0:
295,114,32996,1,8,0:0:0:0:
187,145,33596,5,0,0:0:0:0:
80,179,34196,1,8,0:0:0:0:
124,113,35396,1,8,0:0:0:0:
231,81,35996,1,8,0:0:0:0:
231,81,36596,1,8,0:0:0:0:
231,81,37196,1,8,0:0:0:0:
133,136,37796,1,0,0:0:0:0:
133,136,38396,5,4,0:0:0:0:
241,163,38996,1,8,0:0:0:0:
24,105,40196,1,8,0:0:0:0:
243,151,41396,1,8,0:0:0:0:
243,151,42596,1,8,0:0:0:0:
133,126,43196,5,0,0:0:0:0:
133,126,43796,1,8,0:0:0:0:
345,197,44996,1,8,0:0:0:0:
121,183,46196,1,8,0:0:0:0:
121,183,47396,1,8,0:0:0:0:
121,183,47996,5,0,0:0:0:0:
121,183,48596,1,8,0:0:0:0:
198,102,49196,1,0,0:0:0:0:
312,66,49796,1,8,0:0:0:0:
117,176,50996,1,8,0:0:0:0:
308,59,52196,1,8,0:0:0:0:
212,117,52796,5,0,0:0:0:0:
117,176,53396,1,8,0:0:0:0:
139,129,54596,1,8,0:0:0:0:
139,129,55796,1,8,0:0:0:0:
245,165,56396,1,0,0:0:0:0:
245,165,57596,5,4,0:0:0:0:
161,90,58196,1,8,0:0:0:0:
375,155,59396,1,8,0:0:0:0:
263,150,59996,1,0,0:0:0:0:
151,145,60596,1,8,0:0:0:0:
371,102,61796,1,8,0:0:0:0:
261,124,62396,5,0,0:0:0:0:
370,102,62996,1,8,0:0:0:0:
146,122,64196,1,8,0:0:0:0:
257,136,64796,1,0,0:0:0:0:
145,124,65396,1,8,0:0:0:0:
344,226,66596,1,8,0:0:0:0:
244,174,67196,5,0,0:0:0:0:
143,123,67796,1,8,0:0:0:0:
154,82,68996,1,8,0:0:0:0:
154,82,69596,1,0,0:0:0:0:
154,82,70196,1,8,0:0:0:0:
368,145,71396,1,8,0:0:0:0:
260,113,71996,5,0,0:0:0:0:
260,113,72596,1,8,0:0:0:0:
148,110,73196,1,0,0:0:0:0:
259,113,73796,1,8,0:0:0:0:
49,34,74996,1,8,0:0:0:0:
149,84,75596,1,0,0:0:0:0:
349,184,76796,5,4,0:0:0:0:
238,168,77396,1,8,0:0:0:0:
238,168,78596,1,8,0:0:0:0:
238,168,79196,1,0,0:0:0:0:
142,110,79796,1,8,0:0:0:0:
364,139,80996,1,8,0:0:0:0:
252,124,81596,5,0,0:0:0:0:
140,110,82196,1,8,0:0:0:0:
215,321,83396,1,8,0:0:0:0:
289,237,83996,1,0,0:0:0:0:
364,154,84596,1,8,0:0:0:0:
142,123,85796,1,8,0:0:0:0:
142,123,86396,5,0,0:0:0:0:
142,123,86996,1,8,0:0:0:0:
359,177,88196,1,8,0:0:0:0:
250,150,88796,1,0,0:0:0:0:
141,122,89396,1,8,0:0:0:0:
263,309,90596,1,8,0:0:0:0:
201,215,91196,5,0,0:0:0:0:
140,120,91796,1,8,0:0:0:0:
362,144,92996,1,8,0:0:0:0:
250,131,93596,1,0,0:0:0:0:
250,131,94196,1,8,0:0:0:0:
147,147,95396,1,8,0:0:0:0:
147,147,95996,5,0,0:0:0:0:
147,147,96596,1,8,0:0:0:0:
351,237,97796,1,8,0:0:0:0:
248,191,98396,1,0,0:0:0:0:
145,146,98996,1,8,0:0:0:0:
369,146,100196,1,8,0:0:0:0:
257,146,100796,5,0,0:0:0:0:
145,146,101396,1,8,0:0:0:0:
368,133,102596,1,8,0:0:0:0:
256,138,103196,1,0,0:0:0:0:
256,138,103796,1,8,0:0:0:0:
32,122,104996,1,8,0:0:0:0:
143,130,105596,5,0,0:0:0:0:
3,120,106196,1,8,0:0:0:0:
220,172,107396,1,8,0:0:0:0:
220,172,107996,1,0,0:0:0:0:
220,172,108596,1,8,0:0:0:0:
220,109,109796,1,8,0:0:0:0:
220,109,110396,5,0,0:0:0:0:
220,109,110996,1,8,0:0:0:0:
191,331,112196,1,8,0:0:0:0:
205,219,112796,1,0,0:0:0:0:
220,108,113396,1,8,0:0:0:0:
220,108,113996,1,8,0:0:0:0:
109,126,114596,1,0,0:0:0:0:
66,134,115196,5,4,0:0:0:0:
176,151,115796,1,8,0:0:0:0:
384,68,117296,1,4,0:0:0:0:
166,120,118496,1,12,0:0:0:0:
108,109,119696,1,4,0:0:0:0:
497,65,121796,1,0,0:0:0:0:
277,107,122996,1,8,0:0:0:0:
71,197,124196,1,8,0:0:0:0:
173,152,124796,5,8,0:0:0:0:
167,128,125696,1,0,0:0:0:0:
389,100,126896,1,12,0:0:0:0:
166,128,128096,1,4,0:0:0:0:
369,35,129296,1,12,0:0:0:0:
13,199,131396,1,0,0:0:0:0:
223,121,132596,1,8,0:0:0:0:
243,107,133796,1,8,0:0:0:0:
243,107,134396,5,4,0:0:0:0:
131,111,134996,1,8,0:0:0:0:
353,137,136496,1,12,0:0:0:0:
129,128,137696,1,4,0:0:0:0:
282,291,138896,1,12,0:0:0:0:
147,113,139796,1,8,0:0:0:0:
254,145,140396,1,0,0:0:0:0:
146,113,141296,1,8,0:0:0:0:
168,73,142496,1,0,0:0:0:0:
251,147,143396,1,8,0:0:0:0:
251,147,143996,5,0,0:0:0:0:
83,141,144896,1,8,0:0:0:0:
301,91,146096,1,4,0:0:0:0:
91,170,147296,1,12,0:0:0:0:
140,112,148496,1,4,0:0:0:0:
144,279,149396,1,8,0:0:0:0:
58,72,150896,1,0,0:0:0:0:
240,201,152096,1,8,0:0:0:0:
155,112,153596,5,4,0:0:0:0:
366,185,154796,1,8,0:0:0:0:
106,136,155996,1,8,0:0:0:0:
329,142,157196,1,0,0:0:0:0:
137,129,158396,1,8,0:0:0:0:
343,216,159596,1,0,0:0:0:0:
137,129,160796,1,0,0:0:0:0:
137,129,161996,1,8,0:0:0:0:
137,129,163196,5,8,0:0:0:0:
360,142,164396,1,0,0:0:0:0:
137,129,165596,1,0,0:0:0:0:
356,84,166796,1,8,0:0:0:0:
137,129,167996,1,8,0:0:0:0:
344,212,169196,1,0,0:0:0:0:
137,129,170396,1,0,0:0:0:0:
360,123,171596,1,0,0:0:0:0:
137,129,172796,5,8,0:0:0:0:
360,141,173996,1,0,0:0:0:0:
83,152,175196,1,8,0:0:0:0:
305,128,176396,1,0,0:0:0:0:
339,124,177596,1,0,0:0:0:0:
118,82,178796,1,8,0:0:0:0:
120,173,179996,1,0,0:0:0:0:
343,157,181196,1,8,0:0:0:0:
119,145,182396,5,8,0:0:0:0:
119,145,184796,1,8,0:0:0:0:
203,165,187196,1,8,0:0:0:0:
329,103,189596,1,0,0:0:0:0:
113,165,190796,1,8,0:0:0:0:
