osu file format v14

[General]
AudioFilename: audio.mp3
AudioLeadIn: 0
PreviewTime: 20050
Countdown: 0
SampleSet: Soft
StackLeniency: 0.2
Mode: 0
LetterboxInBreaks: 0
WidescreenStoryboard: 0

[Editor]
Bookmarks: 1518,7711,13905,20098,26292,32485,38679,44872,51066,57259,63453,69647,75840,82034,88227,94421,100614,106808,113001,119195
DistanceSpacing: 0.2
BeatDivisor: 4
GridSize: 16
TimelineZoom: 2.600001

[Metadata]
Title:SUPER SUMMER SALE
TitleUnicode:SUPER SUMMER SALE
Artist:BEMANI Sound Team "U1 overground"
ArtistUnicode:BEMANI Sound Team "U1 overground"
Creator:Ritzeh
Version:Extra
Source:BEMANI SUMMER GREETINGS
Tags:yuichi asami
BeatmapID:1789469
BeatmapSetID:856554

[Difficulty]
HPDrainRate:6
CircleSize:4
OverallDifficulty:9
ApproachRate:9.3
SliderMultiplier:1.55
SliderTickRate:1

[Events]
//Background and Video events
0,0,"bg-sss.png",0,0
//Break Periods
//Storyboard Layer 0 (Background)
//Storyboard Layer 1 (Fail)
//Storyboard Layer 2 (Pass)
//Storyboard Layer 3 (Foreground)
//Storyboard Sound Samples

[TimingPoints]
1519,387.096774193548,4,2,1,50,1,0
7712,-66.6666666666667,4,2,1,50,0,0
8873,-50,4,2,1,50,0,0
9648,-100,4,2,1,50,0,0
9841,-50,4,2,1,50,0,0
10809,-66.6666666666667,4,2,1,50,0,0
11970,-50,4,2,1,50,0,0
13906,-66.6666666666667,4,2,1,50,0,0
15067,-50,4,2,1,50,0,0
15454,-66.6666666666667,4,2,1,50,0,0
15841,-100,4,2,1,50,0,0
16035,-50,4,2,1,50,0,0
16615,-40,4,2,1,50,0,0
17002,-66.6666666666667,4,2,1,50,0,0
18164,-40,4,2,1,50,0,0
18648,-50,4,2,1,50,0,0
20099,-80,4,2,1,50,0,0
22422,-66.6666666666667,4,2,1,50,0,0
23196,-80,4,2,1,50,0,0
23583,-66.6666666666667,4,2,1,50,0,0
23970,-80,4,2,1,50,0,0
24357,-66.6666666666667,4,2,1,50,0,0
38680,-57.1428571428571,4,2,1,50,0,0
44873,-66.6666666666667,4,2,1,50,0,0
53777,-100,4,2,1,50,0,0
54551,-66.6666666666667,4,2,1,50,0,0
55518,-100,4,2,1,50,0,0
55906,-66.6666666666667,4,2,1,50,0,0
58422,-50,4,2,1,50,0,0
59196,-100,4,2,1,50,0,0
59389,-50,4,2,1,50,0,0
59970,-40,4,2,1,50,0,0
60357,-66.6666666666667,4,2,1,50,0,0
61518,-50,4,2,1,50,0,0
63454,-66.6666666666667,4,2,1,50,0,0
64615,-50,4,2,1,50,0,0
65002,-66.6666666666667,4,2,1,50,0,0
65389,-100,4,2,1,50,0,0
65583,-50,4,2,1,50,0,0
66164,-36.3636363636364,4,2,1,50,0,0
66551,-57.1428571428571,4,2,1,50,0,0
69648,-66.6666666666667,4,2,1,50,0,0
96841,-133.333333333333,4,2,1,50,0,0
97712,-66.6666666666667,4,2,1,50,0,0
101002,-133.333333333333,4,2,1,50,0,0
101583,-66.6666666666667,4,2,1,50,0,0

[Colours]
Combo1 : 255,192,0
Combo2 : 0,202,0
Combo3 : 18,124,255
Combo4 : 242,24,57

[HitObjects]
69,192,1519,5,0,0:0:0:0:
71,211,1615,1,0,0:0:0:0:
74,229,1712,1,0,0:0:0:0:
251,205,1906,5,0,0:0:0:0:
170,258,2099,1,0,0:0:0:0:
332,152,2293,1,0,0:0:0:0:
251,205,2486,1,0,0:0:0:0:
74,229,2680,5,0,0:0:0:0:
71,211,2777,1,0,0:0:0:0:
67,183,2873,1,0,0:0:0:0:
62,145,2970,1,0,0:0:0:0:
55,96,3067,1,0,0:0:0:0:
43,0,3260,5,0,0:0:0:0:
98,79,3454,1,0,0:0:0:0:
195,79,3648,1,0,0:0:0:0:
263,147,3841,1,0,0:0:0:0:
352,184,4035,1,0,0:0:0:0:
352,184,4422,1,0,0:0:0:0:
286,319,4615,5,0,0:0:0:0:
303,315,4711,1,0,0:0:0:0:
322,313,4808,1,0,0:0:0:0:
453,192,5002,1,0,0:0:0:0:
409,283,5196,1,0,0:0:0:0:
497,101,5389,1,0,0:0:0:0:
453,192,5583,1,0,0:0:0:0:
234,135,5777,5,0,0:0:0:0:
250,138,5874,1,0,0:0:0:0:
278,146,5970,1,0,0:0:0:0:
315,156,6067,1,0,0:0:0:0:
363,168,6164,1,0,0:0:0:0:
43,175,6357,5,0,0:0:0:0:
36,321,6648,1,0,0:0:0:0:
166,257,6938,1,0,0:0:0:0:
293,86,7325,5,0,0:0:0:0:
293,86,7712,5,0,0:0:0:0:
320,76,7809,1,0,0:0:0:0:
348,70,7906,2,0,B|402:67|452:87|442:112,1,116.250004434586,0|0,0:0|0:0,0:0:0:0:
191,167,8293,1,0,0:0:0:0:
219,163,8389,1,0,0:0:0:0:
247,160,8486,2,0,B|344:172|344:172|325:194,1,116.250004434586,0|0,0:0|0:0,0:0:0:0:
106,166,8873,6,0,P|87:192|94:245,1,77.5,0|0,0:0|0:0,0:0:0:0:
51,347,9067,2,0,L|22:256,1,77.5,0|0,0:0|0:0,0:0:0:0:
96,28,9260,5,0,0:0:0:0:
84,64,9357,1,0,0:0:0:0:
89,102,9454,1,0,0:0:0:0:
113,132,9551,1,0,0:0:0:0:
140,104,9648,2,0,L|180:99,1,38.75,0|0,0:0|0:0,0:0:0:0:
344,86,9841,6,0,B|255:93|255:93|254:151|200:168,1,155,0|0,0:0|0:0,0:0:0:0:
191,178,10131,1,0,0:0:0:0:
184,224,10228,1,0,0:0:0:0:
211,261,10325,1,0,0:0:0:0:
251,226,10422,6,0,B|308:228|308:228|340:252,1,77.5,0|0,0:0|0:0,0:0:0:0:
426,283,10615,2,0,B|368:280|368:280|337:257,1,77.5,0|0,0:0|0:0,0:0:0:0:
436,74,10809,5,0,0:0:0:0:
443,102,10906,1,0,0:0:0:0:
449,130,11002,2,0,B|355:137|345:158|366:175,1,116.250004434586,0|0,0:0|0:0,0:0:0:0:
476,320,11389,1,0,0:0:0:0:
451,305,11486,1,0,0:0:0:0:
423,301,11583,2,0,B|331:320|331:320|335:299,1,116.250004434586,0|0,0:0|0:0,0:0:0:0:
484,137,11970,6,0,B|504:173|504:173|490:245|490:245|455:264,1,155,0|0,0:0|0:0,0:0:0:0:
291,187,12357,5,0,0:0:0:0:
287,148,12454,1,0,0:0:0:0:
288,110,12551,2,0,B|289:70|289:70|306:27,1,77.5,0|0,0:0|0:0,0:0:0:0:
410,187,12744,5,0,0:0:0:0:
380,161,12841,2,0,B|364:124|364:124|361:78,1,77.5,0|0,0:0|0:0,0:0:0:0:
169,104,13035,1,0,0:0:0:0:
197,129,13131,2,0,B|209:150|209:150|216:202,1,77.5,0|0,0:0|0:0,0:0:0:0:
141,346,13325,5,0,0:0:0:0:
175,327,13422,1,0,0:0:0:0:
208,308,13518,2,0,L|279:271,1,77.5,0|0,0:0|0:0,0:0:0:0:
117,217,13712,2,0,P|122:252|170:249,1,77.5,0|0,0:0|0:0,0:0:0:0:
243,70,13906,5,0,0:0:0:0:
217,56,14002,1,0,0:0:0:0:
189,47,14099,2,0,B|163:40|163:40|103:80|103:80|105:112,1,116.250004434586,0|0,0:0|0:0,0:0:0:0:
291,138,14486,1,0,0:0:0:0:
261,143,14583,1,0,0:0:0:0:
232,147,14680,2,0,B|196:145|188:249|226:255,1,116.250004434586,0|0,0:0|0:0,0:0:0:0:
347,367,15067,6,0,B|308:369|308:369|276:346,1,77.5,0|0,0:0|0:0,0:0:0:0:
316,215,15260,2,0,B|311:240|311:240|332:287,1,77.5,0|0,0:0|0:0,0:0:0:0:
446,236,15454,5,0,0:0:0:0:
464,213,15551,1,0,0:0:0:0:
464,183,15648,1,0,0:0:0:0:
463,154,15744,1,0,0:0:0:0:
417,158,15841,2,0,B|355:143,1,38.75,0|0,0:0|0:0,0:0:0:0:
302,123,16035,6,0,P|226:169|296:226,1,155,0|0,0:0|0:0,0:0:0:0:
295,241,16325,1,0,0:0:0:0:
250,265,16421,1,0,0:0:0:0:
205,289,16518,1,0,0:0:0:0:
163,338,16615,6,0,B|170:270|170:270|154:234,1,96.875,0|0,0:0|0:0,0:0:0:0:
154,149,16809,2,0,B|145:217|145:217|158:243,1,96.875
353,320,17002,5,0,0:0:0:0:
362,292,17099,1,0,0:0:0:0:
371,264,17196,2,0,B|365:233|365:233|322:204|322:204|304:173,1,116.250004434586,0|0,0:0|0:0,0:0:0:0:
397,29,17583,1,0,0:0:0:0:
396,58,17680,1,0,0:0:0:0:
395,88,17777,2,0,B|391:152|391:152|426:174|426:174|452:159,1,116.250004434586,0|0,0:0|0:0,0:0:0:0:
98,147,18164,6,0,B|128:128|128:128|183:149|248:161|248:161|258:194,1,193.75,0|0,0:0|0:0,0:0:0:0:
55,267,18551,5,0,0:0:0:0:
80,249,18648,1,0,0:0:0:0:
105,232,18744,2,0,L|188:225,1,77.5,0|0,0:0|0:0,0:0:0:0:
397,284,18938,5,0,0:0:0:0:
395,315,19035,2,0,B|389:332|389:332|318:345,1,77.5,0|0,0:0|0:0,0:0:0:0:
321,116,19228,1,0,0:0:0:0:
344,136,19325,2,0,L|331:233,1,77.5,0|0,0:0|0:0,0:0:0:0:
148,36,19518,5,0,0:0:0:0:
178,32,19615,2,0,P|226:64|198:116,1,77.5,0|0,0:0|0:0,0:0:0:0:
57,176,19809,1,0,0:0:0:0:
62,147,19906,2,0,L|148:129,1,77.5,0|0,0:0|0:0,0:0:0:0:
421,84,20099,5,0,0:0:0:0:
381,267,20293,1,0,0:0:0:0:
319,80,20486,1,0,0:0:0:0:
333,99,20583,2,0,L|317:201,1,96.875,0|0,0:0|0:0,0:0:0:0:
249,384,20873,6,0,B|227:311|238:281|238:281|291:262,1,145.3125,0|0,0:0|0:0,0:0:0:0:
491,329,21260,2,0,P|488:305|483:282,1,48.4375,0|0,0:0|0:0,0:0:0:0:
426,376,21454,2,0,P|423:352|418:329,1,48.4375,0|0,0:0|0:0,0:0:0:0:
120,308,21648,5,0,0:0:0:0:
365,226,21841,1,0,0:0:0:0:
133,129,22035,1,0,0:0:0:0:
148,147,22131,2,0,P|197:125|273:118,1,96.875,0|0,0:0|0:0,0:0:0:0:
21,222,22422,5,0,0:0:0:0:
46,234,22518,2,0,B|66:246|66:246|52:168|52:168|90:123,1,116.250004434586,0|0,0:0|0:0,0:0:0:0:
177,83,22809,2,0,L|329:64,1,116.250004434586,0|0,0:0|0:0,0:0:0:0:
512,274,23196,6,0,P|456:233|399:255,1,96.875,0|0,0:0|0:0,0:0:0:0:
283,321,23486,1,0,0:0:0:0:
291,341,23583,2,0,B|301:362|301:362|333:348|370:348|370:348|394:397,1,116.250004434586,0|0,0:0|0:0,0:0:0:0:
201,130,23970,5,0,0:0:0:0:
219,146,24067,2,0,L|204:243,1,96.875,0|0,0:0|0:0,0:0:0:0:
179,374,24357,2,0,B|205:349|205:349|208:304|206:256|206:256|235:239,1,116.250004434586,0|0,0:0|0:0,0:0:0:0:
380,154,24744,6,0,L|368:241,1,58.1250022172929,0|0,0:0|0:0,0:0:0:0:
361,298,24938,1,0,0:0:0:0:
443,79,25131,6,0,L|456:201,1,116.250004434586,0|0,0:0|0:0,0:0:0:0:
110,178,25518,5,0,0:0:0:0:
148,136,25614,1,0,0:0:0:0:
203,118,25711,1,0,0:0:0:0:
260,129,25808,1,0,0:0:0:0:
301,188,25906,6,0,L|316:125,1,58.1250022172929,0|0,0:0|0:0,0:0:0:0:
373,62,26099,2,0,L|359:118,1,58.1250022172929,0|0,0:0|0:0,0:0:0:0:
108,309,26293,5,0,0:0:0:0:
121,333,26389,2,0,B|168:310|216:322|216:322|226:307,1,116.250004434586,0|0,0:0|0:0,0:0:0:0:
12,242,26680,2,0,L|195:218,1,174.375006651879,0|0,0:0|0:0,0:0:0:0:
184,129,27067,6,0,B|141:136|141:136|94:184,1,58.1250022172929,0|0,0:0|0:0,0:0:0:0:
0,157,27260,2,0,B|42:149|42:149|89:101,1,58.1250022172929,0|0,0:0|0:0,0:0:0:0:
215,51,27454,2,0,B|248:24|248:24|266:104|268:201,1,174.375006651879,0|0,0:0|0:0,0:0:0:0:
305,349,27841,5,0,0:0:0:0:
347,157,28035,1,0,0:0:0:0:
405,296,28228,1,0,0:0:0:0:
415,268,28325,1,0,0:0:0:0:
416,238,28422,1,0,0:0:0:0:
406,210,28518,1,0,0:0:0:0:
359,158,28615,6,0,B|358:182|358:182|344:212,1,58.1250022172929,0|0,0:0|0:0,0:0:0:0:
277,132,28809,2,0,B|278:106|278:106|292:76,1,58.1250022172929,0|0,0:0|0:0,0:0:0:0:
187,280,29002,2,0,P|179:227|275:252,1,174.375006651879,0|0,0:0|0:0,0:0:0:0:
193,8,29389,5,0,0:0:0:0:
298,130,29583,1,0,0:0:0:0:
51,220,29777,1,0,0:0:0:0:
90,201,29873,1,0,0:0:0:0:
134,198,29970,1,0,0:0:0:0:
176,210,30067,1,0,0:0:0:0:
186,253,30164,6,0,L|228:176,1,58.1250022172929,0|0,0:0|0:0,0:0:0:0:
226,64,30357,2,0,P|207:86|198:115,1,58.1250022172929,0|0,0:0|0:0,0:0:0:0:
277,329,30551,2,0,L|286:200,1,116.250004434586,0|0,0:0|0:0,0:0:0:0:
37,150,30938,6,0,P|88:172|168:164,1,116.250004434586,0|0,0:0|0:0,0:0:0:0:
356,215,31325,1,0,0:0:0:0:
314,202,31421,1,0,0:0:0:0:
271,202,31518,1,0,0:0:0:0:
229,215,31615,1,0,0:0:0:0:
182,264,31712,6,0,L|171:208,1,58.1250022172929,0|0,0:0|0:0,0:0:0:0:
351,162,31906,2,0,L|363:219,1,58.1250022172929,0|0,0:0|0:0,0:0:0:0:
179,117,32099,2,0,L|301:91,1,116.250004434586,0|0,0:0|0:0,0:0:0:0:
421,333,32486,6,0,P|433:276|429:218,1,116.250004434586
385,14,32873,1,0,0:0:0:0:
380,178,33067,1,0,0:0:0:0:
89,213,33260,1,0,0:0:0:0:
146,206,33356,1,0,0:0:0:0:
204,199,33453,1,0,0:0:0:0:
262,192,33550,1,0,0:0:0:0:
319,185,33648,2,0,L|182:231,1,116.250004434586,0|0,0:0|0:0,0:0:0:0:
16,116,34035,5,0,0:0:0:0:
58,146,34131,1,0,0:0:0:0:
99,178,34228,1,0,0:0:0:0:
299,101,34422,1,0,0:0:0:0:
111,87,34615,1,0,0:0:0:0:
373,161,34809,1,0,0:0:0:0:
316,173,34905,1,0,0:0:0:0:
259,186,35002,1,0,0:0:0:0:
56,255,35196,2,0,P|120:259|187:214,1,116.250004434586,0|0,0:0|0:0,0:0:0:0:
429,102,35583,5,0,0:0:0:0:
371,302,35777,1,0,0:0:0:0:
332,17,35970,1,0,0:0:0:0:
438,188,36164,1,0,0:0:0:0:
252,89,36357,1,0,0:0:0:0:
256,131,36453,1,0,0:0:0:0:
262,174,36550,1,0,0:0:0:0:
266,216,36647,1,0,0:0:0:0:
334,260,36744,6,0,L|178:285,1,116.250004434586,0|0,0:0|0:0,0:0:0:0:
14,237,37131,5,0,0:0:0:0:
41,229,37227,1,0,0:0:0:0:
69,221,37324,1,0,0:0:0:0:
126,96,37518,1,0,0:0:0:0:
153,88,37614,1,0,0:0:0:0:
181,80,37711,1,0,0:0:0:0:
239,279,37906,6,0,B|251:237|251:237|276:213,1,58.1250022172929,0|0,0:0|0:0,0:0:0:0:
420,166,38099,2,0,B|407:207|407:207|382:231,1,58.1250022172929,0|0,0:0|0:0,0:0:0:0:
215,115,38293,2,0,L|337:164,1,116.250004434586,0|0,0:0|0:0,0:0:0:0:
68,366,38680,6,0,B|98:343|98:343|139:325,1,67.8125006467104,0|0,0:0|0:0,0:0:0:0:
239,279,38873,2,0,B|201:273|201:273|160:256,1,67.8125006467104,0|0,0:0|0:0,0:0:0:0:
32,49,39067,2,0,P|35:117|40:185,1,135.625001293421,0|0,0:0|0:0,0:0:0:0:
236,215,39454,5,0,0:0:0:0:
186,209,39550,1,0,0:0:0:0:
147,240,39647,1,0,0:0:0:0:
140,289,39744,1,0,0:0:0:0:
258,345,39841,6,0,P|246:303|223:273,1,67.8125006467104,0|0,0:0|0:0,0:0:0:0:
204,160,40035,2,0,P|241:181|279:186,1,67.8125006467104,0|0,0:0|0:0,0:0:0:0:
512,48,40228,5,0,0:0:0:0:
264,104,40422,1,0,0:0:0:0:
512,179,40615,1,0,0:0:0:0:
478,174,40711,1,0,0:0:0:0:
444,169,40808,1,0,0:0:0:0:
393,107,41002,1,0,0:0:0:0:
365,126,41098,1,0,0:0:0:0:
337,147,41196,2,0,L|355:224,1,67.8125006467104,0|0,0:0|0:0,0:0:0:0:
449,68,41389,2,0,L|488:244,1,135.625001293421,0|0,0:0|0:0,0:0:0:0:
135,320,41777,6,0,P|146:232|146:170,1,135.625001293421,0|0,0:0|0:0,0:0:0:0:
177,10,42164,2,0,L|183:77,1,67.8125006467104,0|0,0:0|0:0,0:0:0:0:
217,293,42357,2,0,P|216:238|233:198,1,67.8125006467104,0|0,0:0|0:0,0:0:0:0:
320,127,42551,1,0,0:0:0:0:
270,131,42647,1,0,0:0:0:0:
219,136,42744,1,0,0:0:0:0:
169,140,42841,1,0,0:0:0:0:
118,145,42938,2,0,L|275:184,1,135.625001293421,0|0,0:0|0:0,0:0:0:0:
411,72,43325,5,0,0:0:0:0:
440,99,43422,2,0,B|431:119|431:119|429:175,1,67.8125006467104,0|0,0:0|0:0,0:0:0:0:
409,291,43615,1,0,0:0:0:0:
380,264,43712,2,0,B|389:244|389:244|391:188,1,67.8125006467104,0|0,0:0|0:0,0:0:0:0:
315,14,43906,2,0,P|327:45|324:78,1,67.8125006467104,0|0,0:0|0:0,0:0:0:0:
264,279,44099,5,0,0:0:0:0:
232,258,44196,2,0,P|192:251|132:316,1,135.625001293421,0|0,0:0|0:0,0:0:0:0:
78,378,44486,2,0,B|95:311|95:311|94:236,1,135.625001293421,0|0,0:0|0:0,0:0:0:0:
57,39,44873,5,0,0:0:0:0:
200,263,45067,1,0,0:0:0:0:
143,70,45260,1,0,0:0:0:0:
199,83,45356,1,0,0:0:0:0:
254,96,45453,1,0,0:0:0:0:
312,111,45550,1,0,0:0:0:0:
389,90,45648,2,0,P|347:127|353:183,1,116.250004434586,0|0,0:0|0:0,0:0:0:0:
419,237,45938,5,0,0:0:0:0:
358,303,46035,2,0,P|403:254|417:213,1,58.1250022172929,0|0,0:0|0:0,0:0:0:0:
275,316,46228,2,0,P|290:251|281:209,1,58.1250022172929,0|0,0:0|0:0,0:0:0:0:
209,366,46422,2,0,P|166:296|109:314,1,116.250004434586,0|0,0:0|0:0,0:0:0:0:
16,208,46712,5,0,0:0:0:0:
110,208,46809,2,0,L|42:191,1,58.1250022172929,0|0,0:0|0:0,0:0:0:0:
164,117,47002,2,0,L|96:136,1,58.1250022172929,0|0,0:0|0:0,0:0:0:0:
161,9,47196,2,0,L|197:209,1,174.375006651879,0|0,0:0|0:0,0:0:0:0:
206,257,47583,1,0,0:0:0:0:
246,32,47777,1,0,0:0:0:0:
306,281,47970,5,0,0:0:0:0:
298,271,48067,1,0,0:0:0:0:
289,256,48164,1,0,0:0:0:0:
278,235,48260,1,0,0:0:0:0:
272,206,48357,1,0,0:0:0:0:
275,171,48454,1,0,0:0:0:0:
291,132,48551,1,0,0:0:0:0:
323,100,48648,1,0,0:0:0:0:
371,81,48744,6,0,B|281:39|228:77|228:77|265:28|265:28|216:64|103:78,1,348.750013303757,0|0,0:0|0:0,0:0:0:0:
391,170,49518,5,0,0:0:0:0:
173,250,49712,1,0,0:0:0:0:
375,306,49906,2,0,L|248:263,1,116.250004434586,0|0,0:0|0:0,0:0:0:0:
262,154,50293,1,0,0:0:0:0:
57,257,50486,2,0,L|115:239,1,58.1250022172929,0|0,0:0|0:0,0:0:0:0:
282,235,50680,2,0,L|226:251,1,58.1250022172929,0|0,0:0|0:0,0:0:0:0:
33,183,50873,1,0,0:0:0:0:
309,310,51067,5,0,0:0:0:0:
334,286,51164,1,0,0:0:0:0:
368,284,51260,1,0,0:0:0:0:
395,304,51357,1,0,0:0:0:0:
442,355,51454,5,0,0:0:0:0:
444,316,51550,1,0,0:0:0:0:
446,277,51647,1,0,0:0:0:0:
448,238,51744,1,0,0:0:0:0:
512,239,51841,5,0,0:0:0:0:
503,200,51937,1,0,0:0:0:0:
495,162,52034,1,0,0:0:0:0:
487,124,52131,1,0,0:0:0:0:
472,35,52228,5,0,0:0:0:0:
450,66,52324,1,0,0:0:0:0:
419,89,52421,1,0,0:0:0:0:
381,97,52518,1,0,0:0:0:0:
324,50,52616,5,0,0:0:0:0:
321,89,52713,1,0,0:0:0:0:
319,127,52810,1,0,0:0:0:0:
316,166,52906,1,0,0:0:0:0:
270,233,53002,5,0,0:0:0:0:
301,211,53098,1,0,0:0:0:0:
338,205,53195,1,0,0:0:0:0:
375,217,53292,1,0,0:0:0:0:
396,269,53389,5,0,0:0:0:0:
357,277,53485,1,0,0:0:0:0:
319,285,53582,1,0,0:0:0:0:
281,293,53679,1,0,0:0:0:0:
209,306,53777,6,0,P|283:313|289:393,1,155,0|0,0:0|0:0,0:0:0:0:
124,295,54357,1,0,0:0:0:0:
214,172,54551,2,0,L|221:246,1,58.1250022172929,0|0,0:0|0:0,0:0:0:0:
148,114,54744,2,0,L|141:188,1,58.1250022172929,0|0,0:0|0:0,0:0:0:0:
338,78,54938,2,0,B|321:79|321:79|269:66,1,58.1250022172929,0|0,0:0|0:0,0:0:0:0:
419,140,55131,2,0,B|402:139|402:139|350:152,1,58.1250022172929,0|0,0:0|0:0,0:0:0:0:
77,125,55325,1,0,0:0:0:0:
133,140,55422,1,0,0:0:0:0:
188,154,55518,6,0,P|211:224|166:228,1,116.25,0|0,0:0|0:0,0:0:0:0:
109,318,55906,2,0,L|174:301,1,58.1250022172929,0|0,0:0|0:0,0:0:0:0:
264,305,56099,5,0,0:0:0:0:
257,275,56195,1,0,0:0:0:0:
250,247,56292,1,0,0:0:0:0:
244,219,56389,1,0,0:0:0:0:
191,212,56486,5,0,0:0:0:0:
189,178,56582,1,0,0:0:0:0:
188,145,56679,1,0,0:0:0:0:
186,112,56776,1,0,0:0:0:0:
236,138,56873,5,0,0:0:0:0:
256,99,56969,1,0,0:0:0:0:
291,75,57066,1,0,0:0:0:0:
334,68,57163,1,0,0:0:0:0:
427,97,57260,5,0,0:0:0:0:
398,102,57356,1,0,0:0:0:0:
372,114,57454,2,0,P|336:160|364:230,1,116.250004434586,0|0,0:0|0:0,0:0:0:0:
512,299,57841,1,0,0:0:0:0:
483,306,57937,1,0,0:0:0:0:
455,313,58035,2,0,L|315:303,1,116.250004434586,0|0,0:0|0:0,0:0:0:0:
160,347,58422,6,0,P|166:311|149:251,1,77.5,0|0,0:0|0:0,0:0:0:0:
59,163,58615,2,0,P|66:199|111:208,1,77.5,0|0,0:0|0:0,0:0:0:0:
189,115,58809,1,0,0:0:0:0:
226,119,58905,1,0,0:0:0:0:
265,113,59002,1,0,0:0:0:0:
298,95,59099,1,0,0:0:0:0:
344,116,59196,6,0,L|337:154,1,38.75,0|0,0:0|0:0,0:0:0:0:
324,273,59389,6,0,B|329:234|329:234|400:207|400:207|415:148,1,155,0|0,0:0|0:0,0:0:0:0:
418,106,59680,1,0,0:0:0:0:
437,153,59776,1,0,0:0:0:0:
457,200,59873,1,0,0:0:0:0:
495,267,59970,6,0,B|474:256|461:234|461:234|446:256|423:265,1,96.875,0|0,0:0|0:0,0:0:0:0:
285,341,60164,2,0,B|297:320|297:295|297:295|321:306|346:303,1,96.875,0|0,0:0|0:0,0:0:0:0:
181,364,60357,5,0,0:0:0:0:
147,360,60454,1,0,0:0:0:0:
118,357,60551,2,0,B|60:353|95:245|95:245,1,116.250004434586,0|0,0:0|0:0,0:0:0:0:
174,131,60938,1,0,0:0:0:0:
155,152,61035,1,0,0:0:0:0:
129,163,61131,2,0,B|111:162|111:162|72:148|31:163|31:163|-33:145,1,116.250004434586,0|0,0:0|0:0,0:0:0:0:
263,46,61518,6,0,B|238:68|238:68|253:113|257:155|257:155|298:176,1,155,0|0,0:0|0:0,0:0:0:0:
512,119,61906,5,0,0:0:0:0:
473,122,62002,1,0,0:0:0:0:
434,125,62099,2,0,B|409:130|409:130|367:164,1,77.5,0|0,0:0|0:0,0:0:0:0:
201,326,62293,5,0,0:0:0:0:
201,287,62389,2,0,L|205:198,1,77.5,0|0,0:0|0:0,0:0:0:0:
281,81,62583,1,0,0:0:0:0:
281,120,62680,2,0,L|285:209,1,77.5
47,202,62873,5,0,0:0:0:0:
77,225,62970,1,0,0:0:0:0:
115,228,63067,2,0,P|163:208|183:175,1,77.5,0|0,0:0|0:0,0:0:0:0:
189,34,63260,2,0,L|206:121,1,77.5,0|0,0:0|0:0,0:0:0:0:
262,334,63454,5,0,0:0:0:0:
290,338,63550,1,0,0:0:0:0:
318,331,63648,2,0,B|336:309|336:309|342:278|338:246|338:246|363:217,1,116.250004434586,0|0,0:0|0:0,0:0:0:0:
404,48,64035,1,0,0:0:0:0:
408,76,64132,1,0,0:0:0:0:
411,105,64228,2,0,P|389:157|336:176,1,116.250004434586,0|0,0:0|0:0,0:0:0:0:
41,126,64615,6,0,B|68:119|68:119|168:142,1,77.5,0|0,0:0|0:0,0:0:0:0:
73,283,64809,2,0,B|63:247|63:247|71:207,1,77.5,0|0,0:0|0:0,0:0:0:0:
218,69,65002,5,0,0:0:0:0:
232,94,65099,1,0,0:0:0:0:
239,122,65196,1,0,0:0:0:0:
243,150,65293,1,0,0:0:0:0:
214,190,65389,6,0,L|261:207,1,38.75,0|0,0:0|0:0,0:0:0:0:
378,249,65583,2,0,B|477:278|481:288|481:288|463:302|447:319,1,155,0|0,0:0|0:0,0:0:0:0:
398,361,65873,1,0,0:0:0:0:
346,353,65969,1,0,0:0:0:0:
295,346,66066,1,0,0:0:0:0:
215,319,66164,6,0,B|268:310|268:310|319:269,1,106.562501016259,0|0,0:0|0:0,0:0:0:0:
487,256,66357,2,0,B|434:265|434:265|383:306,1,106.562501016259,0|0,0:0|0:0,0:0:0:0:
164,244,66551,5,0,0:0:0:0:
192,236,66648,1,0,0:0:0:0:
220,233,66744,2,0,P|247:291|218:354,1,135.625001293421,0|0,0:0|0:0,0:0:0:0:
0,289,67131,1,0,0:0:0:0:
34,285,67228,1,0,0:0:0:0:
65,273,67325,2,0,B|92:251|92:208|92:208|123:176|116:146,1,135.625001293421,0|0,0:0|0:0,0:0:0:0:
0,24,67712,5,0,0:0:0:0:
49,34,67808,1,0,0:0:0:0:
99,44,67905,1,0,0:0:0:0:
149,54,68002,1,0,0:0:0:0:
208,89,68099,5,0,0:0:0:0:
174,96,68195,1,0,0:0:0:0:
141,103,68293,2,0,L|158:177,1,67.8125006467104,0|0,0:0|0:0,0:0:0:0:
190,307,68486,1,0,0:0:0:0:
223,300,68584,2,0,L|206:226,1,67.8125006467104,0|0,0:0|0:0,0:0:0:0:
69,215,68777,1,0,0:0:0:0:
36,222,68873,2,0,L|53:296,1,67.8125006467104
252,159,69067,5,0,0:0:0:0:
292,159,69164,1,0,0:0:0:0:
323,184,69260,2,0,P|338:222|326:276,1,67.8125006467104,0|0,0:0|0:0,0:0:0:0:
334,384,69454,2,0,L|354:320,1,67.8125006467104,0|0,0:0|0:0,0:0:0:0:
301,98,69648,5,0,0:0:0:0:
327,109,69744,2,0,P|385:113|452:113,1,116.250004434586,0|0,0:0|0:0,0:0:0:0:
512,78,70035,1,0,0:0:0:0:
248,78,70228,1,0,0:0:0:0:
485,0,70422,1,0,0:0:0:0:
320,35,70615,2,0,P|363:1|411:28,1,116.250004434586,0|0,0:0|0:0,0:0:0:0:
496,192,71002,5,0,0:0:0:0:
233,337,71196,6,0,L|314:340,1,58.1250022172929,0|0,0:0|0:0,0:0:0:0:
440,273,71389,2,0,L|360:291,1,58.1250022172929,0|0,0:0|0:0,0:0:0:0:
215,256,71583,1,0,0:0:0:0:
416,192,71777,5,0,0:0:0:0:
257,381,71970,6,0,P|257:316|204:268,1,116.250004434586,0|0,0:0|0:0,0:0:0:0:
69,346,72260,1,0,0:0:0:0:
99,331,72357,2,0,L|160:301,1,58.1250022172929,0|0,0:0|0:0,0:0:0:0:
336,192,72551,5,0,0:0:0:0:
227,37,72744,5,0,0:0:0:0:
242,275,72938,2,0,L|319:263,1,58.1250022172929,0|0,0:0|0:0,0:0:0:0:
219,0,73131,1,0,0:0:0:0:
256,192,73326,5,0,0:0:0:0:
0,320,73518,5,0,0:0:0:0:
212,346,73712,1,0,0:0:0:0:
144,59,73906,1,0,0:0:0:0:
176,192,74099,5,0,0:0:0:0:
41,8,74293,6,0,L|33:90,1,58.1250022172929,0|0,0:0|0:0,0:0:0:0:
136,329,74486,2,0,L|144:247,1,58.1250022172929,0|0,0:0|0:0,0:0:0:0:
116,44,74680,1,0,0:0:0:0:
96,192,74874,5,0,0:0:0:0:
5,384,75067,5,0,0:0:0:0:
29,367,75164,2,0,P|62:329|53:243,1,116.250004434586,0|0,0:0|0:0,0:0:0:0:
0,62,75454,1,0,0:0:0:0:
16,192,75648,5,0,0:0:0:0:
341,254,75841,5,0,0:0:0:0:
99,304,76035,1,0,0:0:0:0:
311,342,76228,1,0,0:0:0:0:
278,329,76325,2,0,P|225:343|168:376,1,116.250004434586
66,291,76615,1,0,0:0:0:0:
99,304,76712,2,0,P|152:290|209:257,1,116.250004434586,0|0,0:0|0:0,0:0:0:0:
37,372,77002,1,0,0:0:0:0:
16,192,77196,5,0,0:0:0:0:
169,5,77389,5,0,0:0:0:0:
166,33,77486,1,0,0:0:0:0:
239,340,77680,1,0,0:0:0:0:
237,322,77777,2,0,L|230:251,1,58.1250022172929,0|0,0:0|0:0,0:0:0:0:
96,192,77970,5,0,0:0:0:0:
255,112,78164,5,0,0:0:0:0:
225,109,78260,1,0,0:0:0:0:
316,278,78454,1,0,0:0:0:0:
334,280,78551,2,0,L|405:287,1,58.1250022172929,0|0,0:0|0:0,0:0:0:0:
176,192,78744,5,0,0:0:0:0:
379,0,78938,5,0,0:0:0:0:
403,14,79035,2,0,P|439:64|465:121,1,116.250004434586,0|0,0:0|0:0,0:0:0:0:
476,348,79325,1,0,0:0:0:0:
508,249,79518,1,0,0:0:0:0:
267,384,79712,6,0,P|308:365|338:331,1,58.1250022172929,0|0,0:0|0:0,0:0:0:0:
400,298,79906,2,0,P|402:326|397:355,1,58.1250022172929,0|0,0:0|0:0,0:0:0:0:
183,364,80099,1,0,0:0:0:0:
336,192,80293,5,0,0:0:0:0:
133,39,80486,5,0,0:0:0:0:
165,29,80583,1,0,0:0:0:0:
57,290,80777,1,0,0:0:0:0:
84,291,80873,2,0,P|123:284|164:265,1,58.1250022172929,0|0,0:0|0:0,0:0:0:0:
17,53,81067,2,0,P|3:91|-1:135,1,58.1250022172929,0|0,0:0|0:0,0:0:0:0:
157,272,81260,2,0,P|212:260|275:274,1,116.250004434586,0|0,0:0|0:0,0:0:0:0:
285,283,81551,1,0,0:0:0:0:
295,295,81648,1,0,0:0:0:0:
496,192,81841,5,0,0:0:0:0:
171,65,82035,6,0,P|211:49|312:39,1,116.250004434586,0|0,0:0|0:0,0:0:0:0:
492,54,82422,1,0,0:0:0:0:
512,284,82615,1,0,0:0:0:0:
271,316,82809,1,0,0:0:0:0:
313,305,82905,1,0,0:0:0:0:
355,294,83002,1,0,0:0:0:0:
397,283,83099,1,0,0:0:0:0:
439,272,83196,1,0,0:0:0:0:
256,192,83389,5,0,0:0:0:0:
429,351,83583,5,0,0:0:0:0:
372,366,83680,1,0,0:0:0:0:
317,382,83776,1,0,0:0:0:0:
316,65,83970,1,0,0:0:0:0:
439,272,84164,1,0,0:0:0:0:
192,266,84357,1,0,0:0:0:0:
250,275,84454,1,0,0:0:0:0:
306,287,84550,1,0,0:0:0:0:
446,40,84744,1,0,0:0:0:0:
176,192,84938,5,0,0:0:0:0:
148,384,85131,5,0,0:0:0:0:
315,354,85325,1,0,0:0:0:0:
73,336,85518,1,0,0:0:0:0:
236,304,85712,1,0,0:0:0:0:
0,289,85906,1,0,0:0:0:0:
36,313,86002,1,0,0:0:0:0:
73,336,86099,1,0,0:0:0:0:
110,359,86196,1,0,0:0:0:0:
148,384,86293,1,0,0:0:0:0:
336,192,86486,5,0,0:0:0:0:
195,0,86680,5,0,0:0:0:0:
189,28,86776,1,0,0:0:0:0:
183,56,86873,1,0,0:0:0:0:
310,60,87067,1,0,0:0:0:0:
316,88,87163,1,0,0:0:0:0:
322,116,87260,1,0,0:0:0:0:
337,332,87454,2,0,P|346:303|307:265,1,58.1250022172929,0|0,0:0|0:0,0:0:0:0:
183,56,87648,2,0,P|173:84|212:122,1,58.1250022172929,0|0,0:0|0:0,0:0:0:0:
414,78,87841,1,0,0:0:0:0:
96,192,88035,5,0,0:0:0:0:
230,377,88228,6,0,P|229:317|212:254,1,116.250004434586,0|0,0:0|0:0,0:0:0:0:
26,106,88615,1,0,0:0:0:0:
80,350,88809,1,0,0:0:0:0:
302,262,89002,1,0,0:0:0:0:
266,286,89098,1,0,0:0:0:0:
233,313,89195,1,0,0:0:0:0:
200,343,89292,1,0,0:0:0:0:
169,374,89389,1,0,0:0:0:0:
416,192,89583,5,0,0:0:0:0:
70,95,89777,5,0,0:0:0:0:
127,87,89873,1,0,0:0:0:0:
185,79,89970,1,0,0:0:0:0:
319,272,90164,1,0,0:0:0:0:
128,300,90357,1,0,0:0:0:0:
327,38,90551,1,0,0:0:0:0:
270,30,90647,1,0,0:0:0:0:
212,22,90744,1,0,0:0:0:0:
229,311,90938,1,0,0:0:0:0:
16,192,91131,5,0,0:0:0:0:
395,46,91325,5,0,0:0:0:0:
374,67,91422,2,0,P|306:94|236:85,1,116.250004434586,0|0,0:0|0:0,0:0:0:0:
33,51,91712,1,0,0:0:0:0:
110,270,91906,1,0,0:0:0:0:
322,100,92099,1,0,0:0:0:0:
264,104,92195,1,0,0:0:0:0:
206,108,92292,1,0,0:0:0:0:
463,48,92486,1,0,0:0:0:0:
496,192,92680,5,0,0:0:0:0:
256,192,94228,5,0,0:0:0:0:
349,42,94422,5,0,0:0:0:0:
442,115,94615,2,0,L|369:106,1,58.1250022172929,0|0,0:0|0:0,0:0:0:0:
100,57,94809,5,0,0:0:0:0:
121,76,94906,1,0,0:0:0:0:
121,104,95002,1,0,0:0:0:0:
149,110,95099,1,0,0:0:0:0:
163,135,95196,1,0,0:0:0:0:
190,127,95293,1,0,0:0:0:0:
218,132,95389,1,0,0:0:0:0:
237,111,95486,1,0,0:0:0:0:
266,109,95583,1,0,0:0:0:0:
45,108,95777,1,0,0:0:0:0:
272,188,95970,5,0,0:0:0:0:
318,169,96066,1,0,0:0:0:0:
368,176,96163,1,0,0:0:0:0:
407,208,96260,1,0,0:0:0:0:
451,184,96357,5,0,0:0:0:0:
471,235,96453,1,0,0:0:0:0:
462,290,96550,1,0,0:0:0:0:
426,332,96647,1,0,0:0:0:0:
374,351,96744,1,0,0:0:0:0:
346,308,96841,6,0,P|314:307|276:318,1,58.1250022172929,0|0,0:0|0:0,0:0:0:0:
79,328,97131,5,0,0:0:0:0:
212,243,97325,1,0,0:0:0:0:
156,384,97518,1,0,0:0:0:0:
18,379,97712,2,0,L|27:299,1,58.1250022172929,0|0,0:0|0:0,0:0:0:0:
54,36,97906,5,0,0:0:0:0:
61,74,98002,1,0,0:0:0:0:
68,112,98099,1,0,0:0:0:0:
75,150,98196,1,0,0:0:0:0:
121,129,98293,5,0,0:0:0:0:
146,159,98389,1,0,0:0:0:0:
171,188,98486,1,0,0:0:0:0:
196,217,98583,1,0,0:0:0:0:
240,192,98680,5,0,0:0:0:0:
294,204,98776,1,0,0:0:0:0:
321,253,98873,1,0,0:0:0:0:
298,305,98970,1,0,0:0:0:0:
250,323,99067,1,0,0:0:0:0:
260,91,99260,5,0,0:0:0:0:
286,102,99357,1,0,0:0:0:0:
314,108,99454,2,0,P|382:116|394:192,1,116.250004434586,0|0,0:0|0:0,0:0:0:0:
512,148,99744,2,0,P|444:140|432:64,1,116.250004434586,0|0,0:0|0:0,0:0:0:0:
421,73,100035,5,0,0:0:0:0:
423,116,100131,1,0,0:0:0:0:
402,154,100228,1,0,0:0:0:0:
365,175,100325,1,0,0:0:0:0:
322,174,100422,1,0,0:0:0:0:
176,141,100615,5,0,0:0:0:0:
212,164,100711,1,0,0:0:0:0:
249,188,100808,1,0,0:0:0:0:
286,211,100905,1,0,0:0:0:0:
322,235,101002,2,0,P|355:227|397:223,1,58.1250022172929,0|0,0:0|0:0,0:0:0:0:
478,374,101293,1,0,0:0:0:0:
489,345,101389,5,0,0:0:0:0:
512,164,101583,2,0,L|493:224,1,58.1250022172929,0|0,0:0|0:0,0:0:0:0:
432,365,101777,5,0,0:0:0:0:
373,357,101873,1,0,0:0:0:0:
317,342,101970,1,0,0:0:0:0:
265,318,102067,1,0,0:0:0:0:
281,264,102164,5,0,0:0:0:0:
222,273,102260,1,0,0:0:0:0:
164,273,102357,1,0,0:0:0:0:
107,263,102454,1,0,0:0:0:0:
59,237,102551,5,0,0:0:0:0:
89,286,102647,1,0,0:0:0:0:
121,335,102744,1,0,0:0:0:0:
152,384,102841,1,0,0:0:0:0:
179,345,102938,5,0,0:0:0:0:
219,302,103034,1,0,0:0:0:0:
274,287,103131,1,0,0:0:0:0:
329,301,103228,1,0,0:0:0:0:
373,332,103325,5,0,0:0:0:0:
379,274,103422,1,0,0:0:0:0:
387,216,103519,1,0,0:0:0:0:
395,157,103615,1,0,0:0:0:0:
364,38,103712,6,0,L|349:116,1,58.1250022172929
311,202,103906,2,0,L|296:124,1,58.1250022172929
503,103,104099,1,0,0:0:0:0:
107,84,104293,6,0,P|161:102|228:88,1,116.250004434586,0|0,0:0|0:0,0:0:0:0:
31,32,104583,1,0,0:0:0:0:
15,69,104680,2,0,L|24:136,1,58.1250022172929,0|0,0:0|0:0,0:0:0:0:
53,227,104873,5,0,0:0:0:0:
40,171,104969,1,0,0:0:0:0:
60,117,105066,1,0,0:0:0:0:
107,84,105163,1,0,0:0:0:0:
136,133,105260,5,0,0:0:0:0:
177,93,105356,1,0,0:0:0:0:
234,85,105453,1,0,0:0:0:0:
286,108,105550,1,0,0:0:0:0:
292,175,105648,6,0,L|347:157,1,58.1250022172929,0|0,0:0|0:0,0:0:0:0:
493,227,105841,2,0,L|438:247,1,58.1250022172929,0|0,0:0|0:0,0:0:0:0:
292,175,106035,5,0,0:0:0:0:
329,131,106131,1,0,0:0:0:0:
384,114,106228,1,0,0:0:0:0:
440,129,106325,1,0,0:0:0:0:
479,171,106422,6,0,L|499:247,1,58.1250022172929,0|0,0:0|0:0,0:0:0:0:
384,328,106615,2,0,L|369:271,1,58.1250022172929,0|0,0:0|0:0,0:0:0:0:
305,4,106809,5,0,0:0:0:0:
169,217,107002,1,0,0:0:0:0:
200,194,107099,2,0,P|259:180|332:207,1,116.250004434586,0|0,0:0|0:0,0:0:0:0:
160,315,107389,2,0,P|204:273|280:260,1,116.250004434586,0|0,0:0|0:0,0:0:0:0:
295,262,107680,1,0,0:0:0:0:
330,278,107777,1,0,0:0:0:0:
356,305,107873,1,0,0:0:0:0:
374,339,107970,1,0,0:0:0:0:
505,246,108164,1,0,0:0:0:0:
125,220,108357,5,0,0:0:0:0:
326,139,108551,1,0,0:0:0:0:
289,153,108648,2,0,L|277:290,1,116.250004434586,0|0,0:0|0:0,0:0:0:0:
340,371,108938,2,0,L|350:255,1,116.250004434586,0|0,0:0|0:0,0:0:0:0:
360,55,109325,1,0,0:0:0:0:
304,72,109421,1,0,0:0:0:0:
249,89,109518,1,0,0:0:0:0:
443,87,109712,1,0,0:0:0:0:
100,76,109906,5,0,0:0:0:0:
149,305,110099,1,0,0:0:0:0:
172,275,110196,2,0,P|190:203|159:158,1,116.250004434586
187,51,110486,2,0,L|237:204,1,116.250004434586,0|0,0:0|0:0,0:0:0:0:
5,218,110873,1,0,0:0:0:0:
60,202,110969,1,0,0:0:0:0:
114,221,111066,1,0,0:0:0:0:
119,342,111260,1,0,0:0:0:0:
426,262,111454,5,0,0:0:0:0:
200,240,111648,1,0,0:0:0:0:
197,278,111744,2,0,L|209:349,1,58.1250022172929,0|0,0:0|0:0,0:0:0:0:
393,239,111938,1,0,0:0:0:0:
355,231,112034,1,0,0:0:0:0:
316,235,112131,1,0,0:0:0:0:
281,250,112228,1,0,0:0:0:0:
488,181,112422,2,0,P|456:181|421:171,1,58.1250022172929,0|0,0:0|0:0,0:0:0:0:
186,119,112615,6,0,L|250:110,1,58.1250022172929,0|0,0:0|0:0,0:0:0:0:
160,228,112809,2,0,L|210:188,1,58.1250022172929,0|0,0:0|0:0,0:0:0:0:
377,19,113002,5,0,0:0:0:0:
333,188,113196,1,0,0:0:0:0:
356,157,113293,2,0,B|370:124|370:124|364:90,1,58.1250022172929,0|0,0:0|0:0,0:0:0:0:
262,209,113486,1,0,0:0:0:0:
285,240,113583,2,0,B|299:273|299:273|293:307,1,58.1250022172929,0|0,0:0|0:0,0:0:0:0:
22,320,113777,5,0,0:0:0:0:
221,280,113970,1,0,0:0:0:0:
79,268,114164,1,0,0:0:0:0:
124,303,114260,1,0,0:0:0:0:
170,339,114357,1,0,0:0:0:0:
367,201,114551,5,0,0:0:0:0:
197,184,114744,1,0,0:0:0:0:
233,174,114841,2,0,L|291:214,1,58.1250022172929
243,67,115034,1,0,0:0:0:0:
226,101,115131,2,0,L|157:119,1,58.1250022172929,0|0,0:0|0:0,0:0:0:0:
505,98,115325,5,0,0:0:0:0:
299,129,115518,1,0,0:0:0:0:
437,66,115712,1,0,0:0:0:0:
402,112,115808,1,0,0:0:0:0:
367,158,115905,1,0,0:0:0:0:
80,87,116099,5,2,0:0:0:0:
130,318,116293,1,0,0:0:0:0:
190,147,116486,1,2,0:0:0:0:
214,177,116583,2,0,P|225:206|225:250,1,58.1250022172929,2|8,0:0|3:3,0:0:0:0:
340,337,116777,1,2,0:0:0:0:
316,307,116874,2,2,P|305:278|305:234,1,58.1250022172929,2|8,0:0|3:0,0:0:0:0:
420,203,117067,5,2,0:0:0:0:
238,75,117260,5,2,0:0:0:0:
274,60,117357,2,2,B|317:45|317:45|373:59,1,58.1250022172929,2|0,0:0|3:0,0:0:0:0:
490,79,117551,1,2,0:0:0:0:
454,94,117648,2,2,B|411:109|411:109|355:95,1,58.1250022172929,2|0,0:0|3:0,0:0:0:0:
170,22,117841,5,2,0:0:0:0:
295,230,118035,1,2,0:0:0:0:
295,230,118131,1,2,0:0:0:0:
47,157,118325,1,2,0:0:0:0:
47,157,118422,1,2,0:0:0:0:
130,259,118615,1,2,0:0:0:0:
329,109,118809,1,2,0:0:0:0:
197,169,119002,1,0,0:0:0:0:
238,384,119196,5,0,0:0:0:0:
