osu file format v14

[General]
AudioFilename: audio.mp3
AudioLeadIn: 0
PreviewTime: 16406
Countdown: 0
SampleSet: Soft
StackLeniency: 0.7
Mode: 3
LetterboxInBreaks: 0
SpecialStyle: 0
WidescreenStoryboard: 0

[Editor]
DistanceSpacing: 1.7
BeatDivisor: 8
GridSize: 32
TimelineZoom: 2.699999

[Metadata]
Title:Rockhill
TitleUnicode:Rockhill
Artist:Beltaine
ArtistUnicode:Beltaine
Creator:Ryu Sei
Version:Hard
Source:
Tags:Pump It Up PIU Fiesta 2 F2
BeatmapID:994291
BeatmapSetID:464358

[Difficulty]
HPDrainRate:8
CircleSize:4
OverallDifficulty:6.5
ApproachRate:6
SliderMultiplier:1.5
SliderTickRate:2

[Events]
//Background and Video events
0,0,"2016-02-01-806890.jpg",0,0
//Break Periods
//Storyboard Layer 0 (Background)
//Storyboard Layer 1 (Fail)
//Storyboard Layer 2 (Pass)
//Storyboard Layer 3 (Foreground)
//Storyboard Sound Samples

[TimingPoints]
978,428.571428571429,4,2,1,63,1,0
16192,-200,4,2,1,63,0,0
16299,-66.6666666666667,4,2,1,63,0,0
16406,-100,4,2,1,63,0,1
30120,-100,4,2,1,63,0,0
64406,-100,4,2,1,63,0,1
78013,-1000,4,2,1,63,0,1
78067,-52.6315789473684,4,2,1,63,0,1
78120,-100,4,2,1,63,0,0
88406,714.285714285714,4,2,1,63,1,0
88406,-84,4,2,1,63,0,0
91263,370.37037037037,4,2,1,63,1,0
91263,-162,4,2,1,63,0,0
91633,352.941176470588,4,2,1,63,1,0
91633,-170,4,2,1,63,0,0
91985,408.163265306122,4,2,1,63,1,0
91985,-147,4,2,1,63,0,0
92393,333.333333333333,4,2,1,63,1,0
92393,-180,4,2,1,63,0,0
92726,333.333333333333,4,2,1,63,1,0
92726,-180,4,2,1,63,0,0
94059,342.857142857143,4,2,1,63,1,0
94059,-175,4,2,1,63,0,0
94401,400,4,2,1,63,1,0
94401,-150.15015015015,4,2,1,63,0,0
96001,333.333333333333,4,2,1,63,1,0
96001,-178.571428571429,4,2,1,63,0,0
96334,387.096774193548,4,2,1,63,1,0
96334,-155,4,2,1,63,0,0
96527,368.098159509202,4,2,1,63,1,0
96527,-163,4,2,1,63,0,0
96895,382.165605095541,4,2,1,63,1,0
96895,-157,4,2,1,63,0,0
97659,461.538461538462,4,2,1,63,1,0
97659,-130,4,2,1,63,0,0
99043,600,4,2,1,63,1,0
99193,600,4,2,1,63,1,0
100393,485.82995951417,4,2,1,63,1,0
100393,-123.5,4,2,1,63,0,0
100635,444.444444444444,4,2,1,63,1,0
100635,-135,4,2,1,63,0,0
101523,444.444444444444,4,2,1,63,1,0
101523,-135,4,2,1,63,0,0
101967,528.63436123348,4,2,1,63,1,0
101967,-113.5,4,2,1,63,0,0
102231,528.63436123348,4,2,1,63,1,0
102231,-113.5,4,2,1,63,0,0
102759,487.80487804878,4,2,1,63,1,0
102759,-123,4,2,1,63,0,0
103734,487.80487804878,4,2,1,63,1,0
103734,-123,4,2,1,63,0,0

[HitObjects]
64,192,978,128,0,1085:0:0:0:0:
448,192,1085,128,0,1138:0:0:0:0:
448,192,1192,128,0,1299:0:0:0:0:
192,192,1299,128,0,1406:0:0:0:0:
448,192,1406,128,0,1513:0:0:0:0:
192,192,1513,128,0,1620:0:0:0:0:
320,192,1620,128,0,1728:0:0:0:0:
64,192,1728,128,0,1835:0:0:0:0:
192,192,1835,128,0,1942:0:0:0:0:
448,192,1942,128,0,1995:0:0:0:0:
448,192,2049,128,0,2156:0:0:0:0:
64,192,2156,128,0,2263:0:0:0:0:
448,192,2263,128,0,2478:0:0:0:0:
64,192,2478,128,0,2692:0:0:0:0:
192,192,2692,128,0,2799:0:0:0:0:
448,192,2799,128,0,2853:0:0:0:0:
448,192,2906,128,0,3013:0:0:0:0:
64,192,3013,128,0,3120:0:0:0:0:
448,192,3120,128,0,3228:0:0:0:0:
64,192,3228,128,0,3335:0:0:0:0:
320,192,3335,128,0,3442:0:0:0:0:
192,192,3442,128,0,3549:0:0:0:0:
320,192,3549,128,0,3763:0:0:0:0:
448,192,3763,128,0,3978:0:0:0:0:
320,192,3978,128,0,4192:0:0:0:0:
192,192,4192,128,0,4406:0:0:0:0:
64,192,4406,128,0,4513:0:0:0:0:
448,192,4513,128,0,4567:0:0:0:0:
448,192,4620,128,0,4728:0:0:0:0:
192,192,4728,128,0,4835:0:0:0:0:
448,192,4835,128,0,4942:0:0:0:0:
192,192,4942,128,0,5049:0:0:0:0:
320,192,5049,128,0,5156:0:0:0:0:
64,192,5156,128,0,5263:0:0:0:0:
192,192,5263,128,0,5370:0:0:0:0:
448,192,5370,128,0,5424:0:0:0:0:
448,192,5478,128,0,5585:0:0:0:0:
64,192,5585,128,0,5692:0:0:0:0:
448,192,5692,128,0,5906:0:0:0:0:
64,192,5906,128,0,6120:0:0:0:0:
192,192,6120,128,0,6228:0:0:0:0:
448,192,6228,128,0,6281:0:0:0:0:
448,192,6335,128,0,6442:0:0:0:0:
64,192,6442,128,0,6549:0:0:0:0:
448,192,6549,128,0,6656:0:0:0:0:
64,192,6656,128,0,6763:0:0:0:0:
320,192,6763,128,0,6870:0:0:0:0:
192,192,6870,128,0,6978:0:0:0:0:
320,192,6978,128,0,7192:0:0:0:0:
448,192,7192,128,0,7406:0:0:0:0:
320,192,7406,128,0,7620:0:0:0:0:
64,192,7620,128,0,7781:0:0:0:0:
64,192,7835,128,0,7942:0:0:0:0:
448,192,7942,128,0,7995:0:0:0:0:
448,192,8049,128,0,8156:0:0:0:0:
192,192,8156,128,0,8263:0:0:0:0:
448,192,8263,128,0,8370:0:0:0:0:
192,192,8370,128,0,8478:0:0:0:0:
320,192,8478,128,0,8585:0:0:0:0:
64,192,8585,128,0,8692:0:0:0:0:
192,192,8692,128,0,8799:0:0:0:0:
448,192,8799,128,0,8853:0:0:0:0:
448,192,8906,128,0,9013:0:0:0:0:
64,192,9013,128,0,9120:0:0:0:0:
448,192,9120,128,0,9335:0:0:0:0:
64,192,9335,128,0,9549:0:0:0:0:
192,192,9549,128,0,9656:0:0:0:0:
448,192,9656,128,0,9710:0:0:0:0:
448,192,9763,128,0,9870:0:0:0:0:
64,192,9870,128,0,9978:0:0:0:0:
448,192,9978,128,0,10085:0:0:0:0:
64,192,10085,128,0,10192:0:0:0:0:
320,192,10192,128,0,10299:0:0:0:0:
192,192,10299,128,0,10406:0:0:0:0:
320,192,10406,128,0,10620:0:0:0:0:
448,192,10620,128,0,10835:0:0:0:0:
320,192,10835,128,0,11049:0:0:0:0:
192,192,11049,128,0,11263:0:0:0:0:
64,192,11263,128,0,11370:0:0:0:0:
448,192,11370,128,0,11424:0:0:0:0:
448,192,11478,128,0,11585:0:0:0:0:
192,192,11585,128,0,11692:0:0:0:0:
448,192,11692,128,0,11799:0:0:0:0:
192,192,11799,128,0,11906:0:0:0:0:
320,192,11906,128,0,12013:0:0:0:0:
64,192,12013,128,0,12120:0:0:0:0:
192,192,12120,128,0,12228:0:0:0:0:
448,192,12228,128,0,12281:0:0:0:0:
448,192,12335,128,0,12442:0:0:0:0:
64,192,12442,128,0,12549:0:0:0:0:
448,192,12549,128,0,12763:0:0:0:0:
64,192,12763,128,0,12978:0:0:0:0:
192,192,12978,128,0,13085:0:0:0:0:
448,192,13085,128,0,13138:0:0:0:0:
448,192,13192,128,0,13299:0:0:0:0:
64,192,13299,128,0,13406:0:0:0:0:
448,192,13406,128,0,13513:0:0:0:0:
64,192,13513,128,0,13620:0:0:0:0:
320,192,13620,128,0,13728:0:0:0:0:
192,192,13728,128,0,13835:0:0:0:0:
320,192,13835,128,0,14049:0:0:0:0:
448,192,14049,128,0,14263:0:0:0:0:
320,192,14263,128,0,14478:0:0:0:0:
64,192,14478,128,0,14638:0:0:0:0:
64,192,14692,128,0,16192:0:0:0:0:
448,192,14692,128,0,16192:0:0:0:0:
192,192,16406,128,0,16513:0:0:0:0:
448,192,16513,128,0,16567:0:0:0:0:
448,192,16620,128,0,16728:0:0:0:0:
320,192,16728,128,0,16835:0:0:0:0:
192,192,16835,128,0,16942:0:0:0:0:
64,192,16942,128,0,17049:0:0:0:0:
192,192,17049,128,0,17156:0:0:0:0:
320,192,17156,128,0,17263:0:0:0:0:
64,192,17263,128,0,17370:0:0:0:0:
192,192,17370,128,0,17424:0:0:0:0:
192,192,17478,128,0,17585:0:0:0:0:
64,192,17585,128,0,17692:0:0:0:0:
448,192,17692,128,0,17906:0:0:0:0:
64,192,17906,128,0,18013:0:0:0:0:
192,192,18013,128,0,18120:0:0:0:0:
448,192,18120,128,0,18335:0:0:0:0:
320,192,18335,128,0,18442:0:0:0:0:
192,192,18442,128,0,18549:0:0:0:0:
64,192,18549,128,0,18656:0:0:0:0:
320,192,18656,128,0,18763:0:0:0:0:
192,192,18763,128,0,18870:0:0:0:0:
448,192,18870,128,0,18978:0:0:0:0:
64,192,18978,128,0,19085:0:0:0:0:
192,192,19085,128,0,19192:0:0:0:0:
448,192,19192,128,0,19299:0:0:0:0:
320,192,19299,128,0,19406:0:0:0:0:
448,192,19406,128,0,19620:0:0:0:0:
64,192,19620,128,0,19728:0:0:0:0:
192,192,19728,128,0,19835:0:0:0:0:
448,192,19835,128,0,20049:0:0:0:0:
320,192,20049,128,0,20156:0:0:0:0:
192,192,20156,128,0,20263:0:0:0:0:
64,192,20263,128,0,20370:0:0:0:0:
320,192,20370,128,0,20478:0:0:0:0:
192,192,20478,128,0,20585:0:0:0:0:
448,192,20585,128,0,20692:0:0:0:0:
64,192,20692,128,0,20799:0:0:0:0:
320,192,20799,128,0,20853:0:0:0:0:
320,192,20906,128,0,21013:0:0:0:0:
64,192,21013,128,0,21120:0:0:0:0:
320,192,21120,128,0,21281:0:0:0:0:
320,192,21335,128,0,21442:0:0:0:0:
448,192,21442,128,0,21549:0:0:0:0:
320,192,21549,128,0,21603:0:0:0:0:
192,192,21603,128,0,21656:0:0:0:0:
64,192,21656,128,0,21763:0:0:0:0:
448,192,21763,128,0,21870:0:0:0:0:
192,192,21870,128,0,21978:0:0:0:0:
320,192,21978,128,0,22085:0:0:0:0:
64,192,22085,128,0,22192:0:0:0:0:
448,192,22192,128,0,22299:0:0:0:0:
192,192,22299,128,0,22406:0:0:0:0:
448,192,22406,128,0,22513:0:0:0:0:
320,192,22513,128,0,22620:0:0:0:0:
192,192,22620,128,0,22728:0:0:0:0:
64,192,22728,128,0,22835:0:0:0:0:
320,192,22835,128,0,22942:0:0:0:0:
192,192,22942,128,0,23049:0:0:0:0:
64,192,23049,128,0,23156:0:0:0:0:
448,192,23156,128,0,23263:0:0:0:0:
192,192,23263,128,0,23370:0:0:0:0:
448,192,23370,128,0,23424:0:0:0:0:
448,192,23478,128,0,23585:0:0:0:0:
320,192,23585,128,0,23692:0:0:0:0:
192,192,23692,128,0,23799:0:0:0:0:
64,192,23799,128,0,23906:0:0:0:0:
192,192,23906,128,0,24013:0:0:0:0:
320,192,24013,128,0,24120:0:0:0:0:
64,192,24120,128,0,24228:0:0:0:0:
192,192,24228,128,0,24281:0:0:0:0:
192,192,24335,128,0,24442:0:0:0:0:
64,192,24442,128,0,24549:0:0:0:0:
192,192,24549,128,0,24763:0:0:0:0:
64,192,24763,128,0,24870:0:0:0:0:
192,192,24870,128,0,24978:0:0:0:0:
448,192,24978,128,0,25192:0:0:0:0:
320,192,25192,128,0,25299:0:0:0:0:
192,192,25299,128,0,25406:0:0:0:0:
64,192,25406,128,0,25513:0:0:0:0:
320,192,25513,128,0,25620:0:0:0:0:
192,192,25620,128,0,25728:0:0:0:0:
448,192,25728,128,0,25835:0:0:0:0:
64,192,25835,128,0,25942:0:0:0:0:
448,192,25942,128,0,26049:0:0:0:0:
320,192,26049,128,0,26156:0:0:0:0:
192,192,26156,128,0,26263:0:0:0:0:
320,192,26263,128,0,26478:0:0:0:0:
64,192,26478,128,0,26585:0:0:0:0:
192,192,26585,128,0,26692:0:0:0:0:
448,192,26692,128,0,26906:0:0:0:0:
320,192,26906,128,0,27013:0:0:0:0:
192,192,27013,128,0,27120:0:0:0:0:
64,192,27120,128,0,27228:0:0:0:0:
320,192,27228,128,0,27335:0:0:0:0:
192,192,27335,128,0,27442:0:0:0:0:
448,192,27442,128,0,27549:0:0:0:0:
64,192,27549,128,0,27656:0:0:0:0:
320,192,27656,128,0,27710:0:0:0:0:
320,192,27763,128,0,27870:0:0:0:0:
64,192,27870,128,0,27978:0:0:0:0:
320,192,27978,128,0,28138:0:0:0:0:
320,192,28192,128,0,28299:0:0:0:0:
448,192,28299,128,0,28406:0:0:0:0:
320,192,28406,128,0,28460:0:0:0:0:
192,192,28460,128,0,28513:0:0:0:0:
64,192,28513,128,0,28620:0:0:0:0:
320,192,28620,128,0,28728:0:0:0:0:
448,192,28728,128,0,28835:0:0:0:0:
192,192,28835,128,0,28942:0:0:0:0:
64,192,28942,128,0,29049:0:0:0:0:
448,192,29049,128,0,29156:0:0:0:0:
192,192,29156,128,0,29263:0:0:0:0:
448,192,29263,128,0,29370:0:0:0:0:
64,192,29370,128,0,29478:0:0:0:0:
448,192,29478,128,0,29549:0:0:0:0:
320,192,29549,128,0,29620:0:0:0:0:
64,192,29620,128,0,29692:0:0:0:0:
192,192,29692,128,0,30120:0:0:0:0:
320,192,30120,128,0,30335:0:0:0:0:
64,192,30335,128,0,30442:0:0:0:0:
192,192,30442,128,0,30549:0:0:0:0:
448,192,30549,128,0,30656:0:0:0:0:
64,192,30656,128,0,30763:0:0:0:0:
192,192,30763,128,0,30870:0:0:0:0:
448,192,30870,128,0,30978:0:0:0:0:
320,192,30978,128,0,31192:0:0:0:0:
192,192,31192,128,0,31299:0:0:0:0:
64,192,31299,128,0,31406:0:0:0:0:
448,192,31406,128,0,31513:0:0:0:0:
320,192,31513,128,0,31620:0:0:0:0:
192,192,31620,128,0,31728:0:0:0:0:
64,192,31728,128,0,31835:0:0:0:0:
320,192,31835,128,0,32049:0:0:0:0:
64,192,32049,128,0,32156:0:0:0:0:
192,192,32156,128,0,32263:0:0:0:0:
448,192,32263,128,0,32370:0:0:0:0:
64,192,32370,128,0,32478:0:0:0:0:
320,192,32478,128,0,32585:0:0:0:0:
448,192,32585,128,0,32692:0:0:0:0:
320,192,32692,128,0,32745:0:0:0:0:
192,192,32745,128,0,32799:0:0:0:0:
64,192,32799,128,0,32906:0:0:0:0:
320,192,32906,128,0,33013:0:0:0:0:
192,192,33013,128,0,33120:0:0:0:0:
448,192,33120,128,0,33281:0:0:0:0:
448,192,33335,128,0,33549:0:0:0:0:
320,192,33549,128,0,33763:0:0:0:0:
64,192,33763,128,0,33870:0:0:0:0:
192,192,33870,128,0,33978:0:0:0:0:
448,192,33978,128,0,34085:0:0:0:0:
64,192,34085,128,0,34192:0:0:0:0:
192,192,34192,128,0,34299:0:0:0:0:
448,192,34299,128,0,34406:0:0:0:0:
320,192,34406,128,0,34620:0:0:0:0:
192,192,34620,128,0,34728:0:0:0:0:
64,192,34728,128,0,34835:0:0:0:0:
448,192,34835,128,0,34942:0:0:0:0:
320,192,34942,128,0,35049:0:0:0:0:
192,192,35049,128,0,35156:0:0:0:0:
64,192,35156,128,0,35263:0:0:0:0:
320,192,35263,128,0,35478:0:0:0:0:
64,192,35478,128,0,35585:0:0:0:0:
192,192,35585,128,0,35692:0:0:0:0:
448,192,35692,128,0,35799:0:0:0:0:
64,192,35799,128,0,35906:0:0:0:0:
320,192,35906,128,0,36013:0:0:0:0:
448,192,36013,128,0,36120:0:0:0:0:
320,192,36120,128,0,36174:0:0:0:0:
192,192,36174,128,0,36228:0:0:0:0:
64,192,36228,128,0,36335:0:0:0:0:
320,192,36335,128,0,36442:0:0:0:0:
192,192,36442,128,0,36549:0:0:0:0:
448,192,36549,128,0,36710:0:0:0:0:
448,192,36763,128,0,36978:0:0:0:0:
320,192,36978,128,0,37192:0:0:0:0:
64,192,37192,128,0,37299:0:0:0:0:
192,192,37299,128,0,37406:0:0:0:0:
448,192,37406,128,0,37513:0:0:0:0:
64,192,37513,128,0,37620:0:0:0:0:
320,192,37620,128,0,37728:0:0:0:0:
448,192,37728,128,0,37835:0:0:0:0:
320,192,37835,128,0,37888:0:0:0:0:
192,192,37888,128,0,37969:0:0:0:0:
64,192,37969,128,0,38049:0:0:0:0:
448,192,38049,128,0,38156:0:0:0:0:
192,192,38156,128,0,38263:0:0:0:0:
320,192,38263,128,0,38424:0:0:0:0:
320,192,38478,128,0,38692:0:0:0:0:
192,192,38692,128,0,38906:0:0:0:0:
64,192,38906,128,0,39013:0:0:0:0:
320,192,39013,128,0,39120:0:0:0:0:
448,192,39120,128,0,39228:0:0:0:0:
64,192,39228,128,0,39335:0:0:0:0:
192,192,39335,128,0,39442:0:0:0:0:
448,192,39442,128,0,39549:0:0:0:0:
320,192,39549,128,0,39603:0:0:0:0:
192,192,39603,128,0,39683:0:0:0:0:
64,192,39683,128,0,39763:0:0:0:0:
448,192,39763,128,0,39870:0:0:0:0:
64,192,39870,128,0,39978:0:0:0:0:
192,192,39978,128,0,40138:0:0:0:0:
192,192,40192,128,0,40406:0:0:0:0:
320,192,40406,128,0,40620:0:0:0:0:
64,192,40620,128,0,40728:0:0:0:0:
192,192,40728,128,0,40835:0:0:0:0:
448,192,40835,128,0,40942:0:0:0:0:
64,192,40942,128,0,41049:0:0:0:0:
320,192,41049,128,0,41156:0:0:0:0:
448,192,41156,128,0,41263:0:0:0:0:
320,192,41263,128,0,41317:0:0:0:0:
192,192,41317,128,0,41397:0:0:0:0:
64,192,41397,128,0,41478:0:0:0:0:
448,192,41478,128,0,41585:0:0:0:0:
192,192,41585,128,0,41692:0:0:0:0:
320,192,41692,128,0,41853:0:0:0:0:
320,192,41906,128,0,42120:0:0:0:0:
192,192,42120,128,0,42335:0:0:0:0:
64,192,42335,128,0,42442:0:0:0:0:
320,192,42442,128,0,42549:0:0:0:0:
448,192,42549,128,0,42656:0:0:0:0:
64,192,42656,128,0,42763:0:0:0:0:
192,192,42763,128,0,42870:0:0:0:0:
448,192,42870,128,0,42978:0:0:0:0:
320,192,42978,128,0,43049:0:0:0:0:
192,192,43049,128,0,43120:0:0:0:0:
64,192,43120,128,0,43192:0:0:0:0:
448,192,43192,128,0,43299:0:0:0:0:
192,192,43299,128,0,43406:0:0:0:0:
64,192,43406,128,0,43513:0:0:0:0:
192,192,43513,128,0,43620:0:0:0:0:
320,192,43620,128,0,43728:0:0:0:0:
448,192,43728,128,0,43835:0:0:0:0:
320,192,43835,128,0,44049:0:0:0:0:
64,192,44049,128,0,44156:0:0:0:0:
192,192,44156,128,0,44263:0:0:0:0:
448,192,44263,128,0,44370:0:0:0:0:
64,192,44370,128,0,44478:0:0:0:0:
320,192,44478,128,0,44585:0:0:0:0:
448,192,44585,128,0,44692:0:0:0:0:
320,192,44692,128,0,44763:0:0:0:0:
192,192,44763,128,0,44835:0:0:0:0:
64,192,44835,128,0,44906:0:0:0:0:
448,192,44906,128,0,45013:0:0:0:0:
192,192,45013,128,0,45120:0:0:0:0:
320,192,45120,128,0,45281:0:0:0:0:
320,192,45335,128,0,45549:0:0:0:0:
192,192,45549,128,0,45763:0:0:0:0:
64,192,45763,128,0,45870:0:0:0:0:
320,192,45870,128,0,45978:0:0:0:0:
448,192,45978,128,0,46085:0:0:0:0:
64,192,46085,128,0,46192:0:0:0:0:
192,192,46192,128,0,46299:0:0:0:0:
448,192,46299,128,0,46406:0:0:0:0:
320,192,46406,128,0,46478:0:0:0:0:
192,192,46478,128,0,46549:0:0:0:0:
64,192,46549,128,0,46620:0:0:0:0:
448,192,46620,128,0,46728:0:0:0:0:
64,192,46728,128,0,46835:0:0:0:0:
192,192,46835,128,0,46995:0:0:0:0:
192,192,47049,128,0,47263:0:0:0:0:
320,192,47263,128,0,47478:0:0:0:0:
64,192,47478,128,0,47585:0:0:0:0:
192,192,47585,128,0,47692:0:0:0:0:
448,192,47692,128,0,47799:0:0:0:0:
64,192,47799,128,0,47906:0:0:0:0:
320,192,47906,128,0,48013:0:0:0:0:
448,192,48013,128,0,48120:0:0:0:0:
320,192,48120,128,0,48192:0:0:0:0:
192,192,48192,128,0,48263:0:0:0:0:
64,192,48263,128,0,48335:0:0:0:0:
448,192,48335,128,0,48415:0:0:0:0:
320,192,48415,128,0,48469:0:0:0:0:
192,192,48469,128,0,48549:0:0:0:0:
320,192,48549,128,0,48656:0:0:0:0:
192,192,48656,128,0,48763:0:0:0:0:
64,192,48763,128,0,48870:0:0:0:0:
192,192,48870,128,0,48978:0:0:0:0:
448,192,48978,128,0,49049:0:0:0:0:
320,192,49049,128,0,49120:0:0:0:0:
192,192,49120,128,0,49192:0:0:0:0:
448,192,49192,128,0,49299:0:0:0:0:
192,192,49299,128,0,49406:0:0:0:0:
320,192,49406,128,0,49513:0:0:0:0:
64,192,49513,128,0,49620:0:0:0:0:
320,192,49620,128,0,49728:0:0:0:0:
192,192,49728,128,0,49835:0:0:0:0:
448,192,49835,128,0,49942:0:0:0:0:
64,192,49942,128,0,50049:0:0:0:0:
448,192,50049,128,0,50156:0:0:0:0:
192,192,50156,128,0,50263:0:0:0:0:
320,192,50263,128,0,50692:0:0:0:0:
448,192,50692,128,0,51013:0:0:0:0:
192,192,50692,128,0,51013:0:0:0:0:
64,192,51013,128,0,51549:0:0:0:0:
320,192,51013,128,0,51335:0:0:0:0:
192,192,51335,128,0,51442:0:0:0:0:
320,192,51549,128,0,51870:0:0:0:0:
448,192,51620,128,0,51870:0:0:0:0:
192,192,51656,128,0,51763:0:0:0:0:
192,192,51870,128,0,52192:0:0:0:0:
64,192,51870,128,0,52406:0:0:0:0:
320,192,51978,128,0,52085:0:0:0:0:
192,192,52406,128,0,52620:0:0:0:0:
320,192,52478,128,0,52620:0:0:0:0:
64,192,52728,128,0,53049:0:0:0:0:
320,192,52728,128,0,53049:0:0:0:0:
192,192,53049,128,0,53370:0:0:0:0:
448,192,53049,128,0,53478:0:0:0:0:
320,192,53692,128,0,54013:0:0:0:0:
448,192,53692,128,0,54013:0:0:0:0:
192,192,53692,128,0,53799:0:0:0:0:
448,192,54120,128,0,54442:0:0:0:0:
192,192,54120,128,0,54442:0:0:0:0:
64,192,54442,128,0,54978:0:0:0:0:
320,192,54442,128,0,54763:0:0:0:0:
192,192,54763,128,0,54870:0:0:0:0:
320,192,54978,128,0,55299:0:0:0:0:
448,192,55049,128,0,55299:0:0:0:0:
192,192,55085,128,0,55192:0:0:0:0:
192,192,55299,128,0,55620:0:0:0:0:
64,192,55299,128,0,55835:0:0:0:0:
320,192,55406,128,0,55513:0:0:0:0:
192,192,55835,128,0,56049:0:0:0:0:
320,192,55906,128,0,56049:0:0:0:0:
64,192,56156,128,0,56478:0:0:0:0:
320,192,56156,128,0,56478:0:0:0:0:
192,192,56478,128,0,56799:0:0:0:0:
448,192,56478,128,0,56906:0:0:0:0:
64,192,56799,128,0,56906:0:0:0:0:
320,192,57120,128,0,57442:0:0:0:0:
448,192,57120,128,0,57442:0:0:0:0:
192,192,57120,128,0,57228:0:0:0:0:
192,192,57549,128,0,57870:0:0:0:0:
448,192,57549,128,0,57870:0:0:0:0:
320,192,57870,128,0,58192:0:0:0:0:
64,192,57870,128,0,58406:0:0:0:0:
192,192,58192,128,0,58299:0:0:0:0:
320,192,58406,128,0,58728:0:0:0:0:
448,192,58478,128,0,58728:0:0:0:0:
192,192,58513,128,0,58620:0:0:0:0:
64,192,58728,128,0,59263:0:0:0:0:
192,192,58728,128,0,59049:0:0:0:0:
320,192,58835,128,0,58942:0:0:0:0:
192,192,59263,128,0,59478:0:0:0:0:
320,192,59335,128,0,59478:0:0:0:0:
320,192,59585,128,0,59906:0:0:0:0:
64,192,59585,128,0,59906:0:0:0:0:
448,192,59906,128,0,60335:0:0:0:0:
192,192,59906,128,0,60228:0:0:0:0:
448,192,60549,128,0,60870:0:0:0:0:
320,192,60549,128,0,60870:0:0:0:0:
192,192,60549,128,0,60656:0:0:0:0:
448,192,60978,128,0,61299:0:0:0:0:
192,192,60978,128,0,61299:0:0:0:0:
64,192,61299,128,0,61835:0:0:0:0:
320,192,61299,128,0,61620:0:0:0:0:
192,192,61620,128,0,61728:0:0:0:0:
320,192,61835,128,0,62156:0:0:0:0:
448,192,61906,128,0,62156:0:0:0:0:
192,192,61942,128,0,62049:0:0:0:0:
192,192,62156,128,0,62478:0:0:0:0:
64,192,62156,128,0,62692:0:0:0:0:
320,192,62263,128,0,62370:0:0:0:0:
192,192,62692,128,0,62906:0:0:0:0:
448,192,62728,128,0,62906:0:0:0:0:
64,192,63013,128,0,63335:0:0:0:0:
320,192,63013,128,0,63335:0:0:0:0:
192,192,63335,128,0,63656:0:0:0:0:
448,192,63335,128,0,63763:0:0:0:0:
64,192,63656,128,0,63763:0:0:0:0:
320,192,63978,128,0,64192:0:0:0:0:
448,192,63978,128,0,64192:0:0:0:0:
192,192,63978,128,0,64085:0:0:0:0:
64,192,64406,128,0,64513:0:0:0:0:
320,192,64406,128,0,64620:0:0:0:0:
448,192,64513,128,0,64620:0:0:0:0:
192,192,64620,128,0,64728:0:0:0:0:
320,192,64728,128,0,64835:0:0:0:0:
64,192,64728,128,0,64942:0:0:0:0:
448,192,64835,128,0,64942:0:0:0:0:
192,192,64942,128,0,65049:0:0:0:0:
320,192,65049,128,0,65156:0:0:0:0:
448,192,65049,128,0,65156:0:0:0:0:
64,192,65156,128,0,65263:0:0:0:0:
320,192,65263,128,0,65370:0:0:0:0:
448,192,65263,128,0,65478:0:0:0:0:
192,192,65370,128,0,65478:0:0:0:0:
320,192,65478,128,0,65585:0:0:0:0:
192,192,65585,128,0,65692:0:0:0:0:
64,192,65585,128,0,65799:0:0:0:0:
448,192,65692,128,0,65906:0:0:0:0:
64,192,65906,128,0,66120:0:0:0:0:
320,192,65906,128,0,66120:0:0:0:0:
448,192,66120,128,0,66228:0:0:0:0:
192,192,66120,128,0,66335:0:0:0:0:
64,192,66228,128,0,66335:0:0:0:0:
320,192,66335,128,0,66442:0:0:0:0:
192,192,66442,128,0,66549:0:0:0:0:
448,192,66442,128,0,66656:0:0:0:0:
64,192,66549,128,0,66656:0:0:0:0:
320,192,66656,128,0,66763:0:0:0:0:
192,192,66763,128,0,66870:0:0:0:0:
64,192,66763,128,0,66870:0:0:0:0:
448,192,66870,128,0,66978:0:0:0:0:
192,192,66978,128,0,67085:0:0:0:0:
320,192,67085,128,0,67192:0:0:0:0:
192,192,67192,128,0,67299:0:0:0:0:
320,192,67299,128,0,67406:0:0:0:0:
64,192,67406,128,0,67835:0:0:0:0:
448,192,67406,128,0,67620:0:0:0:0:
320,192,67620,128,0,67835:0:0:0:0:
448,192,67835,128,0,67942:0:0:0:0:
192,192,67835,128,0,68049:0:0:0:0:
64,192,67942,128,0,68049:0:0:0:0:
320,192,68049,128,0,68156:0:0:0:0:
192,192,68156,128,0,68263:0:0:0:0:
448,192,68156,128,0,68370:0:0:0:0:
64,192,68263,128,0,68370:0:0:0:0:
320,192,68370,128,0,68478:0:0:0:0:
192,192,68478,128,0,68585:0:0:0:0:
64,192,68478,128,0,68585:0:0:0:0:
448,192,68585,128,0,68692:0:0:0:0:
192,192,68692,128,0,68799:0:0:0:0:
64,192,68692,128,0,68906:0:0:0:0:
320,192,68799,128,0,68906:0:0:0:0:
192,192,68906,128,0,69013:0:0:0:0:
320,192,69013,128,0,69120:0:0:0:0:
448,192,69013,128,0,69228:0:0:0:0:
64,192,69120,128,0,69335:0:0:0:0:
448,192,69335,128,0,69549:0:0:0:0:
192,192,69335,128,0,69549:0:0:0:0:
64,192,69549,128,0,69656:0:0:0:0:
320,192,69549,128,0,69763:0:0:0:0:
448,192,69656,128,0,69763:0:0:0:0:
192,192,69763,128,0,69870:0:0:0:0:
320,192,69870,128,0,69978:0:0:0:0:
64,192,69870,128,0,70085:0:0:0:0:
448,192,69978,128,0,70085:0:0:0:0:
192,192,70085,128,0,70192:0:0:0:0:
320,192,70192,128,0,70299:0:0:0:0:
448,192,70192,128,0,70299:0:0:0:0:
64,192,70299,128,0,70406:0:0:0:0:
320,192,70406,128,0,70513:0:0:0:0:
192,192,70513,128,0,70620:0:0:0:0:
320,192,70620,128,0,70728:0:0:0:0:
192,192,70728,128,0,70835:0:0:0:0:
448,192,70835,128,0,71263:0:0:0:0:
64,192,70835,128,0,71049:0:0:0:0:
192,192,71049,128,0,71263:0:0:0:0:
64,192,71263,128,0,71370:0:0:0:0:
320,192,71263,128,0,71478:0:0:0:0:
448,192,71370,128,0,71478:0:0:0:0:
192,192,71478,128,0,71585:0:0:0:0:
320,192,71585,128,0,71692:0:0:0:0:
64,192,71585,128,0,71799:0:0:0:0:
448,192,71692,128,0,71799:0:0:0:0:
192,192,71799,128,0,71906:0:0:0:0:
320,192,71906,128,0,72013:0:0:0:0:
448,192,71906,128,0,72013:0:0:0:0:
64,192,72013,128,0,72120:0:0:0:0:
320,192,72120,128,0,72228:0:0:0:0:
448,192,72120,128,0,72335:0:0:0:0:
192,192,72228,128,0,72335:0:0:0:0:
320,192,72335,128,0,72442:0:0:0:0:
192,192,72442,128,0,72549:0:0:0:0:
64,192,72442,128,0,72656:0:0:0:0:
448,192,72549,128,0,72763:0:0:0:0:
64,192,72763,128,0,72978:0:0:0:0:
320,192,72763,128,0,72978:0:0:0:0:
448,192,72978,128,0,73085:0:0:0:0:
192,192,72978,128,0,73192:0:0:0:0:
64,192,73085,128,0,73192:0:0:0:0:
320,192,73192,128,0,73299:0:0:0:0:
192,192,73299,128,0,73406:0:0:0:0:
448,192,73299,128,0,73513:0:0:0:0:
64,192,73406,128,0,73513:0:0:0:0:
320,192,73513,128,0,73620:0:0:0:0:
192,192,73620,128,0,73728:0:0:0:0:
64,192,73620,128,0,73728:0:0:0:0:
448,192,73728,128,0,73835:0:0:0:0:
192,192,73835,128,0,73942:0:0:0:0:
320,192,73942,128,0,74049:0:0:0:0:
192,192,74049,128,0,74156:0:0:0:0:
320,192,74156,128,0,74263:0:0:0:0:
64,192,74263,128,0,74692:0:0:0:0:
448,192,74263,128,0,74478:0:0:0:0:
320,192,74478,128,0,74692:0:0:0:0:
448,192,74692,128,0,74799:0:0:0:0:
192,192,74692,128,0,74906:0:0:0:0:
64,192,74799,128,0,74906:0:0:0:0:
320,192,74906,128,0,75013:0:0:0:0:
192,192,75013,128,0,75120:0:0:0:0:
448,192,75013,128,0,75228:0:0:0:0:
64,192,75120,128,0,75228:0:0:0:0:
320,192,75228,128,0,75335:0:0:0:0:
192,192,75335,128,0,75442:0:0:0:0:
64,192,75335,128,0,75442:0:0:0:0:
448,192,75442,128,0,75549:0:0:0:0:
192,192,75549,128,0,75656:0:0:0:0:
64,192,75549,128,0,75763:0:0:0:0:
320,192,75656,128,0,75763:0:0:0:0:
192,192,75763,128,0,75870:0:0:0:0:
320,192,75870,128,0,75978:0:0:0:0:
448,192,75870,128,0,76085:0:0:0:0:
64,192,75978,128,0,76192:0:0:0:0:
448,192,76192,128,0,76406:0:0:0:0:
192,192,76192,128,0,76406:0:0:0:0:
64,192,76406,128,0,76513:0:0:0:0:
320,192,76406,128,0,76620:0:0:0:0:
448,192,76513,128,0,76620:0:0:0:0:
192,192,76620,128,0,76728:0:0:0:0:
320,192,76728,128,0,76835:0:0:0:0:
64,192,76728,128,0,76942:0:0:0:0:
448,192,76835,128,0,76942:0:0:0:0:
192,192,76942,128,0,77049:0:0:0:0:
320,192,77049,128,0,77156:0:0:0:0:
448,192,77049,128,0,77156:0:0:0:0:
64,192,77156,128,0,77263:0:0:0:0:
320,192,77263,128,0,77370:0:0:0:0:
192,192,77370,128,0,77478:0:0:0:0:
320,192,77478,128,0,77585:0:0:0:0:
192,192,77585,128,0,77692:0:0:0:0:
448,192,77692,128,0,78120:0:0:0:0:
64,192,77692,128,0,77906:0:0:0:0:
192,192,77906,128,0,78120:0:0:0:0:
320,192,78120,128,0,78228:0:0:0:0:
64,192,78120,128,0,78228:0:0:0:0:
448,192,78228,128,0,78335:0:0:0:0:
192,192,78335,128,0,78442:0:0:0:0:
320,192,78335,128,0,78442:0:0:0:0:
64,192,78442,128,0,78549:0:0:0:0:
320,192,78549,128,0,78656:0:0:0:0:
448,192,78656,128,0,78763:0:0:0:0:
192,192,78763,128,0,78870:0:0:0:0:
320,192,78870,128,0,78978:0:0:0:0:
448,192,78978,128,0,79085:0:0:0:0:
64,192,78978,128,0,79085:0:0:0:0:
192,192,79085,128,0,79192:0:0:0:0:
320,192,79085,128,0,79192:0:0:0:0:
64,192,79192,128,0,79299:0:0:0:0:
448,192,79192,128,0,79299:0:0:0:0:
192,192,79299,128,0,79406:0:0:0:0:
320,192,79299,128,0,79406:0:0:0:0:
448,192,79406,128,0,79620:0:0:0:0:
64,192,79406,128,0,79513:0:0:0:0:
64,192,79620,128,0,79728:0:0:0:0:
320,192,79620,128,0,79728:0:0:0:0:
192,192,79728,128,0,79835:0:0:0:0:
448,192,79835,128,0,80049:0:0:0:0:
320,192,79835,128,0,79942:0:0:0:0:
320,192,80049,128,0,80156:0:0:0:0:
64,192,80049,128,0,80156:0:0:0:0:
192,192,80156,128,0,80263:0:0:0:0:
64,192,80263,128,0,80370:0:0:0:0:
320,192,80370,128,0,80478:0:0:0:0:
192,192,80478,128,0,80585:0:0:0:0:
448,192,80585,128,0,80692:0:0:0:0:
64,192,80692,128,0,80799:0:0:0:0:
320,192,80692,128,0,80799:0:0:0:0:
192,192,80799,128,0,80906:0:0:0:0:
448,192,80799,128,0,80906:0:0:0:0:
320,192,80906,128,0,81013:0:0:0:0:
64,192,80906,128,0,81013:0:0:0:0:
192,192,81013,128,0,81120:0:0:0:0:
448,192,81013,128,0,81120:0:0:0:0:
320,192,81120,128,0,81335:0:0:0:0:
64,192,81120,128,0,81228:0:0:0:0:
64,192,81335,128,0,81442:0:0:0:0:
448,192,81335,128,0,81442:0:0:0:0:
192,192,81442,128,0,81549:0:0:0:0:
448,192,81549,128,0,81763:0:0:0:0:
64,192,81549,128,0,81656:0:0:0:0:
320,192,81763,128,0,81870:0:0:0:0:
64,192,81763,128,0,81870:0:0:0:0:
192,192,81870,128,0,81978:0:0:0:0:
448,192,81978,128,0,82085:0:0:0:0:
320,192,82085,128,0,82192:0:0:0:0:
192,192,82192,128,0,82299:0:0:0:0:
448,192,82299,128,0,82406:0:0:0:0:
64,192,82406,128,0,82513:0:0:0:0:
320,192,82406,128,0,82513:0:0:0:0:
192,192,82513,128,0,82620:0:0:0:0:
448,192,82513,128,0,82620:0:0:0:0:
320,192,82620,128,0,82728:0:0:0:0:
64,192,82620,128,0,82728:0:0:0:0:
448,192,82728,128,0,82835:0:0:0:0:
192,192,82728,128,0,82835:0:0:0:0:
320,192,82835,128,0,83049:0:0:0:0:
64,192,82835,128,0,82942:0:0:0:0:
192,192,83049,128,0,83156:0:0:0:0:
64,192,83049,128,0,83156:0:0:0:0:
448,192,83156,128,0,83263:0:0:0:0:
320,192,83263,128,0,83317:0:0:0:0:
192,192,83317,128,0,83370:0:0:0:0:
64,192,83370,128,0,83478:0:0:0:0:
448,192,83478,128,0,83585:0:0:0:0:
192,192,83585,128,0,83692:0:0:0:0:
320,192,83692,128,0,83799:0:0:0:0:
64,192,83799,128,0,83906:0:0:0:0:
448,192,83906,128,0,84013:0:0:0:0:
192,192,84013,128,0,84120:0:0:0:0:
320,192,84120,128,0,84228:0:0:0:0:
192,192,84228,128,0,84335:0:0:0:0:
448,192,84335,128,0,84406:0:0:0:0:
320,192,84406,128,0,84478:0:0:0:0:
64,192,84478,128,0,84549:0:0:0:0:
320,192,84549,128,0,84656:0:0:0:0:
64,192,84656,128,0,84763:0:0:0:0:
192,192,84763,128,0,84870:0:0:0:0:
448,192,84870,128,0,84978:0:0:0:0:
320,192,84978,128,0,85085:0:0:0:0:
448,192,85085,128,0,85192:0:0:0:0:
192,192,85192,128,0,85299:0:0:0:0:
64,192,85192,128,0,85299:0:0:0:0:
320,192,85299,128,0,85406:0:0:0:0:
192,192,85406,128,0,85513:0:0:0:0:
448,192,85406,128,0,85513:0:0:0:0:
320,192,85513,128,0,85620:0:0:0:0:
64,192,85620,128,0,85728:0:0:0:0:
320,192,85728,128,0,85835:0:0:0:0:
448,192,85835,128,0,85942:0:0:0:0:
192,192,85835,128,0,85942:0:0:0:0:
64,192,85942,128,0,86049:0:0:0:0:
320,192,85942,128,0,86049:0:0:0:0:
192,192,86049,128,0,86156:0:0:0:0:
448,192,86049,128,0,86156:0:0:0:0:
64,192,86156,128,0,86263:0:0:0:0:
320,192,86156,128,0,86263:0:0:0:0:
448,192,86263,128,0,86478:0:0:0:0:
192,192,86263,128,0,86370:0:0:0:0:
64,192,86478,128,0,86585:0:0:0:0:
320,192,86478,128,0,86585:0:0:0:0:
192,192,86585,128,0,86692:0:0:0:0:
448,192,86692,128,0,86906:0:0:0:0:
64,192,86692,128,0,86799:0:0:0:0:
320,192,86906,128,0,87013:0:0:0:0:
192,192,86906,128,0,87013:0:0:0:0:
448,192,87013,128,0,87120:0:0:0:0:
64,192,87120,128,0,87228:0:0:0:0:
320,192,87228,128,0,87335:0:0:0:0:
192,192,87335,128,0,87442:0:0:0:0:
448,192,87442,128,0,87549:0:0:0:0:
64,192,87549,128,0,87656:0:0:0:0:
320,192,87549,128,0,87656:0:0:0:0:
192,192,87656,128,0,87763:0:0:0:0:
448,192,87656,128,0,87763:0:0:0:0:
320,192,87763,128,0,87870:0:0:0:0:
64,192,87763,128,0,87870:0:0:0:0:
192,192,87870,128,0,87978:0:0:0:0:
448,192,87870,128,0,87978:0:0:0:0:
320,192,87978,128,0,88192:0:0:0:0:
64,192,87978,128,0,88085:0:0:0:0:
64,192,88192,128,0,88299:0:0:0:0:
448,192,88192,128,0,88299:0:0:0:0:
192,192,88299,128,0,88406:0:0:0:0:
448,192,88406,128,0,91263:0:0:0:0:
320,192,88406,128,0,89834:0:0:0:0:
320,192,91263,128,0,91633:0:0:0:0:
192,192,91633,128,0,91985:0:0:0:0:
64,192,91985,128,0,92393:0:0:0:0:
192,192,92393,128,0,92726:0:0:0:0:
320,192,92726,128,0,93059:0:0:0:0:
192,192,93059,128,0,93392:0:0:0:0:
448,192,93392,128,0,93684:0:0:0:0:
192,192,93684,128,0,93746:0:0:0:0:
448,192,93746,128,0,94059:0:0:0:0:
192,192,94059,128,0,94401:0:0:0:0:
320,192,94401,128,0,95201:0:0:0:0:
64,192,95201,128,0,95601:0:0:0:0:
192,192,95601,128,0,96001:0:0:0:0:
448,192,96001,128,0,96334:0:0:0:0:
64,192,96001,128,0,96895:0:0:0:0:
320,192,96334,128,0,96527:0:0:0:0:
192,192,96527,128,0,96895:0:0:0:0:
320,192,96895,128,0,97277:0:0:0:0:
64,192,97277,128,0,97659:0:0:0:0:
448,192,97659,128,0,98120:0:0:0:0:
320,192,98120,128,0,98582:0:0:0:0:
192,192,98582,128,0,98985:0:0:0:0:
448,192,98985,128,0,99043:0:0:0:0:
320,192,99043,128,0,99193:0:0:0:0:
192,192,99193,128,0,99793:0:0:0:0:
320,192,99793,128,0,99868:0:0:0:0:
64,192,99793,128,0,100393:0:0:0:0:
448,192,99868,128,0,99943:0:0:0:0:
320,192,99943,128,0,100635:0:0:0:0:
64,192,100635,128,0,101523:0:0:0:0:
320,192,101523,128,0,101606:0:0:0:0:
448,192,101606,128,0,101689:0:0:0:0:
320,192,101689,128,0,102231:0:0:0:0:
64,192,101708,128,0,102495:0:0:0:0:
192,192,102231,128,0,102759:0:0:0:0:
64,192,102759,128,0,103673:0:0:0:0:
64,192,103734,128,0,103977:0:0:0:0:
192,192,103977,128,0,107636:0:0:0:0:
448,192,104069,128,0,107636:0:0:0:0:
64,192,104069,128,0,105136:0:0:0:0:
320,192,105136,128,0,106173:0:0:0:0:
64,192,106173,128,0,107148:0:0:0:0:
