osu file format v14

[General]
AudioFilename: audio.mp3
AudioLeadIn: 0
PreviewTime: 16406
Countdown: 0
SampleSet: Soft
StackLeniency: 0.7
Mode: 3
LetterboxInBreaks: 0
SpecialStyle: 0
WidescreenStoryboard: 0

[Editor]
DistanceSpacing: 1.7
BeatDivisor: 4
GridSize: 32
TimelineZoom: 1.9

[Metadata]
Title:Rockhill
TitleUnicode:Rockhill
Artist:Beltaine
ArtistUnicode:Beltaine
Creator:Jinjin
Version:Celtic Glee
Source:
Tags:folk instrumental violin fiddle
BeatmapID:1875932
BeatmapSetID:897960

[Difficulty]
HPDrainRate:8
CircleSize:7
OverallDifficulty:5
ApproachRate:5
SliderMultiplier:1.4
SliderTickRate:1

[Events]
//Background and Video events
0,0,"rockhill.jpg",0,0
//Break Periods
//Storyboard Layer 0 (Background)
//Storyboard Layer 1 (Fail)
//Storyboard Layer 2 (Pass)
//Storyboard Layer 3 (Foreground)
//Storyboard Layer 4 (Overlay)
//Storyboard Sound Samples

[TimingPoints]
978,428.571428571429,4,2,1,63,1,0
88406,714.285714285714,4,2,1,63,1,0
88406,-84,4,2,1,63,0,0
91263,370.37037037037,4,2,1,63,1,0
91263,-162,4,2,1,63,0,0
91633,352.941176470588,4,2,1,63,1,0
91633,-170,4,2,1,63,0,0
91985,408.163265306122,4,2,1,63,1,0
91985,-147,4,2,1,63,0,0
92393,333.333333333333,4,2,1,63,1,0
92393,-180,4,2,1,63,0,0
92726,333.333333333333,4,2,1,63,1,0
92726,-180,4,2,1,63,0,0
94059,342.857142857143,4,2,1,63,1,0
94059,-175,4,2,1,63,0,0
94401,400,4,2,1,63,1,0
94401,-150.15015015015,4,2,1,63,0,0
96001,333.333333333333,4,2,1,63,1,0
96001,-178.571428571429,4,2,1,63,0,0
96334,387.096774193548,4,2,1,63,1,0
96334,-155,4,2,1,63,0,0
96527,368.098159509202,4,2,1,63,1,0
96527,-163,4,2,1,63,0,0
96895,382.165605095541,4,2,1,63,1,0
96895,-157,4,2,1,63,0,0
97659,461.538461538462,4,2,1,63,1,0
97659,-130,4,2,1,63,0,0
99043,600,4,2,1,63,1,0
99193,600,4,2,1,63,1,0
100393,485.82995951417,4,2,1,63,1,0
100393,-123.5,4,2,1,63,0,0
100635,444.444444444444,4,2,1,63,1,0
100635,-135,4,2,1,63,0,0
101523,444.444444444444,4,2,1,63,1,0
101523,-135,4,2,1,63,0,0
101967,528.63436123348,4,2,1,63,1,0
101967,-113.5,4,2,1,63,0,0
102231,528.63436123348,4,2,1,63,1,0
102231,-113.5,4,2,1,63,0,0
102759,487.80487804878,4,2,1,63,1,0
102759,-123,4,2,1,63,0,0
103734,487.80487804878,4,2,1,63,1,0
103734,-123,4,2,1,63,0,0

[HitObjects]
36,192,978,128,0,1620:0:0:0:0:
329,192,978,128,0,1085:0:0:0:0:
402,192,978,128,0,1299:0:0:0:0:
182,192,1085,128,0,1138:0:0:0:0:
182,192,1192,128,0,1245:0:0:0:0:
475,192,1299,128,0,1835:0:0:0:0:
329,192,1299,128,0,1513:0:0:0:0:
182,192,1406,128,0,1460:0:0:0:0:
182,192,1513,128,0,1567:0:0:0:0:
402,192,1513,128,0,1728:0:0:0:0:
256,192,1620,128,0,2263:0:0:0:0:
109,192,1620,128,0,1728:0:0:0:0:
182,192,1728,128,0,1835:0:0:0:0:
402,192,1835,128,0,2049:0:0:0:0:
109,192,1942,128,0,1995:0:0:0:0:
36,192,2049,128,0,2370:0:0:0:0:
109,192,2049,128,0,2103:0:0:0:0:
329,192,2156,128,0,2263:0:0:0:0:
475,192,2263,128,0,2692:0:0:0:0:
182,192,2263,128,0,2370:0:0:0:0:
402,192,2263,128,0,2370:0:0:0:0:
36,192,2478,128,0,2692:0:0:0:0:
182,192,2478,128,0,2585:0:0:0:0:
329,192,2478,128,0,2585:0:0:0:0:
109,192,2692,128,0,3120:0:0:0:0:
402,192,2692,128,0,2799:0:0:0:0:
256,192,2692,128,0,2906:0:0:0:0:
475,192,2799,128,0,2906:0:0:0:0:
182,192,2906,128,0,3120:0:0:0:0:
329,192,2906,128,0,3013:0:0:0:0:
402,192,3013,128,0,3442:0:0:0:0:
256,192,3120,128,0,3335:0:0:0:0:
109,192,3228,128,0,3335:0:0:0:0:
36,192,3335,128,0,3763:0:0:0:0:
182,192,3335,128,0,3549:0:0:0:0:
329,192,3442,128,0,3549:0:0:0:0:
402,192,3549,128,0,3763:0:0:0:0:
256,192,3549,128,0,3656:0:0:0:0:
475,192,3763,128,0,4192:0:0:0:0:
109,192,3763,128,0,3978:0:0:0:0:
256,192,3763,128,0,3870:0:0:0:0:
329,192,3978,128,0,4406:0:0:0:0:
182,192,3978,128,0,4192:0:0:0:0:
256,192,3978,128,0,4085:0:0:0:0:
36,192,4192,128,0,4620:0:0:0:0:
402,192,4192,128,0,4406:0:0:0:0:
256,192,4192,128,0,4299:0:0:0:0:
475,192,4406,128,0,4942:0:0:0:0:
109,192,4406,128,0,4620:0:0:0:0:
256,192,4406,128,0,4513:0:0:0:0:
329,192,4513,128,0,4620:0:0:0:0:
402,192,4620,128,0,4728:0:0:0:0:
182,192,4728,128,0,5263:0:0:0:0:
36,192,4728,128,0,4942:0:0:0:0:
256,192,4728,128,0,4835:0:0:0:0:
329,192,4835,128,0,4942:0:0:0:0:
402,192,4942,128,0,5049:0:0:0:0:
329,192,5049,128,0,5692:0:0:0:0:
109,192,5049,128,0,5263:0:0:0:0:
36,192,5156,128,0,5263:0:0:0:0:
256,192,5263,128,0,5692:0:0:0:0:
475,192,5263,128,0,5478:0:0:0:0:
182,192,5370,128,0,5478:0:0:0:0:
36,192,5478,128,0,5906:0:0:0:0:
109,192,5478,128,0,5585:0:0:0:0:
402,192,5585,128,0,5692:0:0:0:0:
182,192,5585,128,0,5692:0:0:0:0:
475,192,5692,128,0,6120:0:0:0:0:
182,192,5906,128,0,6335:0:0:0:0:
329,192,5906,128,0,6120:0:0:0:0:
402,192,6120,128,0,6549:0:0:0:0:
109,192,6120,128,0,6335:0:0:0:0:
329,192,6228,128,0,6335:0:0:0:0:
36,192,6335,128,0,6978:0:0:0:0:
256,192,6335,128,0,6549:0:0:0:0:
109,192,6442,128,0,6549:0:0:0:0:
182,192,6549,128,0,6763:0:0:0:0:
329,192,6656,128,0,6763:0:0:0:0:
475,192,6763,128,0,7406:0:0:0:0:
256,192,6763,128,0,6978:0:0:0:0:
402,192,6763,128,0,6978:0:0:0:0:
109,192,6870,128,0,6978:0:0:0:0:
182,192,6978,128,0,7192:0:0:0:0:
329,192,6978,128,0,7085:0:0:0:0:
109,192,7192,128,0,7620:0:0:0:0:
402,192,7192,128,0,7406:0:0:0:0:
329,192,7192,128,0,7299:0:0:0:0:
256,192,7406,128,0,7835:0:0:0:0:
329,192,7406,128,0,7513:0:0:0:0:
36,192,7406,128,0,7620:0:0:0:0:
402,192,7620,128,0,8049:0:0:0:0:
182,192,7620,128,0,7835:0:0:0:0:
329,192,7620,128,0,7728:0:0:0:0:
36,192,7835,128,0,8370:0:0:0:0:
109,192,7835,128,0,8049:0:0:0:0:
256,192,7942,128,0,8049:0:0:0:0:
182,192,8049,128,0,8156:0:0:0:0:
475,192,8156,128,0,8692:0:0:0:0:
329,192,8156,128,0,8370:0:0:0:0:
256,192,8263,128,0,8370:0:0:0:0:
182,192,8370,128,0,8478:0:0:0:0:
109,192,8478,128,0,9120:0:0:0:0:
402,192,8478,128,0,8692:0:0:0:0:
329,192,8478,128,0,8692:0:0:0:0:
182,192,8585,128,0,8692:0:0:0:0:
256,192,8692,128,0,8906:0:0:0:0:
329,192,8799,128,0,8906:0:0:0:0:
402,192,8906,128,0,9335:0:0:0:0:
475,192,8906,128,0,9120:0:0:0:0:
182,192,8906,128,0,9013:0:0:0:0:
256,192,9013,128,0,9120:0:0:0:0:
36,192,9120,128,0,9549:0:0:0:0:
182,192,9120,128,0,9335:0:0:0:0:
329,192,9120,128,0,9228:0:0:0:0:
329,192,9335,128,0,9763:0:0:0:0:
109,192,9335,128,0,9549:0:0:0:0:
256,192,9335,128,0,9442:0:0:0:0:
475,192,9549,128,0,10192:0:0:0:0:
182,192,9549,128,0,9763:0:0:0:0:
256,192,9656,128,0,9763:0:0:0:0:
109,192,9763,128,0,9978:0:0:0:0:
182,192,9870,128,0,9978:0:0:0:0:
36,192,9978,128,0,10406:0:0:0:0:
256,192,9978,128,0,10192:0:0:0:0:
402,192,9978,128,0,10085:0:0:0:0:
329,192,10085,128,0,10192:0:0:0:0:
402,192,10192,128,0,10835:0:0:0:0:
109,192,10192,128,0,10406:0:0:0:0:
182,192,10192,128,0,10299:0:0:0:0:
256,192,10299,128,0,10406:0:0:0:0:
329,192,10406,128,0,10513:0:0:0:0:
182,192,10406,128,0,10620:0:0:0:0:
36,192,10620,128,0,11049:0:0:0:0:
256,192,10620,128,0,10835:0:0:0:0:
329,192,10620,128,0,10728:0:0:0:0:
475,192,10835,128,0,11263:0:0:0:0:
109,192,10835,128,0,11049:0:0:0:0:
329,192,10835,128,0,10942:0:0:0:0:
182,192,11049,128,0,11478:0:0:0:0:
402,192,11049,128,0,11263:0:0:0:0:
329,192,11049,128,0,11156:0:0:0:0:
256,192,11263,128,0,11799:0:0:0:0:
36,192,11263,128,0,11478:0:0:0:0:
329,192,11263,128,0,11370:0:0:0:0:
402,192,11370,128,0,11478:0:0:0:0:
475,192,11478,128,0,11585:0:0:0:0:
109,192,11478,128,0,11692:0:0:0:0:
402,192,11585,128,0,12120:0:0:0:0:
182,192,11585,128,0,11692:0:0:0:0:
36,192,11692,128,0,11906:0:0:0:0:
329,192,11692,128,0,11799:0:0:0:0:
182,192,11799,128,0,11906:0:0:0:0:
109,192,11906,128,0,12549:0:0:0:0:
475,192,11906,128,0,12120:0:0:0:0:
256,192,11906,128,0,12013:0:0:0:0:
329,192,12013,128,0,12120:0:0:0:0:
182,192,12120,128,0,12335:0:0:0:0:
256,192,12228,128,0,12335:0:0:0:0:
329,192,12335,128,0,12763:0:0:0:0:
475,192,12335,128,0,12549:0:0:0:0:
36,192,12442,128,0,12549:0:0:0:0:
402,192,12549,128,0,12978:0:0:0:0:
182,192,12549,128,0,12763:0:0:0:0:
475,192,12763,128,0,13192:0:0:0:0:
109,192,12763,128,0,12978:0:0:0:0:
182,192,12978,128,0,13299:0:0:0:0:
36,192,12978,128,0,13192:0:0:0:0:
256,192,12978,128,0,13085:0:0:0:0:
329,192,13085,128,0,13192:0:0:0:0:
402,192,13192,128,0,13406:0:0:0:0:
109,192,13192,128,0,13299:0:0:0:0:
36,192,13299,128,0,13406:0:0:0:0:
182,192,13406,128,0,13513:0:0:0:0:
329,192,13406,128,0,13620:0:0:0:0:
475,192,13406,128,0,13513:0:0:0:0:
109,192,13513,128,0,13620:0:0:0:0:
182,192,13620,128,0,13942:0:0:0:0:
402,192,13620,128,0,13835:0:0:0:0:
475,192,13728,128,0,13835:0:0:0:0:
36,192,13835,128,0,13942:0:0:0:0:
329,192,13835,128,0,14156:0:0:0:0:
182,192,14049,128,0,14156:0:0:0:0:
36,192,14049,128,0,14156:0:0:0:0:
475,192,14049,128,0,14370:0:0:0:0:
182,192,14263,128,0,14370:0:0:0:0:
36,192,14263,128,0,14370:0:0:0:0:
402,192,14263,128,0,14585:0:0:0:0:
182,192,14478,128,0,14585:0:0:0:0:
36,192,14478,128,0,14585:0:0:0:0:
329,192,14478,128,0,14585:0:0:0:0:
475,192,14692,128,0,15978:0:0:0:0:
36,192,14692,128,0,15978:0:0:0:0:
182,192,14692,1,0,0:0:0:0:
329,192,14692,1,0,0:0:0:0:
256,192,14799,1,0,0:0:0:0:
402,192,14906,1,0,0:0:0:0:
109,192,15013,1,0,0:0:0:0:
402,192,15120,1,0,0:0:0:0:
182,192,15228,1,0,0:0:0:0:
109,192,15335,1,0,0:0:0:0:
402,192,15335,1,0,0:0:0:0:
256,192,15335,1,0,0:0:0:0:
329,192,15442,1,0,0:0:0:0:
182,192,15549,1,0,0:0:0:0:
109,192,15656,1,0,0:0:0:0:
402,192,15656,1,0,0:0:0:0:
182,192,15763,1,0,0:0:0:0:
329,192,15763,1,0,0:0:0:0:
256,192,15870,1,0,0:0:0:0:
109,192,15978,1,0,0:0:0:0:
402,192,15978,1,0,0:0:0:0:
182,192,15978,1,0,0:0:0:0:
329,192,15978,1,0,0:0:0:0:
329,192,16406,128,0,16620:0:0:0:0:
36,192,16406,128,0,16728:0:0:0:0:
109,192,16406,128,0,16620:0:0:0:0:
475,192,16513,128,0,16728:0:0:0:0:
402,192,16620,128,0,16728:0:0:0:0:
109,192,16728,128,0,16942:0:0:0:0:
182,192,16728,128,0,16835:0:0:0:0:
329,192,16728,128,0,16942:0:0:0:0:
256,192,16835,128,0,17049:0:0:0:0:
402,192,16942,128,0,17049:0:0:0:0:
36,192,17049,128,0,17370:0:0:0:0:
109,192,17049,128,0,17263:0:0:0:0:
475,192,17049,128,0,17263:0:0:0:0:
329,192,17156,128,0,17263:0:0:0:0:
402,192,17263,128,0,17478:0:0:0:0:
109,192,17370,128,0,17585:0:0:0:0:
182,192,17370,128,0,17478:0:0:0:0:
256,192,17370,128,0,17478:0:0:0:0:
329,192,17478,128,0,17692:0:0:0:0:
475,192,17585,128,0,17692:0:0:0:0:
36,192,17692,128,0,17906:0:0:0:0:
109,192,17692,128,0,17906:0:0:0:0:
182,192,17692,128,0,17799:0:0:0:0:
402,192,17692,128,0,18120:0:0:0:0:
182,192,17906,128,0,18120:0:0:0:0:
256,192,18013,128,0,18228:0:0:0:0:
329,192,18120,128,0,18335:0:0:0:0:
475,192,18120,128,0,18442:0:0:0:0:
182,192,18335,128,0,18549:0:0:0:0:
329,192,18442,128,0,18549:0:0:0:0:
402,192,18442,128,0,18656:0:0:0:0:
36,192,18442,128,0,18549:0:0:0:0:
109,192,18549,128,0,18763:0:0:0:0:
256,192,18656,128,0,18763:0:0:0:0:
475,192,18763,128,0,19085:0:0:0:0:
402,192,18763,128,0,18978:0:0:0:0:
36,192,18763,128,0,18978:0:0:0:0:
109,192,18870,128,0,18978:0:0:0:0:
182,192,18978,128,0,19192:0:0:0:0:
402,192,19085,128,0,19299:0:0:0:0:
329,192,19085,128,0,19192:0:0:0:0:
256,192,19085,128,0,19192:0:0:0:0:
109,192,19192,128,0,19406:0:0:0:0:
36,192,19299,128,0,19406:0:0:0:0:
329,192,19406,128,0,19513:0:0:0:0:
475,192,19406,128,0,19620:0:0:0:0:
402,192,19406,128,0,19620:0:0:0:0:
182,192,19406,128,0,19728:0:0:0:0:
329,192,19620,128,0,19835:0:0:0:0:
256,192,19728,128,0,19942:0:0:0:0:
182,192,19835,128,0,20049:0:0:0:0:
36,192,19835,128,0,20049:0:0:0:0:
475,192,19835,128,0,20049:0:0:0:0:
329,192,20049,128,0,20263:0:0:0:0:
36,192,20156,128,0,20263:0:0:0:0:
475,192,20156,128,0,20263:0:0:0:0:
256,192,20156,128,0,20263:0:0:0:0:
109,192,20263,128,0,20478:0:0:0:0:
402,192,20263,128,0,20478:0:0:0:0:
182,192,20370,128,0,20478:0:0:0:0:
36,192,20478,128,0,20799:0:0:0:0:
475,192,20478,128,0,20799:0:0:0:0:
329,192,20478,128,0,20692:0:0:0:0:
182,192,20585,128,0,20692:0:0:0:0:
256,192,20692,128,0,20906:0:0:0:0:
402,192,20799,128,0,20906:0:0:0:0:
36,192,20906,128,0,21013:0:0:0:0:
475,192,20906,128,0,21013:0:0:0:0:
329,192,20906,128,0,21120:0:0:0:0:
182,192,21013,128,0,21120:0:0:0:0:
36,192,21120,128,0,21335:0:0:0:0:
475,192,21120,128,0,21335:0:0:0:0:
109,192,21120,128,0,21228:0:0:0:0:
402,192,21120,128,0,21228:0:0:0:0:
256,192,21335,128,0,21549:0:0:0:0:
182,192,21442,128,0,21656:0:0:0:0:
109,192,21549,128,0,21763:0:0:0:0:
402,192,21549,128,0,21692:0:0:0:0:
329,192,21620,128,0,21763:0:0:0:0:
256,192,21692,128,0,21835:0:0:0:0:
475,192,21763,128,0,21978:0:0:0:0:
329,192,21870,128,0,21978:0:0:0:0:
182,192,21870,128,0,21978:0:0:0:0:
256,192,21978,128,0,22192:0:0:0:0:
36,192,22085,128,0,22192:0:0:0:0:
109,192,22192,128,0,22513:0:0:0:0:
402,192,22192,128,0,22513:0:0:0:0:
329,192,22192,128,0,22406:0:0:0:0:
182,192,22299,128,0,22406:0:0:0:0:
256,192,22406,128,0,22620:0:0:0:0:
36,192,22513,128,0,22620:0:0:0:0:
182,192,22620,128,0,22728:0:0:0:0:
329,192,22620,128,0,22728:0:0:0:0:
402,192,22620,128,0,22835:0:0:0:0:
109,192,22728,128,0,22835:0:0:0:0:
36,192,22835,128,0,23049:0:0:0:0:
475,192,22835,128,0,23049:0:0:0:0:
182,192,22835,128,0,23049:0:0:0:0:
329,192,22942,128,0,23049:0:0:0:0:
256,192,23049,128,0,23263:0:0:0:0:
109,192,23156,128,0,23263:0:0:0:0:
402,192,23156,128,0,23263:0:0:0:0:
182,192,23263,128,0,23478:0:0:0:0:
475,192,23263,128,0,23585:0:0:0:0:
329,192,23263,128,0,23478:0:0:0:0:
36,192,23370,128,0,23585:0:0:0:0:
109,192,23478,128,0,23585:0:0:0:0:
402,192,23585,128,0,23799:0:0:0:0:
329,192,23585,128,0,23692:0:0:0:0:
182,192,23585,128,0,23799:0:0:0:0:
256,192,23692,128,0,23906:0:0:0:0:
109,192,23799,128,0,23906:0:0:0:0:
475,192,23906,128,0,24228:0:0:0:0:
36,192,23906,128,0,24120:0:0:0:0:
329,192,23906,128,0,24120:0:0:0:0:
182,192,24013,128,0,24120:0:0:0:0:
109,192,24120,128,0,24335:0:0:0:0:
402,192,24228,128,0,24442:0:0:0:0:
329,192,24228,128,0,24335:0:0:0:0:
256,192,24228,128,0,24335:0:0:0:0:
182,192,24335,128,0,24549:0:0:0:0:
36,192,24442,128,0,24549:0:0:0:0:
475,192,24549,128,0,24763:0:0:0:0:
402,192,24549,128,0,24763:0:0:0:0:
329,192,24549,128,0,24656:0:0:0:0:
109,192,24549,128,0,24978:0:0:0:0:
329,192,24763,128,0,24978:0:0:0:0:
256,192,24870,128,0,25085:0:0:0:0:
182,192,24978,128,0,25192:0:0:0:0:
36,192,24978,128,0,25299:0:0:0:0:
329,192,25192,128,0,25406:0:0:0:0:
182,192,25299,128,0,25406:0:0:0:0:
109,192,25299,128,0,25513:0:0:0:0:
475,192,25299,128,0,25406:0:0:0:0:
402,192,25406,128,0,25620:0:0:0:0:
256,192,25513,128,0,25620:0:0:0:0:
36,192,25620,128,0,25942:0:0:0:0:
475,192,25620,128,0,25835:0:0:0:0:
182,192,25620,128,0,25835:0:0:0:0:
402,192,25728,128,0,25835:0:0:0:0:
329,192,25835,128,0,26049:0:0:0:0:
109,192,25942,128,0,26156:0:0:0:0:
182,192,25942,128,0,26049:0:0:0:0:
256,192,25942,128,0,26049:0:0:0:0:
402,192,26049,128,0,26263:0:0:0:0:
475,192,26156,128,0,26263:0:0:0:0:
182,192,26263,128,0,26370:0:0:0:0:
36,192,26263,128,0,26478:0:0:0:0:
109,192,26263,128,0,26478:0:0:0:0:
329,192,26263,128,0,26585:0:0:0:0:
182,192,26478,128,0,26692:0:0:0:0:
256,192,26585,128,0,26799:0:0:0:0:
329,192,26692,128,0,26906:0:0:0:0:
475,192,26692,128,0,26906:0:0:0:0:
36,192,26692,128,0,26906:0:0:0:0:
182,192,26906,128,0,27120:0:0:0:0:
475,192,27013,128,0,27120:0:0:0:0:
36,192,27013,128,0,27120:0:0:0:0:
256,192,27013,128,0,27120:0:0:0:0:
402,192,27120,128,0,27335:0:0:0:0:
109,192,27120,128,0,27335:0:0:0:0:
329,192,27228,128,0,27335:0:0:0:0:
475,192,27335,128,0,27656:0:0:0:0:
36,192,27335,128,0,27656:0:0:0:0:
182,192,27335,128,0,27549:0:0:0:0:
329,192,27442,128,0,27549:0:0:0:0:
256,192,27549,128,0,27763:0:0:0:0:
109,192,27656,128,0,27763:0:0:0:0:
475,192,27763,128,0,27870:0:0:0:0:
36,192,27763,128,0,27870:0:0:0:0:
182,192,27763,128,0,27978:0:0:0:0:
329,192,27870,128,0,27978:0:0:0:0:
475,192,27978,128,0,28192:0:0:0:0:
36,192,27978,128,0,28192:0:0:0:0:
402,192,27978,128,0,28085:0:0:0:0:
109,192,27978,128,0,28085:0:0:0:0:
256,192,28192,128,0,28406:0:0:0:0:
329,192,28299,128,0,28513:0:0:0:0:
402,192,28406,128,0,28620:0:0:0:0:
109,192,28406,128,0,28549:0:0:0:0:
36,192,28406,128,0,28513:0:0:0:0:
475,192,28406,128,0,28513:0:0:0:0:
182,192,28478,128,0,28620:0:0:0:0:
256,192,28549,128,0,28692:0:0:0:0:
36,192,28620,128,0,28835:0:0:0:0:
182,192,28728,128,0,28835:0:0:0:0:
329,192,28728,128,0,28835:0:0:0:0:
256,192,28835,128,0,29049:0:0:0:0:
475,192,28835,128,0,29585:0:0:0:0:
402,192,28835,128,0,29585:0:0:0:0:
109,192,28942,128,0,29156:0:0:0:0:
36,192,29049,128,0,29263:0:0:0:0:
329,192,29156,128,0,29370:0:0:0:0:
182,192,29263,128,0,29478:0:0:0:0:
109,192,29370,128,0,29585:0:0:0:0:
329,192,29478,128,0,29620:0:0:0:0:
256,192,29549,128,0,29692:0:0:0:0:
182,192,29620,128,0,29763:0:0:0:0:
475,192,29692,128,0,30013:0:0:0:0:
402,192,29692,128,0,30013:0:0:0:0:
36,192,29692,128,0,29906:0:0:0:0:
256,192,29799,1,0,0:0:0:0:
329,192,29799,1,0,0:0:0:0:
182,192,29906,1,0,0:0:0:0:
109,192,29906,1,0,0:0:0:0:
256,192,30013,1,0,0:0:0:0:
329,192,30013,1,0,0:0:0:0:
402,192,30120,1,0,0:0:0:0:
475,192,30120,1,0,0:0:0:0:
36,192,30120,1,0,0:0:0:0:
109,192,30120,128,0,30442:0:0:0:0:
182,192,30120,128,0,30442:0:0:0:0:
329,192,30335,128,0,30549:0:0:0:0:
402,192,30442,128,0,30656:0:0:0:0:
182,192,30549,128,0,30763:0:0:0:0:
109,192,30656,128,0,30870:0:0:0:0:
256,192,30763,128,0,31192:0:0:0:0:
475,192,30870,128,0,30978:0:0:0:0:
402,192,30978,128,0,31620:0:0:0:0:
182,192,31192,128,0,31406:0:0:0:0:
109,192,31299,128,0,31513:0:0:0:0:
36,192,31406,128,0,31835:0:0:0:0:
329,192,31513,128,0,31728:0:0:0:0:
109,192,31620,128,0,31728:0:0:0:0:
475,192,31728,128,0,32263:0:0:0:0:
182,192,31835,128,0,32692:0:0:0:0:
36,192,32049,128,0,32370:0:0:0:0:
109,192,32156,128,0,32478:0:0:0:0:
329,192,32263,128,0,32370:0:0:0:0:
402,192,32370,128,0,32585:0:0:0:0:
475,192,32478,128,0,33013:0:0:0:0:
256,192,32585,128,0,32799:0:0:0:0:
36,192,32692,128,0,32835:0:0:0:0:
109,192,32763,128,0,32906:0:0:0:0:
182,192,32835,128,0,32978:0:0:0:0:
329,192,32906,128,0,33013:0:0:0:0:
36,192,33013,128,0,33228:0:0:0:0:
109,192,33120,128,0,33228:0:0:0:0:
182,192,33120,128,0,33228:0:0:0:0:
402,192,33120,1,0,0:0:0:0:
475,192,33120,1,0,0:0:0:0:
329,192,33228,1,0,0:0:0:0:
36,192,33335,128,0,33442:0:0:0:0:
109,192,33335,128,0,33442:0:0:0:0:
182,192,33335,128,0,33442:0:0:0:0:
402,192,33335,1,0,0:0:0:0:
475,192,33335,1,0,0:0:0:0:
329,192,33442,1,0,0:0:0:0:
36,192,33549,128,0,33656:0:0:0:0:
109,192,33549,128,0,33656:0:0:0:0:
182,192,33549,128,0,33656:0:0:0:0:
475,192,33549,1,0,0:0:0:0:
402,192,33549,128,0,33978:0:0:0:0:
256,192,33763,128,0,34085:0:0:0:0:
109,192,33870,128,0,33978:0:0:0:0:
36,192,33978,128,0,34406:0:0:0:0:
182,192,34085,128,0,34299:0:0:0:0:
329,192,34192,128,0,34620:0:0:0:0:
475,192,34299,128,0,34728:0:0:0:0:
109,192,34406,128,0,34835:0:0:0:0:
256,192,34620,128,0,34835:0:0:0:0:
329,192,34728,128,0,34942:0:0:0:0:
182,192,34835,128,0,35263:0:0:0:0:
36,192,34835,128,0,35263:0:0:0:0:
475,192,34942,128,0,35049:0:0:0:0:
329,192,35049,128,0,35263:0:0:0:0:
402,192,35156,128,0,35370:0:0:0:0:
475,192,35263,128,0,36120:0:0:0:0:
109,192,35263,128,0,35692:0:0:0:0:
256,192,35478,128,0,35585:0:0:0:0:
329,192,35585,128,0,35799:0:0:0:0:
182,192,35692,128,0,35906:0:0:0:0:
36,192,35799,128,0,35906:0:0:0:0:
256,192,35906,128,0,36228:0:0:0:0:
402,192,36013,128,0,36120:0:0:0:0:
182,192,36120,128,0,36263:0:0:0:0:
329,192,36120,128,0,36442:0:0:0:0:
109,192,36192,128,0,36335:0:0:0:0:
36,192,36263,128,0,36406:0:0:0:0:
475,192,36335,128,0,36442:0:0:0:0:
182,192,36442,128,0,36549:0:0:0:0:
329,192,36549,128,0,36656:0:0:0:0:
402,192,36549,128,0,36656:0:0:0:0:
475,192,36549,128,0,36656:0:0:0:0:
36,192,36549,1,0,0:0:0:0:
109,192,36549,1,0,0:0:0:0:
182,192,36656,1,0,0:0:0:0:
329,192,36763,128,0,36870:0:0:0:0:
402,192,36763,128,0,36870:0:0:0:0:
475,192,36763,128,0,36870:0:0:0:0:
36,192,36763,1,0,0:0:0:0:
109,192,36763,1,0,0:0:0:0:
182,192,36870,1,0,0:0:0:0:
109,192,36978,128,0,37085:0:0:0:0:
402,192,36978,128,0,37085:0:0:0:0:
475,192,36978,128,0,37085:0:0:0:0:
36,192,36978,128,0,38692:0:0:0:0:
256,192,36978,128,0,37406:0:0:0:0:
329,192,37192,128,0,37406:0:0:0:0:
402,192,37299,128,0,37513:0:0:0:0:
475,192,37406,128,0,37835:0:0:0:0:
182,192,37513,128,0,37728:0:0:0:0:
256,192,37620,128,0,38049:0:0:0:0:
109,192,37728,128,0,37835:0:0:0:0:
329,192,37835,128,0,37978:0:0:0:0:
402,192,37906,128,0,38049:0:0:0:0:
475,192,37978,128,0,38120:0:0:0:0:
182,192,38049,128,0,38370:0:0:0:0:
329,192,38156,128,0,38263:0:0:0:0:
402,192,38263,128,0,38370:0:0:0:0:
475,192,38263,128,0,38370:0:0:0:0:
256,192,38370,128,0,38478:0:0:0:0:
402,192,38478,128,0,38585:0:0:0:0:
475,192,38478,128,0,38585:0:0:0:0:
256,192,38585,128,0,38692:0:0:0:0:
109,192,38692,128,0,40406:0:0:0:0:
182,192,38692,128,0,38799:0:0:0:0:
402,192,38692,128,0,38799:0:0:0:0:
329,192,38692,128,0,38799:0:0:0:0:
475,192,38692,128,0,39335:0:0:0:0:
256,192,38906,128,0,39228:0:0:0:0:
329,192,39013,128,0,39120:0:0:0:0:
36,192,39120,128,0,39549:0:0:0:0:
402,192,39228,128,0,39442:0:0:0:0:
182,192,39335,128,0,39549:0:0:0:0:
329,192,39442,128,0,39978:0:0:0:0:
475,192,39549,128,0,39692:0:0:0:0:
402,192,39620,128,0,39763:0:0:0:0:
256,192,39692,128,0,39835:0:0:0:0:
182,192,39763,128,0,40085:0:0:0:0:
402,192,39870,128,0,39978:0:0:0:0:
256,192,39978,128,0,40085:0:0:0:0:
475,192,39978,128,0,40085:0:0:0:0:
329,192,40085,128,0,40192:0:0:0:0:
475,192,40192,128,0,40299:0:0:0:0:
256,192,40192,128,0,40299:0:0:0:0:
329,192,40299,128,0,40406:0:0:0:0:
182,192,40406,128,0,42120:0:0:0:0:
475,192,40406,128,0,40513:0:0:0:0:
36,192,40406,128,0,41049:0:0:0:0:
329,192,40620,128,0,40835:0:0:0:0:
256,192,40728,128,0,40942:0:0:0:0:
109,192,40835,128,0,41263:0:0:0:0:
402,192,40942,128,0,41049:0:0:0:0:
475,192,41049,128,0,41692:0:0:0:0:
329,192,41156,128,0,41478:0:0:0:0:
256,192,41263,128,0,41406:0:0:0:0:
109,192,41335,128,0,41478:0:0:0:0:
36,192,41406,128,0,41549:0:0:0:0:
402,192,41478,128,0,41585:0:0:0:0:
256,192,41585,128,0,41799:0:0:0:0:
329,192,41692,128,0,41799:0:0:0:0:
402,192,41692,128,0,41799:0:0:0:0:
36,192,41799,128,0,41906:0:0:0:0:
329,192,41906,128,0,42013:0:0:0:0:
402,192,41906,128,0,42013:0:0:0:0:
36,192,42013,128,0,42120:0:0:0:0:
256,192,42120,128,0,43835:0:0:0:0:
402,192,42120,128,0,42228:0:0:0:0:
475,192,42120,128,0,42228:0:0:0:0:
109,192,42120,128,0,42656:0:0:0:0:
329,192,42335,128,0,42549:0:0:0:0:
402,192,42442,128,0,42656:0:0:0:0:
475,192,42549,128,0,43192:0:0:0:0:
182,192,42656,128,0,42978:0:0:0:0:
36,192,42763,128,0,42870:0:0:0:0:
109,192,42870,128,0,43406:0:0:0:0:
402,192,42978,128,0,43120:0:0:0:0:
329,192,43049,128,0,43192:0:0:0:0:
182,192,43120,128,0,43263:0:0:0:0:
36,192,43192,128,0,43406:0:0:0:0:
329,192,43299,128,0,43513:0:0:0:0:
182,192,43406,128,0,43620:0:0:0:0:
402,192,43513,128,0,43728:0:0:0:0:
109,192,43620,128,0,43835:0:0:0:0:
475,192,43728,128,0,43835:0:0:0:0:
329,192,43835,128,0,45549:0:0:0:0:
36,192,43835,128,0,43942:0:0:0:0:
182,192,43835,128,0,43942:0:0:0:0:
402,192,43835,128,0,44478:0:0:0:0:
182,192,44049,128,0,44156:0:0:0:0:
36,192,44049,128,0,44585:0:0:0:0:
109,192,44156,128,0,44478:0:0:0:0:
475,192,44263,128,0,44478:0:0:0:0:
182,192,44370,128,0,44585:0:0:0:0:
256,192,44478,128,0,44906:0:0:0:0:
475,192,44585,128,0,44906:0:0:0:0:
36,192,44692,128,0,44835:0:0:0:0:
109,192,44763,128,0,44906:0:0:0:0:
182,192,44835,128,0,44978:0:0:0:0:
402,192,44906,128,0,45228:0:0:0:0:
36,192,45013,128,0,45120:0:0:0:0:
109,192,45120,128,0,45228:0:0:0:0:
182,192,45120,128,0,45228:0:0:0:0:
475,192,45228,128,0,45335:0:0:0:0:
109,192,45335,128,0,45442:0:0:0:0:
182,192,45335,128,0,45442:0:0:0:0:
475,192,45442,128,0,45549:0:0:0:0:
402,192,45549,128,0,47263:0:0:0:0:
36,192,45549,128,0,45656:0:0:0:0:
109,192,45549,128,0,45656:0:0:0:0:
182,192,45549,128,0,45656:0:0:0:0:
256,192,45549,128,0,46192:0:0:0:0:
36,192,45763,128,0,46085:0:0:0:0:
109,192,45870,128,0,45978:0:0:0:0:
329,192,45978,128,0,46299:0:0:0:0:
182,192,46085,128,0,46406:0:0:0:0:
109,192,46192,128,0,46513:0:0:0:0:
36,192,46299,128,0,46620:0:0:0:0:
256,192,46406,128,0,46549:0:0:0:0:
329,192,46478,128,0,46620:0:0:0:0:
475,192,46549,128,0,46692:0:0:0:0:
182,192,46620,128,0,46942:0:0:0:0:
36,192,46728,128,0,47263:0:0:0:0:
329,192,46835,128,0,46942:0:0:0:0:
256,192,46835,128,0,46942:0:0:0:0:
109,192,46942,128,0,47049:0:0:0:0:
256,192,47049,128,0,47156:0:0:0:0:
329,192,47049,128,0,47156:0:0:0:0:
109,192,47156,128,0,47263:0:0:0:0:
475,192,47263,128,0,48549:0:0:0:0:
256,192,47263,128,0,47370:0:0:0:0:
329,192,47263,128,0,47370:0:0:0:0:
182,192,47263,128,0,47692:0:0:0:0:
36,192,47478,128,0,47906:0:0:0:0:
329,192,47585,128,0,47799:0:0:0:0:
402,192,47692,128,0,48228:0:0:0:0:
109,192,47799,128,0,48013:0:0:0:0:
182,192,47906,128,0,48120:0:0:0:0:
256,192,48013,128,0,48549:0:0:0:0:
36,192,48120,128,0,48263:0:0:0:0:
109,192,48192,128,0,48335:0:0:0:0:
182,192,48263,128,0,48406:0:0:0:0:
329,192,48335,128,0,48549:0:0:0:0:
109,192,48442,128,0,48656:0:0:0:0:
402,192,48549,128,0,48763:0:0:0:0:
182,192,48656,128,0,48870:0:0:0:0:
475,192,48763,128,0,48978:0:0:0:0:
36,192,48763,128,0,48870:0:0:0:0:
256,192,48870,128,0,49085:0:0:0:0:
109,192,48870,128,0,48978:0:0:0:0:
329,192,48978,128,0,49120:0:0:0:0:
36,192,48978,128,0,49192:0:0:0:0:
182,192,48978,128,0,49192:0:0:0:0:
402,192,49049,128,0,49192:0:0:0:0:
475,192,49120,128,0,49263:0:0:0:0:
256,192,49192,128,0,49406:0:0:0:0:
402,192,49299,128,0,49513:0:0:0:0:
182,192,49406,128,0,49620:0:0:0:0:
329,192,49513,128,0,49728:0:0:0:0:
109,192,49620,128,0,49835:0:0:0:0:
256,192,49728,128,0,49942:0:0:0:0:
36,192,49835,128,0,50263:0:0:0:0:
402,192,49835,128,0,49942:0:0:0:0:
475,192,49835,128,0,49942:0:0:0:0:
182,192,49942,128,0,50156:0:0:0:0:
329,192,50049,128,0,50263:0:0:0:0:
475,192,50156,128,0,50370:0:0:0:0:
109,192,50263,128,0,50370:0:0:0:0:
402,192,50263,128,0,50370:0:0:0:0:
256,192,50263,128,0,50692:0:0:0:0:
182,192,50585,128,0,50692:0:0:0:0:
329,192,50585,128,0,50692:0:0:0:0:
36,192,50692,128,0,50906:0:0:0:0:
109,192,50692,128,0,50906:0:0:0:0:
402,192,50692,128,0,50799:0:0:0:0:
475,192,50692,128,0,50799:0:0:0:0:
36,192,51013,128,0,51120:0:0:0:0:
109,192,51013,128,0,51120:0:0:0:0:
329,192,51013,128,0,51228:0:0:0:0:
402,192,51013,128,0,51228:0:0:0:0:
256,192,51013,128,0,51228:0:0:0:0:
256,192,51335,128,0,51442:0:0:0:0:
329,192,51335,128,0,51442:0:0:0:0:
109,192,51335,128,0,51549:0:0:0:0:
36,192,51335,128,0,51549:0:0:0:0:
475,192,51335,128,0,51549:0:0:0:0:
109,192,51656,128,0,51870:0:0:0:0:
182,192,51656,128,0,51763:0:0:0:0:
329,192,51656,128,0,51870:0:0:0:0:
475,192,51656,128,0,51870:0:0:0:0:
402,192,51656,128,0,51763:0:0:0:0:
36,192,51978,128,0,52192:0:0:0:0:
109,192,51978,128,0,52192:0:0:0:0:
256,192,51978,128,0,52085:0:0:0:0:
329,192,51978,128,0,52085:0:0:0:0:
402,192,51978,128,0,52085:0:0:0:0:
182,192,52085,128,0,52299:0:0:0:0:
475,192,52085,128,0,52299:0:0:0:0:
36,192,52406,128,0,52620:0:0:0:0:
182,192,52406,128,0,52620:0:0:0:0:
256,192,52406,128,0,52513:0:0:0:0:
402,192,52406,128,0,52513:0:0:0:0:
475,192,52406,128,0,52513:0:0:0:0:
402,192,52728,128,0,52942:0:0:0:0:
475,192,52728,128,0,52942:0:0:0:0:
256,192,52728,128,0,52942:0:0:0:0:
109,192,52728,128,0,52835:0:0:0:0:
36,192,52728,128,0,52835:0:0:0:0:
182,192,52835,128,0,52942:0:0:0:0:
329,192,52835,128,0,52942:0:0:0:0:
36,192,53049,128,0,53585:0:0:0:0:
475,192,53049,128,0,53263:0:0:0:0:
329,192,53049,128,0,53156:0:0:0:0:
256,192,53049,128,0,53156:0:0:0:0:
182,192,53049,128,0,53263:0:0:0:0:
182,192,53370,128,0,53478:0:0:0:0:
109,192,53692,128,0,53799:0:0:0:0:
182,192,53692,128,0,53906:0:0:0:0:
329,192,53692,128,0,53906:0:0:0:0:
402,192,53692,128,0,54013:0:0:0:0:
475,192,53692,128,0,54013:0:0:0:0:
36,192,54120,128,0,54335:0:0:0:0:
182,192,54120,128,0,54228:0:0:0:0:
256,192,54120,128,0,54335:0:0:0:0:
402,192,54120,128,0,54228:0:0:0:0:
475,192,54120,128,0,54335:0:0:0:0:
475,192,54442,128,0,54656:0:0:0:0:
402,192,54442,128,0,54549:0:0:0:0:
329,192,54442,128,0,54656:0:0:0:0:
109,192,54442,128,0,54656:0:0:0:0:
182,192,54442,128,0,54549:0:0:0:0:
256,192,54549,128,0,54656:0:0:0:0:
36,192,54549,128,0,54656:0:0:0:0:
109,192,54763,128,0,54978:0:0:0:0:
36,192,54763,128,0,54870:0:0:0:0:
256,192,54763,128,0,54978:0:0:0:0:
402,192,54763,128,0,54978:0:0:0:0:
329,192,54763,128,0,54870:0:0:0:0:
182,192,55085,128,0,55299:0:0:0:0:
475,192,55085,128,0,55299:0:0:0:0:
402,192,55085,128,0,55192:0:0:0:0:
329,192,55085,128,0,55192:0:0:0:0:
36,192,55085,128,0,55299:0:0:0:0:
256,192,55406,128,0,55728:0:0:0:0:
109,192,55406,128,0,55620:0:0:0:0:
36,192,55406,128,0,55620:0:0:0:0:
402,192,55406,128,0,55513:0:0:0:0:
329,192,55406,128,0,55513:0:0:0:0:
182,192,55513,128,0,55620:0:0:0:0:
475,192,55513,128,0,55728:0:0:0:0:
109,192,55835,128,0,56049:0:0:0:0:
256,192,55835,128,0,55942:0:0:0:0:
475,192,55835,128,0,56049:0:0:0:0:
402,192,55835,128,0,56049:0:0:0:0:
329,192,55835,128,0,55942:0:0:0:0:
36,192,56156,128,0,56370:0:0:0:0:
182,192,56156,128,0,56370:0:0:0:0:
329,192,56156,128,0,56263:0:0:0:0:
402,192,56156,128,0,56263:0:0:0:0:
109,192,56156,128,0,56263:0:0:0:0:
256,192,56263,128,0,56370:0:0:0:0:
475,192,56263,128,0,56370:0:0:0:0:
182,192,56478,128,0,56692:0:0:0:0:
109,192,56478,128,0,56585:0:0:0:0:
329,192,56478,128,0,56585:0:0:0:0:
402,192,56478,128,0,56692:0:0:0:0:
475,192,56478,128,0,56692:0:0:0:0:
329,192,56799,128,0,56906:0:0:0:0:
475,192,56799,128,0,57013:0:0:0:0:
182,192,56799,128,0,56906:0:0:0:0:
109,192,56799,128,0,57013:0:0:0:0:
36,192,56799,128,0,57013:0:0:0:0:
36,192,57120,128,0,57442:0:0:0:0:
256,192,57120,128,0,57228:0:0:0:0:
402,192,57120,128,0,57335:0:0:0:0:
475,192,57120,128,0,57442:0:0:0:0:
182,192,57120,128,0,57335:0:0:0:0:
109,192,57228,128,0,57442:0:0:0:0:
329,192,57228,128,0,57442:0:0:0:0:
36,192,57549,128,0,57870:0:0:0:0:
109,192,57549,128,0,57656:0:0:0:0:
256,192,57549,128,0,57870:0:0:0:0:
402,192,57549,128,0,57656:0:0:0:0:
475,192,57549,128,0,57763:0:0:0:0:
182,192,57870,128,0,58085:0:0:0:0:
109,192,57870,128,0,57978:0:0:0:0:
329,192,57870,128,0,58085:0:0:0:0:
402,192,57870,128,0,57978:0:0:0:0:
475,192,57870,128,0,58192:0:0:0:0:
36,192,57978,128,0,58085:0:0:0:0:
256,192,57978,128,0,58085:0:0:0:0:
36,192,58192,128,0,58406:0:0:0:0:
109,192,58192,128,0,58299:0:0:0:0:
329,192,58192,128,0,58406:0:0:0:0:
402,192,58192,128,0,58299:0:0:0:0:
256,192,58192,128,0,58513:0:0:0:0:
182,192,58513,128,0,58620:0:0:0:0:
36,192,58513,128,0,58728:0:0:0:0:
329,192,58513,128,0,58728:0:0:0:0:
475,192,58513,128,0,58620:0:0:0:0:
109,192,58513,128,0,58620:0:0:0:0:
36,192,58835,128,0,59156:0:0:0:0:
182,192,58835,128,0,59049:0:0:0:0:
402,192,58835,128,0,59049:0:0:0:0:
475,192,58835,128,0,58942:0:0:0:0:
256,192,58835,128,0,59263:0:0:0:0:
109,192,58942,128,0,59049:0:0:0:0:
329,192,58942,128,0,59049:0:0:0:0:
36,192,59263,128,0,59478:0:0:0:0:
182,192,59263,128,0,59370:0:0:0:0:
475,192,59263,128,0,59478:0:0:0:0:
402,192,59263,128,0,59370:0:0:0:0:
329,192,59263,128,0,59478:0:0:0:0:
36,192,59585,128,0,59906:0:0:0:0:
109,192,59585,128,0,59692:0:0:0:0:
256,192,59585,128,0,59799:0:0:0:0:
182,192,59585,128,0,59799:0:0:0:0:
402,192,59585,128,0,59692:0:0:0:0:
329,192,59692,128,0,59799:0:0:0:0:
475,192,59692,128,0,59799:0:0:0:0:
256,192,59906,128,0,60120:0:0:0:0:
182,192,59906,128,0,60013:0:0:0:0:
109,192,59906,128,0,60120:0:0:0:0:
402,192,59906,128,0,60120:0:0:0:0:
475,192,59906,128,0,60013:0:0:0:0:
402,192,60228,128,0,60335:0:0:0:0:
36,192,60549,128,0,60763:0:0:0:0:
182,192,60549,128,0,60763:0:0:0:0:
109,192,60549,128,0,60656:0:0:0:0:
329,192,60549,128,0,60656:0:0:0:0:
475,192,60549,128,0,60656:0:0:0:0:
402,192,60656,128,0,60763:0:0:0:0:
256,192,60656,128,0,60870:0:0:0:0:
36,192,60978,128,0,61085:0:0:0:0:
182,192,60978,128,0,61299:0:0:0:0:
329,192,60978,128,0,61085:0:0:0:0:
402,192,60978,128,0,61192:0:0:0:0:
475,192,60978,128,0,61085:0:0:0:0:
36,192,61299,128,0,61513:0:0:0:0:
109,192,61299,128,0,61620:0:0:0:0:
256,192,61299,128,0,61406:0:0:0:0:
329,192,61299,128,0,61620:0:0:0:0:
475,192,61299,128,0,61406:0:0:0:0:
182,192,61406,128,0,61513:0:0:0:0:
402,192,61406,128,0,61513:0:0:0:0:
36,192,61620,128,0,61835:0:0:0:0:
182,192,61620,128,0,61835:0:0:0:0:
256,192,61620,128,0,61728:0:0:0:0:
402,192,61620,128,0,61728:0:0:0:0:
475,192,61620,128,0,61728:0:0:0:0:
36,192,61942,128,0,62156:0:0:0:0:
109,192,61942,128,0,62049:0:0:0:0:
329,192,61942,128,0,62156:0:0:0:0:
475,192,61942,128,0,62156:0:0:0:0:
182,192,61942,128,0,62156:0:0:0:0:
109,192,62263,128,0,62370:0:0:0:0:
36,192,62263,128,0,62370:0:0:0:0:
256,192,62263,128,0,62585:0:0:0:0:
329,192,62263,128,0,62370:0:0:0:0:
475,192,62263,128,0,62370:0:0:0:0:
182,192,62370,128,0,62478:0:0:0:0:
402,192,62370,128,0,62478:0:0:0:0:
36,192,62692,128,0,63013:0:0:0:0:
109,192,62692,128,0,62799:0:0:0:0:
182,192,62692,128,0,62799:0:0:0:0:
329,192,62692,128,0,62799:0:0:0:0:
475,192,62692,128,0,62906:0:0:0:0:
182,192,63013,128,0,63228:0:0:0:0:
109,192,63013,128,0,63120:0:0:0:0:
329,192,63013,128,0,63228:0:0:0:0:
402,192,63013,128,0,63120:0:0:0:0:
475,192,63013,128,0,63228:0:0:0:0:
36,192,63120,128,0,63228:0:0:0:0:
256,192,63120,128,0,63228:0:0:0:0:
329,192,63335,128,0,63549:0:0:0:0:
475,192,63335,128,0,63549:0:0:0:0:
256,192,63335,128,0,63442:0:0:0:0:
109,192,63335,128,0,63442:0:0:0:0:
36,192,63335,128,0,63656:0:0:0:0:
109,192,63656,128,0,63763:0:0:0:0:
402,192,63656,128,0,63763:0:0:0:0:
475,192,63656,128,0,63870:0:0:0:0:
329,192,63656,128,0,63870:0:0:0:0:
182,192,63656,128,0,63870:0:0:0:0:
36,192,63978,128,0,64299:0:0:0:0:
109,192,63978,128,0,64299:0:0:0:0:
182,192,63978,128,0,64299:0:0:0:0:
329,192,63978,128,0,64085:0:0:0:0:
475,192,63978,128,0,64085:0:0:0:0:
256,192,64085,128,0,64299:0:0:0:0:
402,192,64085,128,0,64299:0:0:0:0:
329,192,64406,128,0,64513:0:0:0:0:
475,192,64406,128,0,64513:0:0:0:0:
256,192,64406,128,0,64549:0:0:0:0:
182,192,64513,128,0,64620:0:0:0:0:
36,192,64513,128,0,64656:0:0:0:0:
329,192,64620,128,0,64728:0:0:0:0:
402,192,64620,128,0,64763:0:0:0:0:
109,192,64728,128,0,64835:0:0:0:0:
182,192,64728,128,0,64870:0:0:0:0:
475,192,64835,128,0,64942:0:0:0:0:
329,192,64835,128,0,64978:0:0:0:0:
256,192,64942,128,0,65049:0:0:0:0:
109,192,64942,128,0,65085:0:0:0:0:
402,192,65049,128,0,65156:0:0:0:0:
475,192,65049,128,0,65192:0:0:0:0:
36,192,65156,128,0,65263:0:0:0:0:
182,192,65156,128,0,65299:0:0:0:0:
329,192,65263,128,0,65370:0:0:0:0:
402,192,65263,128,0,65406:0:0:0:0:
109,192,65370,128,0,65478:0:0:0:0:
256,192,65370,128,0,65513:0:0:0:0:
329,192,65478,128,0,65585:0:0:0:0:
475,192,65478,128,0,65620:0:0:0:0:
109,192,65585,128,0,65692:0:0:0:0:
36,192,65585,128,0,65728:0:0:0:0:
475,192,65692,128,0,66120:0:0:0:0:
256,192,65692,128,0,65799:0:0:0:0:
329,192,65692,128,0,65799:0:0:0:0:
402,192,65692,128,0,65799:0:0:0:0:
36,192,65906,128,0,66120:0:0:0:0:
109,192,65906,128,0,66013:0:0:0:0:
182,192,65906,128,0,66013:0:0:0:0:
256,192,65906,128,0,66013:0:0:0:0:
329,192,66120,128,0,66228:0:0:0:0:
402,192,66120,128,0,66263:0:0:0:0:
256,192,66120,128,0,66228:0:0:0:0:
36,192,66228,128,0,66335:0:0:0:0:
182,192,66228,128,0,66370:0:0:0:0:
329,192,66335,128,0,66442:0:0:0:0:
475,192,66335,128,0,66478:0:0:0:0:
36,192,66442,128,0,66585:0:0:0:0:
109,192,66442,128,0,66549:0:0:0:0:
256,192,66549,128,0,66692:0:0:0:0:
402,192,66549,128,0,66656:0:0:0:0:
182,192,66656,128,0,66763:0:0:0:0:
109,192,66656,128,0,66799:0:0:0:0:
329,192,66763,128,0,66906:0:0:0:0:
402,192,66763,128,0,66870:0:0:0:0:
36,192,66870,128,0,66978:0:0:0:0:
182,192,66870,128,0,67013:0:0:0:0:
402,192,66978,128,0,67085:0:0:0:0:
475,192,66978,128,0,67120:0:0:0:0:
256,192,67085,128,0,67228:0:0:0:0:
109,192,67085,128,0,67192:0:0:0:0:
329,192,67192,128,0,67299:0:0:0:0:
402,192,67192,128,0,67335:0:0:0:0:
182,192,67299,128,0,67406:0:0:0:0:
109,192,67299,128,0,67442:0:0:0:0:
256,192,67406,128,0,67513:0:0:0:0:
329,192,67406,128,0,67513:0:0:0:0:
402,192,67406,128,0,67513:0:0:0:0:
475,192,67406,128,0,67835:0:0:0:0:
182,192,67620,128,0,67728:0:0:0:0:
256,192,67620,128,0,67728:0:0:0:0:
109,192,67620,128,0,67728:0:0:0:0:
36,192,67620,128,0,67835:0:0:0:0:
109,192,67835,128,0,67942:0:0:0:0:
182,192,67835,128,0,68013:0:0:0:0:
256,192,67835,128,0,67942:0:0:0:0:
329,192,67942,128,0,68120:0:0:0:0:
475,192,67942,128,0,68049:0:0:0:0:
109,192,68049,128,0,68228:0:0:0:0:
36,192,68049,128,0,68156:0:0:0:0:
256,192,68156,128,0,68335:0:0:0:0:
402,192,68156,128,0,68263:0:0:0:0:
36,192,68263,128,0,68442:0:0:0:0:
182,192,68263,128,0,68370:0:0:0:0:
402,192,68370,128,0,68549:0:0:0:0:
329,192,68370,128,0,68478:0:0:0:0:
182,192,68478,128,0,68656:0:0:0:0:
109,192,68478,128,0,68585:0:0:0:0:
475,192,68585,128,0,68763:0:0:0:0:
329,192,68585,128,0,68692:0:0:0:0:
109,192,68692,128,0,68870:0:0:0:0:
36,192,68692,128,0,68799:0:0:0:0:
329,192,68799,128,0,68978:0:0:0:0:
256,192,68799,128,0,68906:0:0:0:0:
36,192,68906,128,0,69049:0:0:0:0:
182,192,68906,128,0,69013:0:0:0:0:
402,192,69013,128,0,69156:0:0:0:0:
475,192,69013,128,0,69120:0:0:0:0:
36,192,69120,128,0,69549:0:0:0:0:
256,192,69120,128,0,69228:0:0:0:0:
109,192,69120,128,0,69442:0:0:0:0:
182,192,69120,128,0,69442:0:0:0:0:
475,192,69335,128,0,69549:0:0:0:0:
329,192,69335,128,0,69442:0:0:0:0:
402,192,69335,128,0,69442:0:0:0:0:
109,192,69549,128,0,69728:0:0:0:0:
182,192,69549,128,0,69656:0:0:0:0:
256,192,69549,128,0,69656:0:0:0:0:
402,192,69656,128,0,69835:0:0:0:0:
475,192,69656,128,0,69763:0:0:0:0:
36,192,69763,128,0,69942:0:0:0:0:
182,192,69763,128,0,69870:0:0:0:0:
329,192,69870,128,0,70049:0:0:0:0:
475,192,69870,128,0,69978:0:0:0:0:
109,192,69978,128,0,70085:0:0:0:0:
182,192,69978,128,0,70156:0:0:0:0:
256,192,70085,128,0,70263:0:0:0:0:
402,192,70085,128,0,70192:0:0:0:0:
36,192,70192,128,0,70370:0:0:0:0:
109,192,70192,128,0,70299:0:0:0:0:
402,192,70299,128,0,70478:0:0:0:0:
475,192,70299,128,0,70406:0:0:0:0:
256,192,70406,128,0,70585:0:0:0:0:
109,192,70406,128,0,70513:0:0:0:0:
329,192,70513,128,0,70620:0:0:0:0:
475,192,70513,128,0,70692:0:0:0:0:
36,192,70620,128,0,70728:0:0:0:0:
182,192,70620,128,0,70763:0:0:0:0:
329,192,70728,128,0,70870:0:0:0:0:
402,192,70728,128,0,70835:0:0:0:0:
256,192,70835,128,0,70942:0:0:0:0:
182,192,70835,128,0,71156:0:0:0:0:
109,192,70835,128,0,71156:0:0:0:0:
36,192,70835,128,0,71263:0:0:0:0:
475,192,71049,128,0,71263:0:0:0:0:
402,192,71049,128,0,71156:0:0:0:0:
329,192,71049,128,0,71156:0:0:0:0:
402,192,71263,128,0,71478:0:0:0:0:
256,192,71263,128,0,71478:0:0:0:0:
36,192,71370,128,0,71585:0:0:0:0:
109,192,71370,128,0,71585:0:0:0:0:
329,192,71478,128,0,71692:0:0:0:0:
475,192,71478,128,0,71692:0:0:0:0:
182,192,71585,128,0,71799:0:0:0:0:
256,192,71585,128,0,71799:0:0:0:0:
402,192,71692,128,0,71906:0:0:0:0:
36,192,71692,128,0,71906:0:0:0:0:
109,192,71799,128,0,72013:0:0:0:0:
329,192,71799,128,0,72013:0:0:0:0:
475,192,71906,128,0,72120:0:0:0:0:
256,192,71906,128,0,72120:0:0:0:0:
182,192,72013,128,0,72228:0:0:0:0:
36,192,72013,128,0,72228:0:0:0:0:
329,192,72120,128,0,72335:0:0:0:0:
402,192,72120,128,0,72335:0:0:0:0:
109,192,72228,128,0,72442:0:0:0:0:
256,192,72228,128,0,72442:0:0:0:0:
475,192,72335,128,0,72549:0:0:0:0:
182,192,72335,128,0,72549:0:0:0:0:
329,192,72442,128,0,72656:0:0:0:0:
402,192,72442,128,0,72656:0:0:0:0:
36,192,72549,128,0,72763:0:0:0:0:
109,192,72549,128,0,72763:0:0:0:0:
256,192,72549,128,0,72978:0:0:0:0:
182,192,72656,128,0,72763:0:0:0:0:
475,192,72763,128,0,72978:0:0:0:0:
402,192,72763,128,0,72978:0:0:0:0:
329,192,72870,128,0,72978:0:0:0:0:
36,192,72978,128,0,73192:0:0:0:0:
182,192,72978,128,0,73192:0:0:0:0:
329,192,73085,128,0,73299:0:0:0:0:
402,192,73085,128,0,73299:0:0:0:0:
256,192,73192,128,0,73406:0:0:0:0:
109,192,73192,128,0,73406:0:0:0:0:
475,192,73299,128,0,73513:0:0:0:0:
36,192,73299,128,0,73513:0:0:0:0:
182,192,73406,128,0,73620:0:0:0:0:
329,192,73406,128,0,73620:0:0:0:0:
109,192,73513,128,0,73728:0:0:0:0:
402,192,73513,128,0,73728:0:0:0:0:
256,192,73620,128,0,73835:0:0:0:0:
475,192,73620,128,0,73835:0:0:0:0:
36,192,73728,128,0,73942:0:0:0:0:
329,192,73728,128,0,73942:0:0:0:0:
109,192,73835,128,0,74049:0:0:0:0:
182,192,73835,128,0,74049:0:0:0:0:
402,192,73942,128,0,74156:0:0:0:0:
475,192,73942,128,0,74156:0:0:0:0:
256,192,74049,128,0,74263:0:0:0:0:
329,192,74049,128,0,74263:0:0:0:0:
109,192,74156,128,0,74370:0:0:0:0:
182,192,74156,128,0,74370:0:0:0:0:
36,192,74263,128,0,74692:0:0:0:0:
402,192,74263,128,0,74478:0:0:0:0:
475,192,74263,128,0,74478:0:0:0:0:
329,192,74370,128,0,74478:0:0:0:0:
109,192,74478,128,0,74692:0:0:0:0:
182,192,74478,128,0,74692:0:0:0:0:
256,192,74585,128,0,74692:0:0:0:0:
402,192,74692,128,0,74906:0:0:0:0:
475,192,74692,128,0,74906:0:0:0:0:
36,192,74799,128,0,75013:0:0:0:0:
182,192,74799,128,0,75013:0:0:0:0:
256,192,74906,128,0,75120:0:0:0:0:
329,192,74906,128,0,75120:0:0:0:0:
109,192,75013,128,0,75228:0:0:0:0:
475,192,75013,128,0,75228:0:0:0:0:
182,192,75120,128,0,75335:0:0:0:0:
402,192,75120,128,0,75335:0:0:0:0:
36,192,75228,128,0,75442:0:0:0:0:
329,192,75228,128,0,75442:0:0:0:0:
256,192,75335,128,0,75549:0:0:0:0:
109,192,75335,128,0,75549:0:0:0:0:
475,192,75442,128,0,75656:0:0:0:0:
402,192,75442,128,0,75656:0:0:0:0:
182,192,75549,128,0,75763:0:0:0:0:
329,192,75549,128,0,75763:0:0:0:0:
36,192,75656,128,0,75870:0:0:0:0:
109,192,75656,128,0,75870:0:0:0:0:
256,192,75763,128,0,75978:0:0:0:0:
402,192,75763,128,0,75978:0:0:0:0:
182,192,75870,128,0,76085:0:0:0:0:
329,192,75870,128,0,76085:0:0:0:0:
475,192,75978,128,0,76406:0:0:0:0:
36,192,75978,128,0,76192:0:0:0:0:
109,192,75978,128,0,76192:0:0:0:0:
256,192,76085,128,0,76192:0:0:0:0:
402,192,76192,128,0,76406:0:0:0:0:
329,192,76192,128,0,76406:0:0:0:0:
182,192,76299,128,0,76406:0:0:0:0:
36,192,76406,128,0,76620:0:0:0:0:
109,192,76406,128,0,76620:0:0:0:0:
256,192,76406,128,0,76513:0:0:0:0:
475,192,76513,128,0,76728:0:0:0:0:
402,192,76513,128,0,76728:0:0:0:0:
182,192,76620,128,0,76835:0:0:0:0:
329,192,76620,128,0,76835:0:0:0:0:
36,192,76728,128,0,76835:0:0:0:0:
109,192,76728,128,0,76835:0:0:0:0:
402,192,76835,128,0,77049:0:0:0:0:
475,192,76835,128,0,77049:0:0:0:0:
256,192,76835,128,0,76942:0:0:0:0:
36,192,76942,128,0,77156:0:0:0:0:
109,192,76942,128,0,77156:0:0:0:0:
182,192,77049,128,0,77263:0:0:0:0:
329,192,77049,128,0,77263:0:0:0:0:
475,192,77156,128,0,77263:0:0:0:0:
402,192,77156,128,0,77263:0:0:0:0:
36,192,77263,128,0,77478:0:0:0:0:
109,192,77263,128,0,77478:0:0:0:0:
256,192,77263,128,0,77370:0:0:0:0:
475,192,77370,128,0,77585:0:0:0:0:
402,192,77370,128,0,77585:0:0:0:0:
182,192,77478,128,0,77585:0:0:0:0:
329,192,77478,128,0,77585:0:0:0:0:
36,192,77585,128,0,77692:0:0:0:0:
109,192,77585,128,0,77692:0:0:0:0:
182,192,77692,128,0,77799:0:0:0:0:
329,192,77692,128,0,77799:0:0:0:0:
402,192,77692,128,0,78013:0:0:0:0:
475,192,77692,128,0,78013:0:0:0:0:
256,192,77799,128,0,77906:0:0:0:0:
329,192,77906,128,0,78013:0:0:0:0:
182,192,77906,128,0,78013:0:0:0:0:
475,192,78120,128,0,78656:0:0:0:0:
36,192,78120,128,0,78174:0:0:0:0:
109,192,78120,128,0,78174:0:0:0:0:
256,192,78120,128,0,78174:0:0:0:0:
182,192,78228,128,0,78281:0:0:0:0:
182,192,78335,128,0,78388:0:0:0:0:
329,192,78335,128,0,78388:0:0:0:0:
402,192,78442,128,0,78656:0:0:0:0:
109,192,78442,128,0,78495:0:0:0:0:
36,192,78549,128,0,78603:0:0:0:0:
256,192,78549,128,0,78603:0:0:0:0:
182,192,78656,128,0,78710:0:0:0:0:
109,192,78763,128,0,78817:0:0:0:0:
329,192,78763,128,0,78817:0:0:0:0:
475,192,78763,128,0,78870:0:0:0:0:
36,192,78763,128,0,78870:0:0:0:0:
182,192,78870,128,0,78924:0:0:0:0:
109,192,78978,128,0,79085:0:0:0:0:
36,192,78978,128,0,79085:0:0:0:0:
402,192,78978,128,0,79085:0:0:0:0:
475,192,78978,128,0,79085:0:0:0:0:
182,192,79085,128,0,79192:0:0:0:0:
256,192,79085,128,0,79192:0:0:0:0:
329,192,79085,128,0,79192:0:0:0:0:
402,192,79192,128,0,79299:0:0:0:0:
475,192,79192,128,0,79299:0:0:0:0:
109,192,79192,128,0,79299:0:0:0:0:
36,192,79192,128,0,79299:0:0:0:0:
182,192,79299,128,0,79406:0:0:0:0:
256,192,79299,128,0,79406:0:0:0:0:
329,192,79299,128,0,79406:0:0:0:0:
36,192,79406,128,0,79513:0:0:0:0:
475,192,79406,128,0,79513:0:0:0:0:
109,192,79406,128,0,79513:0:0:0:0:
402,192,79406,128,0,79513:0:0:0:0:
256,192,79620,128,0,79674:0:0:0:0:
109,192,79620,128,0,79674:0:0:0:0:
182,192,79728,128,0,79781:0:0:0:0:
329,192,79728,128,0,79781:0:0:0:0:
36,192,79835,128,0,80370:0:0:0:0:
256,192,79835,128,0,79888:0:0:0:0:
402,192,79835,128,0,79888:0:0:0:0:
475,192,79835,128,0,79888:0:0:0:0:
329,192,80049,128,0,80103:0:0:0:0:
182,192,80049,128,0,80103:0:0:0:0:
109,192,80156,128,0,80370:0:0:0:0:
402,192,80156,128,0,80210:0:0:0:0:
256,192,80263,128,0,80317:0:0:0:0:
475,192,80263,128,0,80317:0:0:0:0:
329,192,80370,128,0,80424:0:0:0:0:
36,192,80478,128,0,80585:0:0:0:0:
475,192,80478,128,0,80585:0:0:0:0:
402,192,80478,128,0,80531:0:0:0:0:
109,192,80478,128,0,80531:0:0:0:0:
256,192,80585,128,0,80638:0:0:0:0:
109,192,80692,128,0,80799:0:0:0:0:
329,192,80692,128,0,80799:0:0:0:0:
402,192,80692,128,0,80799:0:0:0:0:
182,192,80692,128,0,80799:0:0:0:0:
256,192,80799,128,0,80906:0:0:0:0:
475,192,80799,128,0,80906:0:0:0:0:
36,192,80799,128,0,80906:0:0:0:0:
109,192,80906,128,0,81013:0:0:0:0:
182,192,80906,128,0,81013:0:0:0:0:
329,192,80906,128,0,81013:0:0:0:0:
402,192,80906,128,0,81013:0:0:0:0:
256,192,81013,128,0,81120:0:0:0:0:
475,192,81013,128,0,81120:0:0:0:0:
36,192,81013,128,0,81120:0:0:0:0:
109,192,81120,128,0,81228:0:0:0:0:
182,192,81120,128,0,81228:0:0:0:0:
329,192,81120,128,0,81228:0:0:0:0:
402,192,81120,128,0,81228:0:0:0:0:
256,192,81335,128,0,81388:0:0:0:0:
402,192,81335,128,0,81388:0:0:0:0:
182,192,81442,128,0,81495:0:0:0:0:
329,192,81442,128,0,81495:0:0:0:0:
109,192,81549,128,0,81603:0:0:0:0:
256,192,81549,128,0,81603:0:0:0:0:
36,192,81549,128,0,81603:0:0:0:0:
475,192,81656,128,0,82085:0:0:0:0:
182,192,81763,128,0,81817:0:0:0:0:
36,192,81763,128,0,81817:0:0:0:0:
329,192,81870,128,0,82085:0:0:0:0:
256,192,81870,128,0,81924:0:0:0:0:
109,192,81978,128,0,82031:0:0:0:0:
36,192,81978,128,0,82031:0:0:0:0:
182,192,82085,128,0,82138:0:0:0:0:
329,192,82192,128,0,82299:0:0:0:0:
475,192,82192,128,0,82299:0:0:0:0:
256,192,82192,128,0,82245:0:0:0:0:
109,192,82192,128,0,82245:0:0:0:0:
402,192,82299,128,0,82353:0:0:0:0:
36,192,82406,128,0,82513:0:0:0:0:
109,192,82406,128,0,82513:0:0:0:0:
182,192,82406,128,0,82513:0:0:0:0:
329,192,82513,128,0,82620:0:0:0:0:
402,192,82513,128,0,82620:0:0:0:0:
475,192,82513,128,0,82620:0:0:0:0:
182,192,82620,128,0,82728:0:0:0:0:
109,192,82620,128,0,82728:0:0:0:0:
36,192,82620,128,0,82728:0:0:0:0:
329,192,82728,128,0,82835:0:0:0:0:
402,192,82728,128,0,82835:0:0:0:0:
475,192,82728,128,0,82835:0:0:0:0:
182,192,82835,128,0,82942:0:0:0:0:
109,192,82835,128,0,82942:0:0:0:0:
36,192,82835,128,0,82942:0:0:0:0:
256,192,83049,128,0,83263:0:0:0:0:
329,192,83156,128,0,83370:0:0:0:0:
475,192,83263,128,0,83692:0:0:0:0:
402,192,83263,128,0,83478:0:0:0:0:
182,192,83263,128,0,83406:0:0:0:0:
109,192,83335,128,0,83478:0:0:0:0:
36,192,83406,128,0,83549:0:0:0:0:
256,192,83478,128,0,83799:0:0:0:0:
182,192,83585,128,0,83692:0:0:0:0:
36,192,83692,128,0,83906:0:0:0:0:
402,192,83692,128,0,84120:0:0:0:0:
109,192,83799,128,0,84013:0:0:0:0:
329,192,83906,128,0,84013:0:0:0:0:
256,192,84013,128,0,84228:0:0:0:0:
36,192,84120,128,0,84335:0:0:0:0:
182,192,84120,128,0,84549:0:0:0:0:
329,192,84228,128,0,84335:0:0:0:0:
475,192,84335,128,0,84478:0:0:0:0:
402,192,84406,128,0,84549:0:0:0:0:
329,192,84478,128,0,84620:0:0:0:0:
36,192,84549,128,0,84763:0:0:0:0:
256,192,84549,128,0,85085:0:0:0:0:
109,192,84656,128,0,84870:0:0:0:0:
402,192,84763,1,0,0:0:0:0:
182,192,84763,128,0,84978:0:0:0:0:
36,192,84870,128,0,84978:0:0:0:0:
109,192,84978,128,0,85085:0:0:0:0:
329,192,84978,128,0,85085:0:0:0:0:
402,192,84978,128,0,85085:0:0:0:0:
475,192,85085,128,0,85299:0:0:0:0:
402,192,85192,128,0,85299:0:0:0:0:
256,192,85192,128,0,85299:0:0:0:0:
36,192,85299,128,0,85513:0:0:0:0:
109,192,85299,128,0,85406:0:0:0:0:
329,192,85299,128,0,85513:0:0:0:0:
182,192,85406,128,0,85620:0:0:0:0:
402,192,85513,128,0,85620:0:0:0:0:
109,192,85620,128,0,85942:0:0:0:0:
256,192,85620,128,0,85835:0:0:0:0:
475,192,85620,128,0,85835:0:0:0:0:
36,192,85620,128,0,85728:0:0:0:0:
329,192,85728,128,0,85835:0:0:0:0:
402,192,85835,128,0,86049:0:0:0:0:
36,192,85942,128,0,86156:0:0:0:0:
182,192,85942,128,0,86049:0:0:0:0:
256,192,85942,128,0,86049:0:0:0:0:
329,192,86049,128,0,86263:0:0:0:0:
109,192,86049,128,0,86156:0:0:0:0:
182,192,86156,128,0,86263:0:0:0:0:
36,192,86263,128,0,86692:0:0:0:0:
109,192,86263,128,0,86478:0:0:0:0:
475,192,86263,128,0,86692:0:0:0:0:
402,192,86263,128,0,86478:0:0:0:0:
256,192,86263,128,0,86370:0:0:0:0:
182,192,86478,128,0,86692:0:0:0:0:
256,192,86585,128,0,86799:0:0:0:0:
329,192,86692,128,0,86906:0:0:0:0:
402,192,86692,128,0,87013:0:0:0:0:
109,192,86692,128,0,86906:0:0:0:0:
182,192,86906,128,0,87120:0:0:0:0:
36,192,87013,128,0,87120:0:0:0:0:
475,192,87013,128,0,87228:0:0:0:0:
329,192,87013,128,0,87120:0:0:0:0:
256,192,87120,128,0,87335:0:0:0:0:
109,192,87228,128,0,87335:0:0:0:0:
36,192,87335,128,0,87656:0:0:0:0:
402,192,87335,128,0,87549:0:0:0:0:
329,192,87335,128,0,87549:0:0:0:0:
182,192,87442,128,0,87549:0:0:0:0:
475,192,87549,128,0,87763:0:0:0:0:
109,192,87549,128,0,87656:0:0:0:0:
402,192,87656,128,0,87870:0:0:0:0:
182,192,87656,128,0,87763:0:0:0:0:
329,192,87656,128,0,87763:0:0:0:0:
36,192,87763,128,0,87978:0:0:0:0:
109,192,87870,128,0,87978:0:0:0:0:
256,192,87870,128,0,87978:0:0:0:0:
329,192,87978,128,0,88085:0:0:0:0:
475,192,87978,128,0,88192:0:0:0:0:
402,192,87978,128,0,88192:0:0:0:0:
182,192,87978,128,0,88299:0:0:0:0:
256,192,88192,128,0,88353:0:0:0:0:
329,192,88299,128,0,88406:0:0:0:0:
402,192,88406,128,0,90638:0:0:0:0:
402,192,90727,128,0,93309:0:0:0:0:
329,192,91263,128,0,91985:0:0:0:0:
256,192,91633,128,0,92393:0:0:0:0:
182,192,91985,128,0,92726:0:0:0:0:
109,192,92393,128,0,94401:0:0:0:0:
256,192,92726,128,0,93976:0:0:0:0:
329,192,93059,128,0,93642:0:0:0:0:
402,192,93392,128,0,93642:0:0:0:0:
475,192,93642,128,0,93726:0:0:0:0:
402,192,93726,128,0,94401:0:0:0:0:
256,192,94059,128,0,94801:0:0:0:0:
329,192,94401,128,0,95101:0:0:0:0:
329,192,95201,128,0,96001:0:0:0:0:
402,192,95601,128,0,96001:0:0:0:0:
36,192,95751,128,0,95851:0:0:0:0:
109,192,95801,128,0,95901:0:0:0:0:
182,192,95851,128,0,95951:0:0:0:0:
256,192,95901,128,0,97277:0:0:0:0:
475,192,96001,128,0,96711:0:0:0:0:
402,192,96334,128,0,96895:0:0:0:0:
329,192,96527,128,0,97086:0:0:0:0:
182,192,96895,128,0,98120:0:0:0:0:
36,192,97277,128,0,98120:0:0:0:0:
475,192,97659,128,0,98582:0:0:0:0:
329,192,98120,128,0,98985:0:0:0:0:
182,192,98582,128,0,99493:0:0:0:0:
475,192,98985,128,0,99193:0:0:0:0:
402,192,99043,128,0,99268:0:0:0:0:
329,192,99193,128,0,99793:0:0:0:0:
182,192,99793,128,0,99868:0:0:0:0:
256,192,99868,128,0,99943:0:0:0:0:
182,192,99943,128,0,100635:0:0:0:0:
36,192,100635,128,0,101523:0:0:0:0:
402,192,101523,128,0,101634:0:0:0:0:
475,192,101634,128,0,101745:0:0:0:0:
402,192,101745,128,0,104221:0:0:0:0:
256,192,102231,128,0,104099:0:0:0:0:
109,192,102759,128,0,103612:0:0:0:0:
109,192,103734,128,0,104221:0:0:0:0:
36,192,104099,128,0,105136:0:0:0:0:
182,192,104160,128,0,104282:0:0:0:0:
256,192,104221,128,0,104343:0:0:0:0:
329,192,104282,128,0,108124:0:0:0:0:
109,192,105136,128,0,106203:0:0:0:0:
182,192,106203,128,0,108124:0:0:0:0:
