osu file format v14

[General]
AudioFilename: audio.mp3
AudioLeadIn: 0
PreviewTime: 43307
Countdown: 0
SampleSet: Normal
StackLeniency: 0.7
Mode: 3
LetterboxInBreaks: 0
SpecialStyle: 0
WidescreenStoryboard: 0

[Editor]
Bookmarks: 30735,34164,37592,41021
DistanceSpacing: 2
BeatDivisor: 4
GridSize: 4
TimelineZoom: 1.900001

[Metadata]
Title:Rockhill
TitleUnicode:Rockhill
Artist:Beltaine
ArtistUnicode:Beltaine
Creator:Cuma Iseng
Version:Expert
Source:
Tags:
BeatmapID:2247637
BeatmapSetID:1073960

[Difficulty]
HPDrainRate:8.7
CircleSize:7
OverallDifficulty:7.2
ApproachRate:5
SliderMultiplier:1.4
SliderTickRate:1

[Events]
//Background and Video events
0,0,"image.jpg",0,0
//Break Periods
//Storyboard Layer 0 (Background)
//Storyboard Layer 1 (Fail)
//Storyboard Layer 2 (Pass)
//Storyboard Layer 3 (Foreground)
//Storyboard Layer 4 (Overlay)
//Storyboard Sound Samples

[TimingPoints]
450,428.571428571429,4,1,0,5,1,0
42878,-55.5555555555556,4,1,0,5,0,0
42985,-125,4,1,0,5,0,0
43092,-250,4,1,0,5,0,0
43200,-500,4,1,0,5,0,0
43307,-100,4,1,0,5,0,1
56592,-55.5555555555556,4,1,0,5,0,1
56700,-125,4,1,0,5,0,1
56807,-250,4,1,0,5,0,1
56914,-500,4,1,0,5,0,1
57021,-100,4,1,0,5,0,0
84450,-100,4,1,0,5,0,1
97735,-55.5555555555556,4,1,0,5,0,1
97842,-125,4,1,0,5,0,1
97950,-250,4,1,0,5,0,1
98057,-500,4,1,0,5,0,1
98164,-100,4,1,0,5,0,0
166735,-100,4,1,0,5,0,1
177021,-100,4,1,0,5,0,0

[HitObjects]
256,192,450,5,0,0:0:0:0:
402,192,450,1,0,0:0:0:0:
36,192,450,128,0,557:0:0:0:0:
182,192,557,128,0,664:0:0:0:0:
109,192,664,128,0,771:0:0:0:0:
329,192,664,1,0,0:0:0:0:
402,192,771,1,0,0:0:0:0:
475,192,771,1,0,0:0:0:0:
36,192,771,128,0,878:0:0:0:0:
109,192,878,128,0,985:0:0:0:0:
256,192,878,1,0,0:0:0:0:
402,192,985,1,0,0:0:0:0:
36,192,1092,1,0,0:0:0:0:
256,192,1092,1,0,0:0:0:0:
475,192,1092,1,0,0:0:0:0:
329,192,1200,1,0,0:0:0:0:
402,192,1307,1,0,0:0:0:0:
182,192,1414,1,0,0:0:0:0:
475,192,1414,1,0,0:0:0:0:
256,192,1521,1,0,0:0:0:0:
329,192,1628,1,0,0:0:0:0:
36,192,1628,1,0,0:0:0:0:
109,192,1735,1,0,0:0:0:0:
402,192,1735,1,0,0:0:0:0:
475,192,1735,1,0,0:0:0:0:
182,192,1842,1,0,0:0:0:0:
256,192,1950,1,0,0:0:0:0:
402,192,2057,1,0,0:0:0:0:
329,192,2057,1,0,0:0:0:0:
256,192,2164,1,0,0:0:0:0:
36,192,2164,1,0,0:0:0:0:
475,192,2164,1,0,0:0:0:0:
109,192,2271,1,0,0:0:0:0:
36,192,2378,1,0,0:0:0:0:
256,192,2485,1,0,0:0:0:0:
402,192,2485,1,0,0:0:0:0:
475,192,2592,1,0,0:0:0:0:
182,192,2700,1,0,0:0:0:0:
329,192,2700,1,0,0:0:0:0:
109,192,2807,1,0,0:0:0:0:
36,192,2807,1,0,0:0:0:0:
402,192,2807,1,0,0:0:0:0:
475,192,2914,1,0,0:0:0:0:
329,192,3021,1,0,0:0:0:0:
182,192,3128,1,0,0:0:0:0:
402,192,3128,1,0,0:0:0:0:
109,192,3235,1,0,0:0:0:0:
475,192,3342,1,0,0:0:0:0:
402,192,3450,1,0,0:0:0:0:
36,192,3450,1,0,0:0:0:0:
182,192,3450,1,0,0:0:0:0:
329,192,3557,1,0,0:0:0:0:
256,192,3664,1,0,0:0:0:0:
182,192,3771,1,0,0:0:0:0:
36,192,3878,1,0,0:0:0:0:
256,192,3878,1,0,0:0:0:0:
329,192,3878,128,0,3985:0:0:0:0:
402,192,3985,128,0,4092:0:0:0:0:
109,192,3985,1,0,0:0:0:0:
475,192,4092,128,0,4200:0:0:0:0:
182,192,4092,1,0,0:0:0:0:
329,192,4200,128,0,4307:0:0:0:0:
256,192,4200,1,0,0:0:0:0:
36,192,4200,1,0,0:0:0:0:
109,192,4307,1,0,0:0:0:0:
475,192,4307,128,0,4414:0:0:0:0:
402,192,4414,128,0,4521:0:0:0:0:
182,192,4414,1,0,0:0:0:0:
256,192,4521,1,0,0:0:0:0:
329,192,4521,128,0,4628:0:0:0:0:
36,192,4521,1,0,0:0:0:0:
182,192,4628,1,0,0:0:0:0:
402,192,4628,128,0,4735:0:0:0:0:
475,192,4735,128,0,4842:0:0:0:0:
36,192,4735,1,0,0:0:0:0:
109,192,4842,1,0,0:0:0:0:
329,192,4842,1,0,0:0:0:0:
182,192,4950,1,0,0:0:0:0:
402,192,5057,1,0,0:0:0:0:
256,192,5057,1,0,0:0:0:0:
475,192,5164,1,0,0:0:0:0:
36,192,5164,1,0,0:0:0:0:
182,192,5164,1,0,0:0:0:0:
402,192,5271,1,0,0:0:0:0:
329,192,5378,1,0,0:0:0:0:
109,192,5485,1,0,0:0:0:0:
256,192,5485,1,0,0:0:0:0:
475,192,5592,1,0,0:0:0:0:
36,192,5592,1,0,0:0:0:0:
329,192,5592,1,0,0:0:0:0:
256,192,5700,1,0,0:0:0:0:
182,192,5807,1,0,0:0:0:0:
109,192,5914,1,0,0:0:0:0:
329,192,5914,1,0,0:0:0:0:
36,192,6021,1,0,0:0:0:0:
182,192,6128,1,0,0:0:0:0:
329,192,6128,1,0,0:0:0:0:
402,192,6235,1,0,0:0:0:0:
475,192,6235,1,0,0:0:0:0:
109,192,6235,1,0,0:0:0:0:
329,192,6342,1,0,0:0:0:0:
256,192,6450,1,0,0:0:0:0:
109,192,6557,1,0,0:0:0:0:
402,192,6557,1,0,0:0:0:0:
329,192,6664,1,0,0:0:0:0:
256,192,6771,1,0,0:0:0:0:
36,192,6771,1,0,0:0:0:0:
109,192,6878,1,0,0:0:0:0:
329,192,6878,1,0,0:0:0:0:
475,192,6878,1,0,0:0:0:0:
182,192,6985,1,0,0:0:0:0:
256,192,7092,1,0,0:0:0:0:
109,192,7200,1,0,0:0:0:0:
256,192,7307,5,0,0:0:0:0:
36,192,7307,128,0,7414:0:0:0:0:
402,192,7307,1,0,0:0:0:0:
182,192,7414,128,0,7521:0:0:0:0:
109,192,7521,128,0,7628:0:0:0:0:
36,192,7628,128,0,7735:0:0:0:0:
475,192,7628,1,0,0:0:0:0:
329,192,7628,1,0,0:0:0:0:
109,192,7735,128,0,7842:0:0:0:0:
256,192,7735,1,0,0:0:0:0:
402,192,7842,1,0,0:0:0:0:
329,192,7842,1,0,0:0:0:0:
475,192,7950,1,0,0:0:0:0:
256,192,7950,1,0,0:0:0:0:
36,192,7950,1,0,0:0:0:0:
182,192,8057,1,0,0:0:0:0:
329,192,8164,128,0,8217:0:0:0:0:
109,192,8164,1,0,0:0:0:0:
475,192,8271,128,0,8325:0:0:0:0:
256,192,8271,1,0,0:0:0:0:
402,192,8378,128,0,8432:0:0:0:0:
182,192,8378,1,0,0:0:0:0:
329,192,8485,128,0,8539:0:0:0:0:
109,192,8485,1,0,0:0:0:0:
36,192,8592,1,0,0:0:0:0:
182,192,8592,1,0,0:0:0:0:
475,192,8592,128,0,8646:0:0:0:0:
256,192,8700,1,0,0:0:0:0:
329,192,8807,1,0,0:0:0:0:
402,192,8914,1,0,0:0:0:0:
182,192,8914,1,0,0:0:0:0:
475,192,9021,1,0,0:0:0:0:
36,192,9021,1,0,0:0:0:0:
256,192,9021,1,0,0:0:0:0:
109,192,9128,1,0,0:0:0:0:
182,192,9235,1,0,0:0:0:0:
402,192,9342,1,0,0:0:0:0:
256,192,9342,1,0,0:0:0:0:
475,192,9450,1,0,0:0:0:0:
182,192,9557,1,0,0:0:0:0:
329,192,9557,1,0,0:0:0:0:
402,192,9664,1,0,0:0:0:0:
36,192,9664,1,0,0:0:0:0:
109,192,9664,1,0,0:0:0:0:
475,192,9771,1,0,0:0:0:0:
329,192,9878,1,0,0:0:0:0:
402,192,9985,1,0,0:0:0:0:
182,192,9985,1,0,0:0:0:0:
109,192,10092,1,0,0:0:0:0:
329,192,10200,1,0,0:0:0:0:
182,192,10307,1,0,0:0:0:0:
36,192,10307,1,0,0:0:0:0:
402,192,10307,1,0,0:0:0:0:
256,192,10414,1,0,0:0:0:0:
329,192,10521,1,0,0:0:0:0:
402,192,10628,1,0,0:0:0:0:
475,192,10628,1,0,0:0:0:0:
329,192,10735,128,0,10842:0:0:0:0:
182,192,10735,1,0,0:0:0:0:
36,192,10735,1,0,0:0:0:0:
402,192,10842,128,0,10950:0:0:0:0:
109,192,10842,1,0,0:0:0:0:
475,192,10950,128,0,11057:0:0:0:0:
182,192,10950,1,0,0:0:0:0:
256,192,11057,1,0,0:0:0:0:
36,192,11057,1,0,0:0:0:0:
329,192,11057,128,0,11164:0:0:0:0:
182,192,11164,1,0,0:0:0:0:
475,192,11164,128,0,11271:0:0:0:0:
109,192,11271,1,0,0:0:0:0:
402,192,11271,128,0,11378:0:0:0:0:
36,192,11378,1,0,0:0:0:0:
329,192,11378,128,0,11485:0:0:0:0:
182,192,11378,1,0,0:0:0:0:
256,192,11485,1,0,0:0:0:0:
402,192,11485,128,0,11592:0:0:0:0:
36,192,11592,128,0,11700:0:0:0:0:
182,192,11700,128,0,11807:0:0:0:0:
475,192,11700,1,0,0:0:0:0:
256,192,11700,1,0,0:0:0:0:
109,192,11807,128,0,11914:0:0:0:0:
329,192,11807,1,0,0:0:0:0:
402,192,11914,1,0,0:0:0:0:
256,192,11914,1,0,0:0:0:0:
36,192,11914,128,0,12021:0:0:0:0:
475,192,12021,1,0,0:0:0:0:
329,192,12021,1,0,0:0:0:0:
182,192,12021,128,0,12128:0:0:0:0:
36,192,12128,128,0,12235:0:0:0:0:
329,192,12235,1,0,0:0:0:0:
182,192,12235,128,0,12342:0:0:0:0:
109,192,12342,1,0,0:0:0:0:
256,192,12342,1,0,0:0:0:0:
329,192,12450,1,0,0:0:0:0:
36,192,12450,1,0,0:0:0:0:
402,192,12450,128,0,12503:0:0:0:0:
256,192,12557,1,0,0:0:0:0:
475,192,12557,128,0,12610:0:0:0:0:
182,192,12664,1,0,0:0:0:0:
402,192,12664,128,0,12717:0:0:0:0:
329,192,12771,128,0,12825:0:0:0:0:
256,192,12771,1,0,0:0:0:0:
109,192,12771,1,0,0:0:0:0:
36,192,12878,1,0,0:0:0:0:
475,192,12878,128,0,12932:0:0:0:0:
256,192,12985,1,0,0:0:0:0:
109,192,12985,1,0,0:0:0:0:
402,192,12985,128,0,13039:0:0:0:0:
182,192,13092,1,0,0:0:0:0:
36,192,13092,1,0,0:0:0:0:
329,192,13092,128,0,13146:0:0:0:0:
109,192,13200,1,0,0:0:0:0:
475,192,13200,1,0,0:0:0:0:
329,192,13307,1,0,0:0:0:0:
182,192,13307,1,0,0:0:0:0:
475,192,13414,1,0,0:0:0:0:
109,192,13414,1,0,0:0:0:0:
329,192,13521,1,0,0:0:0:0:
36,192,13521,1,0,0:0:0:0:
475,192,13628,1,0,0:0:0:0:
182,192,13628,1,0,0:0:0:0:
402,192,13735,1,0,0:0:0:0:
109,192,13735,1,0,0:0:0:0:
36,192,13735,1,0,0:0:0:0:
329,192,13842,1,0,0:0:0:0:
182,192,13950,1,0,0:0:0:0:
109,192,14057,1,0,0:0:0:0:
329,192,14164,128,0,14271:0:0:0:0:
36,192,14164,1,0,0:0:0:0:
256,192,14164,1,0,0:0:0:0:
475,192,14271,128,0,14378:0:0:0:0:
402,192,14378,128,0,14485:0:0:0:0:
109,192,14485,1,0,0:0:0:0:
182,192,14485,128,0,14592:0:0:0:0:
36,192,14485,1,0,0:0:0:0:
329,192,14592,128,0,14700:0:0:0:0:
256,192,14592,1,0,0:0:0:0:
475,192,14700,128,0,14807:0:0:0:0:
36,192,14700,1,0,0:0:0:0:
402,192,14807,128,0,14914:0:0:0:0:
182,192,14807,1,0,0:0:0:0:
109,192,14807,1,0,0:0:0:0:
329,192,14914,128,0,15021:0:0:0:0:
109,192,15021,128,0,15128:0:0:0:0:
36,192,15128,128,0,15235:0:0:0:0:
329,192,15128,1,0,0:0:0:0:
402,192,15128,1,0,0:0:0:0:
475,192,15235,128,0,15342:0:0:0:0:
256,192,15235,1,0,0:0:0:0:
36,192,15342,128,0,15450:0:0:0:0:
182,192,15342,1,0,0:0:0:0:
329,192,15423,1,0,0:0:0:0:
256,192,15450,1,0,0:0:0:0:
402,192,15450,1,0,0:0:0:0:
475,192,15450,128,0,15878:0:0:0:0:
109,192,15450,1,0,0:0:0:0:
182,192,15637,1,0,0:0:0:0:
109,192,15664,1,0,0:0:0:0:
36,192,15664,128,0,15878:0:0:0:0:
256,192,15771,1,0,0:0:0:0:
109,192,15878,1,0,0:0:0:0:
329,192,15878,128,0,15985:0:0:0:0:
402,192,15878,1,0,0:0:0:0:
475,192,15985,128,0,16092:0:0:0:0:
256,192,16092,1,0,0:0:0:0:
402,192,16092,128,0,16200:0:0:0:0:
36,192,16200,1,0,0:0:0:0:
182,192,16200,128,0,16307:0:0:0:0:
109,192,16200,1,0,0:0:0:0:
256,192,16307,1,0,0:0:0:0:
329,192,16307,128,0,16414:0:0:0:0:
36,192,16414,1,0,0:0:0:0:
475,192,16414,128,0,16521:0:0:0:0:
109,192,16521,1,0,0:0:0:0:
182,192,16521,1,0,0:0:0:0:
402,192,16521,128,0,16628:0:0:0:0:
475,192,16628,1,0,0:0:0:0:
329,192,16628,128,0,16735:0:0:0:0:
109,192,16735,128,0,16842:0:0:0:0:
402,192,16842,1,0,0:0:0:0:
329,192,16842,1,0,0:0:0:0:
36,192,16842,128,0,16950:0:0:0:0:
256,192,16950,1,0,0:0:0:0:
475,192,16950,128,0,17057:0:0:0:0:
36,192,17057,128,0,17164:0:0:0:0:
182,192,17057,1,0,0:0:0:0:
329,192,17137,1,0,0:0:0:0:
402,192,17164,1,0,0:0:0:0:
109,192,17164,1,0,0:0:0:0:
475,192,17164,128,0,17592:0:0:0:0:
256,192,17164,1,0,0:0:0:0:
182,192,17351,1,0,0:0:0:0:
109,192,17378,1,0,0:0:0:0:
36,192,17378,128,0,17592:0:0:0:0:
402,192,17485,1,0,0:0:0:0:
329,192,17592,128,0,17700:0:0:0:0:
256,192,17592,1,0,0:0:0:0:
109,192,17592,1,0,0:0:0:0:
475,192,17700,128,0,17807:0:0:0:0:
402,192,17807,128,0,17914:0:0:0:0:
36,192,17914,1,0,0:0:0:0:
182,192,17914,128,0,18021:0:0:0:0:
109,192,17914,1,0,0:0:0:0:
256,192,18021,128,0,18128:0:0:0:0:
402,192,18021,1,0,0:0:0:0:
475,192,18128,128,0,18235:0:0:0:0:
36,192,18128,1,0,0:0:0:0:
402,192,18235,128,0,18342:0:0:0:0:
182,192,18235,1,0,0:0:0:0:
109,192,18235,1,0,0:0:0:0:
329,192,18342,128,0,18450:0:0:0:0:
36,192,18450,128,0,18557:0:0:0:0:
109,192,18450,1,0,0:0:0:0:
329,192,18557,128,0,18664:0:0:0:0:
256,192,18557,1,0,0:0:0:0:
182,192,18557,1,0,0:0:0:0:
475,192,18664,128,0,18771:0:0:0:0:
402,192,18664,1,0,0:0:0:0:
36,192,18771,128,0,18878:0:0:0:0:
329,192,18851,1,0,0:0:0:0:
402,192,18878,1,0,0:0:0:0:
475,192,18878,128,0,19307:0:0:0:0:
109,192,18878,1,0,0:0:0:0:
256,192,18878,1,0,0:0:0:0:
182,192,19066,1,0,0:0:0:0:
109,192,19092,1,0,0:0:0:0:
36,192,19092,128,0,19307:0:0:0:0:
256,192,19200,1,0,0:0:0:0:
329,192,19307,1,0,0:0:0:0:
402,192,19307,128,0,19414:0:0:0:0:
109,192,19307,1,0,0:0:0:0:
475,192,19414,128,0,19521:0:0:0:0:
256,192,19521,128,0,19628:0:0:0:0:
36,192,19628,1,0,0:0:0:0:
329,192,19628,128,0,19735:0:0:0:0:
182,192,19628,1,0,0:0:0:0:
109,192,19735,1,0,0:0:0:0:
402,192,19735,128,0,19842:0:0:0:0:
182,192,19842,1,0,0:0:0:0:
475,192,19842,128,0,19950:0:0:0:0:
36,192,19950,1,0,0:0:0:0:
256,192,19950,1,0,0:0:0:0:
402,192,19950,128,0,20057:0:0:0:0:
329,192,20057,128,0,20164:0:0:0:0:
109,192,20164,128,0,20271:0:0:0:0:
402,192,20271,1,0,0:0:0:0:
182,192,20271,1,0,0:0:0:0:
36,192,20271,128,0,20378:0:0:0:0:
256,192,20378,1,0,0:0:0:0:
475,192,20378,128,0,20485:0:0:0:0:
36,192,20485,128,0,20592:0:0:0:0:
329,192,20566,1,0,0:0:0:0:
402,192,20592,1,0,0:0:0:0:
256,192,20592,1,0,0:0:0:0:
109,192,20592,1,0,0:0:0:0:
475,192,20592,128,0,21021:0:0:0:0:
182,192,20780,1,0,0:0:0:0:
109,192,20807,1,0,0:0:0:0:
36,192,20807,128,0,21021:0:0:0:0:
329,192,20914,1,0,0:0:0:0:
182,192,21021,128,0,21128:0:0:0:0:
402,192,21021,1,0,0:0:0:0:
109,192,21021,1,0,0:0:0:0:
36,192,21128,128,0,21235:0:0:0:0:
109,192,21235,128,0,21342:0:0:0:0:
402,192,21342,1,0,0:0:0:0:
256,192,21342,128,0,21450:0:0:0:0:
475,192,21342,1,0,0:0:0:0:
182,192,21450,128,0,21557:0:0:0:0:
329,192,21450,1,0,0:0:0:0:
36,192,21557,128,0,21664:0:0:0:0:
475,192,21557,1,0,0:0:0:0:
109,192,21664,128,0,21771:0:0:0:0:
329,192,21664,1,0,0:0:0:0:
402,192,21664,1,0,0:0:0:0:
182,192,21771,128,0,21878:0:0:0:0:
402,192,21878,128,0,21985:0:0:0:0:
475,192,21985,128,0,22092:0:0:0:0:
182,192,21985,1,0,0:0:0:0:
109,192,21985,1,0,0:0:0:0:
36,192,22092,128,0,22200:0:0:0:0:
256,192,22092,1,0,0:0:0:0:
475,192,22200,128,0,22307:0:0:0:0:
329,192,22200,1,0,0:0:0:0:
182,192,22280,1,0,0:0:0:0:
109,192,22307,1,0,0:0:0:0:
36,192,22307,128,0,22735:0:0:0:0:
402,192,22307,1,0,0:0:0:0:
256,192,22307,1,0,0:0:0:0:
329,192,22494,1,0,0:0:0:0:
402,192,22521,1,0,0:0:0:0:
475,192,22521,128,0,22735:0:0:0:0:
256,192,22628,1,0,0:0:0:0:
329,192,22735,1,0,0:0:0:0:
182,192,22735,128,0,22842:0:0:0:0:
109,192,22735,1,0,0:0:0:0:
36,192,22842,128,0,22950:0:0:0:0:
109,192,22950,128,0,23057:0:0:0:0:
475,192,23057,1,0,0:0:0:0:
256,192,23057,128,0,23164:0:0:0:0:
402,192,23057,1,0,0:0:0:0:
329,192,23164,1,0,0:0:0:0:
182,192,23164,128,0,23271:0:0:0:0:
475,192,23271,1,0,0:0:0:0:
36,192,23271,128,0,23378:0:0:0:0:
402,192,23378,1,0,0:0:0:0:
329,192,23378,1,0,0:0:0:0:
109,192,23378,128,0,23485:0:0:0:0:
182,192,23485,128,0,23592:0:0:0:0:
402,192,23592,128,0,23700:0:0:0:0:
109,192,23700,1,0,0:0:0:0:
329,192,23700,1,0,0:0:0:0:
475,192,23700,128,0,23807:0:0:0:0:
256,192,23807,1,0,0:0:0:0:
36,192,23807,128,0,23914:0:0:0:0:
475,192,23914,128,0,24021:0:0:0:0:
182,192,23994,1,0,0:0:0:0:
109,192,24021,1,0,0:0:0:0:
256,192,24021,1,0,0:0:0:0:
402,192,24021,1,0,0:0:0:0:
36,192,24021,128,0,24450:0:0:0:0:
329,192,24208,1,0,0:0:0:0:
402,192,24235,1,0,0:0:0:0:
475,192,24235,128,0,24450:0:0:0:0:
109,192,24342,1,0,0:0:0:0:
182,192,24450,128,0,24557:0:0:0:0:
256,192,24450,1,0,0:0:0:0:
402,192,24450,1,0,0:0:0:0:
36,192,24557,128,0,24664:0:0:0:0:
109,192,24664,128,0,24771:0:0:0:0:
475,192,24771,1,0,0:0:0:0:
256,192,24771,128,0,24878:0:0:0:0:
402,192,24771,1,0,0:0:0:0:
182,192,24878,128,0,24985:0:0:0:0:
329,192,24878,1,0,0:0:0:0:
36,192,24985,128,0,25092:0:0:0:0:
475,192,24985,1,0,0:0:0:0:
109,192,25092,128,0,25200:0:0:0:0:
329,192,25092,1,0,0:0:0:0:
402,192,25092,1,0,0:0:0:0:
182,192,25200,128,0,25307:0:0:0:0:
475,192,25307,128,0,25414:0:0:0:0:
182,192,25414,128,0,25521:0:0:0:0:
256,192,25414,1,0,0:0:0:0:
402,192,25414,1,0,0:0:0:0:
36,192,25521,128,0,25628:0:0:0:0:
109,192,25521,1,0,0:0:0:0:
475,192,25628,128,0,25735:0:0:0:0:
182,192,25708,1,0,0:0:0:0:
109,192,25735,1,0,0:0:0:0:
36,192,25735,128,0,26164:0:0:0:0:
402,192,25735,1,0,0:0:0:0:
256,192,25735,1,0,0:0:0:0:
329,192,25923,1,0,0:0:0:0:
402,192,25950,1,0,0:0:0:0:
475,192,25950,128,0,26164:0:0:0:0:
256,192,26057,1,0,0:0:0:0:
329,192,26164,1,0,0:0:0:0:
182,192,26164,128,0,26271:0:0:0:0:
109,192,26164,1,0,0:0:0:0:
36,192,26271,128,0,26378:0:0:0:0:
109,192,26378,128,0,26485:0:0:0:0:
402,192,26485,1,0,0:0:0:0:
256,192,26485,128,0,26592:0:0:0:0:
475,192,26485,1,0,0:0:0:0:
329,192,26592,1,0,0:0:0:0:
182,192,26592,128,0,26700:0:0:0:0:
475,192,26700,1,0,0:0:0:0:
36,192,26700,128,0,26807:0:0:0:0:
402,192,26807,1,0,0:0:0:0:
329,192,26807,1,0,0:0:0:0:
109,192,26807,128,0,26914:0:0:0:0:
182,192,26914,128,0,27021:0:0:0:0:
402,192,27021,128,0,27128:0:0:0:0:
109,192,27128,1,0,0:0:0:0:
329,192,27128,1,0,0:0:0:0:
475,192,27128,128,0,27235:0:0:0:0:
256,192,27235,1,0,0:0:0:0:
36,192,27235,128,0,27342:0:0:0:0:
475,192,27342,128,0,27450:0:0:0:0:
182,192,27423,1,0,0:0:0:0:
109,192,27450,1,0,0:0:0:0:
256,192,27450,1,0,0:0:0:0:
402,192,27450,1,0,0:0:0:0:
36,192,27450,128,0,27878:0:0:0:0:
329,192,27637,1,0,0:0:0:0:
402,192,27664,1,0,0:0:0:0:
475,192,27664,128,0,27878:0:0:0:0:
256,192,27771,1,0,0:0:0:0:
329,192,27878,128,0,27985:0:0:0:0:
402,192,27878,1,0,0:0:0:0:
109,192,27878,1,0,0:0:0:0:
475,192,27985,128,0,28092:0:0:0:0:
256,192,27985,1,0,0:0:0:0:
402,192,28092,128,0,28200:0:0:0:0:
182,192,28092,1,0,0:0:0:0:
36,192,28200,1,0,0:0:0:0:
329,192,28200,128,0,28307:0:0:0:0:
109,192,28200,1,0,0:0:0:0:
475,192,28307,128,0,28414:0:0:0:0:
256,192,28307,1,0,0:0:0:0:
402,192,28414,128,0,28521:0:0:0:0:
182,192,28414,1,0,0:0:0:0:
329,192,28521,128,0,28628:0:0:0:0:
109,192,28521,1,0,0:0:0:0:
36,192,28521,1,0,0:0:0:0:
256,192,28628,128,0,28735:0:0:0:0:
109,192,28735,128,0,28842:0:0:0:0:
36,192,28842,128,0,28950:0:0:0:0:
182,192,28842,1,0,0:0:0:0:
402,192,28842,1,0,0:0:0:0:
475,192,28950,128,0,29057:0:0:0:0:
256,192,28950,1,0,0:0:0:0:
36,192,29057,128,0,29164:0:0:0:0:
329,192,29137,1,0,0:0:0:0:
402,192,29164,1,0,0:0:0:0:
475,192,29164,128,0,29592:0:0:0:0:
109,192,29164,1,0,0:0:0:0:
256,192,29164,1,0,0:0:0:0:
182,192,29351,1,0,0:0:0:0:
109,192,29378,1,0,0:0:0:0:
36,192,29378,128,0,29592:0:0:0:0:
402,192,29485,1,0,0:0:0:0:
182,192,29592,1,0,0:0:0:0:
329,192,29592,128,0,29700:0:0:0:0:
109,192,29592,1,0,0:0:0:0:
256,192,29700,1,0,0:0:0:0:
402,192,29700,128,0,29807:0:0:0:0:
109,192,29807,1,0,0:0:0:0:
475,192,29807,128,0,29914:0:0:0:0:
256,192,29914,1,0,0:0:0:0:
329,192,29914,128,0,30021:0:0:0:0:
36,192,29914,1,0,0:0:0:0:
182,192,30021,1,0,0:0:0:0:
475,192,30021,128,0,30128:0:0:0:0:
109,192,30128,1,0,0:0:0:0:
402,192,30128,128,0,30235:0:0:0:0:
36,192,30235,1,0,0:0:0:0:
475,192,30235,1,0,0:0:0:0:
329,192,30235,128,0,30342:0:0:0:0:
256,192,30342,128,0,30450:0:0:0:0:
36,192,30450,128,0,31307:0:0:0:0:
402,192,30637,1,0,0:0:0:0:
475,192,30664,128,0,31307:0:0:0:0:
329,192,30664,128,0,30878:0:0:0:0:
182,192,30771,1,0,0:0:0:0:
402,192,30878,128,0,31307:0:0:0:0:
109,192,30878,1,0,0:0:0:0:
256,192,30878,128,0,31092:0:0:0:0:
182,192,31092,128,0,31307:0:0:0:0:
329,192,31092,1,0,0:0:0:0:
256,192,31200,1,0,0:0:0:0:
329,192,31307,128,0,31414:0:0:0:0:
109,192,31307,1,0,0:0:0:0:
475,192,31414,128,0,31521:0:0:0:0:
256,192,31414,1,0,0:0:0:0:
402,192,31521,128,0,31628:0:0:0:0:
182,192,31521,1,0,0:0:0:0:
36,192,31628,1,0,0:0:0:0:
329,192,31628,128,0,31735:0:0:0:0:
109,192,31628,1,0,0:0:0:0:
475,192,31735,128,0,31842:0:0:0:0:
256,192,31735,1,0,0:0:0:0:
402,192,31842,128,0,31950:0:0:0:0:
182,192,31842,1,0,0:0:0:0:
329,192,31950,128,0,32057:0:0:0:0:
109,192,31950,1,0,0:0:0:0:
36,192,31950,1,0,0:0:0:0:
475,192,32057,128,0,32164:0:0:0:0:
36,192,32164,128,0,32271:0:0:0:0:
329,192,32271,128,0,32378:0:0:0:0:
256,192,32271,1,0,0:0:0:0:
109,192,32271,1,0,0:0:0:0:
475,192,32378,128,0,32485:0:0:0:0:
402,192,32378,1,0,0:0:0:0:
36,192,32485,128,0,32592:0:0:0:0:
329,192,32566,1,0,0:0:0:0:
402,192,32592,1,0,0:0:0:0:
475,192,32592,128,0,33021:0:0:0:0:
109,192,32592,1,0,0:0:0:0:
256,192,32592,1,0,0:0:0:0:
182,192,32780,1,0,0:0:0:0:
109,192,32807,1,0,0:0:0:0:
36,192,32807,128,0,33021:0:0:0:0:
402,192,32914,1,0,0:0:0:0:
256,192,33021,1,0,0:0:0:0:
329,192,33021,128,0,33128:0:0:0:0:
109,192,33021,1,0,0:0:0:0:
182,192,33128,1,0,0:0:0:0:
402,192,33128,128,0,33235:0:0:0:0:
256,192,33235,1,0,0:0:0:0:
475,192,33235,128,0,33342:0:0:0:0:
109,192,33342,1,0,0:0:0:0:
329,192,33342,128,0,33450:0:0:0:0:
36,192,33342,1,0,0:0:0:0:
182,192,33450,1,0,0:0:0:0:
402,192,33450,128,0,33557:0:0:0:0:
256,192,33557,1,0,0:0:0:0:
475,192,33557,128,0,33664:0:0:0:0:
36,192,33664,1,0,0:0:0:0:
109,192,33664,1,0,0:0:0:0:
329,192,33664,128,0,33771:0:0:0:0:
402,192,33771,128,0,33878:0:0:0:0:
109,192,33878,128,0,34735:0:0:0:0:
402,192,34066,1,0,0:0:0:0:
475,192,34092,128,0,34735:0:0:0:0:
256,192,34092,128,0,34307:0:0:0:0:
182,192,34200,1,0,0:0:0:0:
402,192,34307,128,0,34735:0:0:0:0:
36,192,34307,1,0,0:0:0:0:
329,192,34307,128,0,34521:0:0:0:0:
36,192,34521,128,0,34735:0:0:0:0:
182,192,34521,1,0,0:0:0:0:
256,192,34628,1,0,0:0:0:0:
182,192,34735,128,0,34842:0:0:0:0:
329,192,34735,1,0,0:0:0:0:
36,192,34842,128,0,34950:0:0:0:0:
402,192,34842,1,0,0:0:0:0:
109,192,34950,128,0,35057:0:0:0:0:
475,192,34950,1,0,0:0:0:0:
256,192,35057,1,0,0:0:0:0:
182,192,35057,128,0,35164:0:0:0:0:
402,192,35057,1,0,0:0:0:0:
36,192,35164,128,0,35271:0:0:0:0:
329,192,35164,1,0,0:0:0:0:
109,192,35271,128,0,35378:0:0:0:0:
402,192,35271,1,0,0:0:0:0:
182,192,35378,128,0,35485:0:0:0:0:
36,192,35378,1,0,0:0:0:0:
475,192,35378,1,0,0:0:0:0:
256,192,35485,128,0,35592:0:0:0:0:
402,192,35592,128,0,35700:0:0:0:0:
475,192,35700,128,0,35807:0:0:0:0:
329,192,35700,1,0,0:0:0:0:
109,192,35700,1,0,0:0:0:0:
36,192,35807,128,0,35914:0:0:0:0:
256,192,35807,1,0,0:0:0:0:
475,192,35914,128,0,36021:0:0:0:0:
182,192,35994,1,0,0:0:0:0:
109,192,36021,1,0,0:0:0:0:
36,192,36021,128,0,36450:0:0:0:0:
402,192,36021,1,0,0:0:0:0:
256,192,36021,1,0,0:0:0:0:
329,192,36208,1,0,0:0:0:0:
402,192,36235,1,0,0:0:0:0:
475,192,36235,128,0,36450:0:0:0:0:
256,192,36342,1,0,0:0:0:0:
402,192,36450,1,0,0:0:0:0:
182,192,36450,128,0,36557:0:0:0:0:
109,192,36450,1,0,0:0:0:0:
256,192,36557,1,0,0:0:0:0:
36,192,36557,128,0,36664:0:0:0:0:
329,192,36664,1,0,0:0:0:0:
109,192,36664,128,0,36771:0:0:0:0:
256,192,36771,1,0,0:0:0:0:
182,192,36771,128,0,36878:0:0:0:0:
402,192,36771,1,0,0:0:0:0:
475,192,36878,1,0,0:0:0:0:
36,192,36878,128,0,36985:0:0:0:0:
329,192,36985,1,0,0:0:0:0:
109,192,36985,128,0,37092:0:0:0:0:
475,192,37092,1,0,0:0:0:0:
402,192,37092,1,0,0:0:0:0:
182,192,37092,128,0,37200:0:0:0:0:
256,192,37200,128,0,37307:0:0:0:0:
402,192,37307,128,0,38164:0:0:0:0:
182,192,37494,1,0,0:0:0:0:
109,192,37521,128,0,38164:0:0:0:0:
475,192,37521,128,0,37735:0:0:0:0:
256,192,37628,1,0,0:0:0:0:
36,192,37735,128,0,38164:0:0:0:0:
329,192,37735,128,0,37950:0:0:0:0:
182,192,37735,1,0,0:0:0:0:
475,192,37950,128,0,38164:0:0:0:0:
182,192,37950,1,0,0:0:0:0:
256,192,38057,1,0,0:0:0:0:
182,192,38164,128,0,38271:0:0:0:0:
329,192,38164,1,0,0:0:0:0:
36,192,38271,128,0,38378:0:0:0:0:
402,192,38271,1,0,0:0:0:0:
109,192,38378,128,0,38485:0:0:0:0:
475,192,38378,1,0,0:0:0:0:
329,192,38485,1,0,0:0:0:0:
182,192,38485,128,0,38592:0:0:0:0:
256,192,38485,1,0,0:0:0:0:
36,192,38592,128,0,38700:0:0:0:0:
402,192,38592,1,0,0:0:0:0:
109,192,38700,128,0,38807:0:0:0:0:
475,192,38700,1,0,0:0:0:0:
182,192,38807,128,0,38914:0:0:0:0:
36,192,38807,1,0,0:0:0:0:
329,192,38807,1,0,0:0:0:0:
256,192,38914,128,0,39021:0:0:0:0:
475,192,39021,128,0,39128:0:0:0:0:
182,192,39128,128,0,39235:0:0:0:0:
329,192,39128,1,0,0:0:0:0:
402,192,39128,1,0,0:0:0:0:
36,192,39235,128,0,39342:0:0:0:0:
109,192,39235,1,0,0:0:0:0:
475,192,39342,128,0,39450:0:0:0:0:
182,192,39423,1,0,0:0:0:0:
109,192,39450,1,0,0:0:0:0:
36,192,39450,128,0,39878:0:0:0:0:
402,192,39450,1,0,0:0:0:0:
256,192,39450,1,0,0:0:0:0:
329,192,39637,1,0,0:0:0:0:
402,192,39664,1,0,0:0:0:0:
475,192,39664,128,0,39878:0:0:0:0:
256,192,39771,1,0,0:0:0:0:
329,192,39878,1,0,0:0:0:0:
182,192,39878,128,0,39985:0:0:0:0:
109,192,39878,1,0,0:0:0:0:
256,192,39985,1,0,0:0:0:0:
36,192,39985,128,0,40092:0:0:0:0:
329,192,40092,1,0,0:0:0:0:
109,192,40092,128,0,40200:0:0:0:0:
475,192,40200,1,0,0:0:0:0:
182,192,40200,128,0,40307:0:0:0:0:
402,192,40200,1,0,0:0:0:0:
256,192,40307,1,0,0:0:0:0:
36,192,40307,128,0,40414:0:0:0:0:
329,192,40414,1,0,0:0:0:0:
109,192,40414,128,0,40521:0:0:0:0:
475,192,40521,1,0,0:0:0:0:
402,192,40521,1,0,0:0:0:0:
182,192,40521,128,0,40628:0:0:0:0:
256,192,40628,128,0,40735:0:0:0:0:
402,192,40735,128,0,41592:0:0:0:0:
329,192,40923,1,0,0:0:0:0:
256,192,40950,128,0,41592:0:0:0:0:
475,192,40950,128,0,41164:0:0:0:0:
109,192,41057,1,0,0:0:0:0:
36,192,41164,128,0,41592:0:0:0:0:
182,192,41164,1,0,0:0:0:0:
329,192,41164,128,0,41378:0:0:0:0:
475,192,41378,128,0,41592:0:0:0:0:
109,192,41378,1,0,0:0:0:0:
182,192,41485,1,0,0:0:0:0:
109,192,41592,128,0,42878:0:0:0:0:
329,192,41592,1,0,0:0:0:0:
256,192,41807,1,0,0:0:0:0:
329,192,41914,1,0,0:0:0:0:
475,192,42021,1,0,0:0:0:0:
402,192,42128,1,0,0:0:0:0:
182,192,42128,1,0,0:0:0:0:
36,192,42235,1,0,0:0:0:0:
475,192,42235,1,0,0:0:0:0:
329,192,42235,1,0,0:0:0:0:
256,192,42342,1,0,0:0:0:0:
36,192,42450,1,0,0:0:0:0:
475,192,42557,1,0,0:0:0:0:
256,192,42557,1,0,0:0:0:0:
36,192,42664,1,0,0:0:0:0:
329,192,42664,1,0,0:0:0:0:
402,192,42771,1,0,0:0:0:0:
182,192,42771,1,0,0:0:0:0:
36,192,42878,1,0,0:0:0:0:
256,192,42878,1,0,0:0:0:0:
475,192,42878,1,0,0:0:0:0:
182,192,43307,128,0,43414:0:0:0:0:
36,192,43307,1,0,0:0:0:0:
109,192,43307,1,0,0:0:0:0:
329,192,43307,1,0,0:0:0:0:
475,192,43414,128,0,43467:0:0:0:0:
475,192,43521,128,0,43628:0:0:0:0:
329,192,43628,128,0,43735:0:0:0:0:
36,192,43628,1,0,0:0:0:0:
109,192,43628,1,0,0:0:0:0:
256,192,43735,128,0,43842:0:0:0:0:
182,192,43842,128,0,43950:0:0:0:0:
36,192,43950,128,0,44057:0:0:0:0:
329,192,43950,1,0,0:0:0:0:
402,192,43950,1,0,0:0:0:0:
475,192,43950,1,0,0:0:0:0:
109,192,44057,128,0,44164:0:0:0:0:
329,192,44164,128,0,44271:0:0:0:0:
182,192,44164,1,0,0:0:0:0:
475,192,44271,128,0,44325:0:0:0:0:
256,192,44271,1,0,0:0:0:0:
475,192,44378,128,0,44485:0:0:0:0:
36,192,44378,1,0,0:0:0:0:
109,192,44378,1,0,0:0:0:0:
329,192,44485,128,0,44592:0:0:0:0:
182,192,44485,1,0,0:0:0:0:
402,192,44592,128,0,44807:0:0:0:0:
256,192,44592,1,0,0:0:0:0:
36,192,44592,1,0,0:0:0:0:
109,192,44592,1,0,0:0:0:0:
109,192,44807,128,0,44914:0:0:0:0:
256,192,44807,1,0,0:0:0:0:
182,192,44914,128,0,45021:0:0:0:0:
329,192,44914,1,0,0:0:0:0:
256,192,45021,128,0,45235:0:0:0:0:
36,192,45021,1,0,0:0:0:0:
402,192,45021,1,0,0:0:0:0:
475,192,45021,1,0,0:0:0:0:
329,192,45235,128,0,45342:0:0:0:0:
256,192,45342,128,0,45450:0:0:0:0:
36,192,45342,1,0,0:0:0:0:
475,192,45342,1,0,0:0:0:0:
182,192,45450,128,0,45557:0:0:0:0:
402,192,45450,1,0,0:0:0:0:
109,192,45557,128,0,45664:0:0:0:0:
329,192,45557,1,0,0:0:0:0:
36,192,45664,128,0,45771:0:0:0:0:
256,192,45664,1,0,0:0:0:0:
402,192,45664,1,0,0:0:0:0:
475,192,45664,1,0,0:0:0:0:
109,192,45771,128,0,45878:0:0:0:0:
182,192,45878,128,0,45985:0:0:0:0:
36,192,45985,128,0,46092:0:0:0:0:
256,192,45985,1,0,0:0:0:0:
475,192,45985,1,0,0:0:0:0:
109,192,46092,128,0,46200:0:0:0:0:
329,192,46092,1,0,0:0:0:0:
182,192,46200,128,0,46307:0:0:0:0:
402,192,46200,1,0,0:0:0:0:
256,192,46307,128,0,46521:0:0:0:0:
36,192,46307,1,0,0:0:0:0:
109,192,46307,1,0,0:0:0:0:
475,192,46307,1,0,0:0:0:0:
36,192,46521,128,0,46628:0:0:0:0:
329,192,46521,1,0,0:0:0:0:
182,192,46628,128,0,46735:0:0:0:0:
402,192,46628,1,0,0:0:0:0:
475,192,46735,128,0,46950:0:0:0:0:
109,192,46735,1,0,0:0:0:0:
329,192,46735,1,0,0:0:0:0:
256,192,46735,1,0,0:0:0:0:
402,192,46950,128,0,47057:0:0:0:0:
329,192,47057,128,0,47164:0:0:0:0:
36,192,47057,1,0,0:0:0:0:
109,192,47057,1,0,0:0:0:0:
256,192,47164,128,0,47271:0:0:0:0:
475,192,47164,1,0,0:0:0:0:
36,192,47271,128,0,47378:0:0:0:0:
182,192,47271,1,0,0:0:0:0:
109,192,47378,128,0,47485:0:0:0:0:
402,192,47378,1,0,0:0:0:0:
475,192,47378,1,0,0:0:0:0:
329,192,47378,1,0,0:0:0:0:
182,192,47485,128,0,47592:0:0:0:0:
256,192,47592,128,0,47700:0:0:0:0:
329,192,47700,128,0,47753:0:0:0:0:
109,192,47700,1,0,0:0:0:0:
475,192,47700,1,0,0:0:0:0:
329,192,47807,128,0,47914:0:0:0:0:
182,192,47807,1,0,0:0:0:0:
36,192,47914,128,0,48021:0:0:0:0:
256,192,47914,1,0,0:0:0:0:
109,192,48021,128,0,48235:0:0:0:0:
402,192,48021,1,0,0:0:0:0:
329,192,48021,1,0,0:0:0:0:
475,192,48021,1,0,0:0:0:0:
182,192,48235,128,0,48342:0:0:0:0:
36,192,48235,1,0,0:0:0:0:
256,192,48342,128,0,48450:0:0:0:0:
329,192,48342,1,0,0:0:0:0:
475,192,48450,128,0,48557:0:0:0:0:
36,192,48450,1,0,0:0:0:0:
109,192,48450,1,0,0:0:0:0:
402,192,48450,1,0,0:0:0:0:
182,192,48557,128,0,48664:0:0:0:0:
402,192,48664,128,0,48771:0:0:0:0:
109,192,48771,128,0,48878:0:0:0:0:
36,192,48771,1,0,0:0:0:0:
475,192,48771,1,0,0:0:0:0:
329,192,48878,128,0,48985:0:0:0:0:
182,192,48878,1,0,0:0:0:0:
36,192,48985,128,0,49092:0:0:0:0:
256,192,48985,1,0,0:0:0:0:
109,192,49092,128,0,49200:0:0:0:0:
329,192,49092,1,0,0:0:0:0:
475,192,49092,1,0,0:0:0:0:
402,192,49092,1,0,0:0:0:0:
182,192,49200,128,0,49307:0:0:0:0:
256,192,49307,128,0,49414:0:0:0:0:
475,192,49414,128,0,49521:0:0:0:0:
36,192,49414,1,0,0:0:0:0:
402,192,49521,128,0,49628:0:0:0:0:
182,192,49521,1,0,0:0:0:0:
329,192,49628,128,0,49735:0:0:0:0:
109,192,49628,1,0,0:0:0:0:
256,192,49735,128,0,49842:0:0:0:0:
36,192,49735,1,0,0:0:0:0:
402,192,49735,1,0,0:0:0:0:
475,192,49735,1,0,0:0:0:0:
109,192,49842,128,0,49950:0:0:0:0:
182,192,49950,128,0,50057:0:0:0:0:
256,192,50057,128,0,50164:0:0:0:0:
402,192,50164,128,0,50271:0:0:0:0:
36,192,50164,1,0,0:0:0:0:
109,192,50164,1,0,0:0:0:0:
182,192,50164,1,0,0:0:0:0:
475,192,50271,128,0,50325:0:0:0:0:
475,192,50378,128,0,50485:0:0:0:0:
329,192,50485,128,0,50592:0:0:0:0:
36,192,50485,1,0,0:0:0:0:
109,192,50485,1,0,0:0:0:0:
256,192,50592,128,0,50700:0:0:0:0:
182,192,50700,128,0,50807:0:0:0:0:
36,192,50807,128,0,50914:0:0:0:0:
329,192,50807,1,0,0:0:0:0:
402,192,50807,1,0,0:0:0:0:
475,192,50807,1,0,0:0:0:0:
109,192,50914,128,0,51021:0:0:0:0:
329,192,51021,128,0,51128:0:0:0:0:
182,192,51021,1,0,0:0:0:0:
475,192,51128,128,0,51182:0:0:0:0:
256,192,51128,1,0,0:0:0:0:
475,192,51235,128,0,51342:0:0:0:0:
36,192,51235,1,0,0:0:0:0:
109,192,51235,1,0,0:0:0:0:
329,192,51342,128,0,51450:0:0:0:0:
182,192,51342,1,0,0:0:0:0:
402,192,51450,128,0,51664:0:0:0:0:
256,192,51450,1,0,0:0:0:0:
36,192,51450,1,0,0:0:0:0:
109,192,51450,1,0,0:0:0:0:
256,192,51664,128,0,51771:0:0:0:0:
36,192,51664,1,0,0:0:0:0:
329,192,51771,128,0,51878:0:0:0:0:
109,192,51771,1,0,0:0:0:0:
402,192,51878,128,0,52092:0:0:0:0:
36,192,51878,1,0,0:0:0:0:
182,192,51878,1,0,0:0:0:0:
475,192,51878,1,0,0:0:0:0:
329,192,52092,128,0,52200:0:0:0:0:
256,192,52200,128,0,52307:0:0:0:0:
36,192,52200,1,0,0:0:0:0:
475,192,52200,1,0,0:0:0:0:
182,192,52307,128,0,52414:0:0:0:0:
402,192,52307,1,0,0:0:0:0:
109,192,52414,128,0,52521:0:0:0:0:
329,192,52414,1,0,0:0:0:0:
36,192,52521,128,0,52628:0:0:0:0:
182,192,52521,1,0,0:0:0:0:
256,192,52521,1,0,0:0:0:0:
475,192,52521,1,0,0:0:0:0:
329,192,52628,128,0,52735:0:0:0:0:
402,192,52735,128,0,52842:0:0:0:0:
475,192,52842,128,0,52950:0:0:0:0:
36,192,52842,1,0,0:0:0:0:
109,192,52842,1,0,0:0:0:0:
329,192,52950,128,0,53057:0:0:0:0:
182,192,52950,1,0,0:0:0:0:
402,192,53057,128,0,53164:0:0:0:0:
256,192,53057,1,0,0:0:0:0:
475,192,53164,128,0,53378:0:0:0:0:
36,192,53164,1,0,0:0:0:0:
109,192,53164,1,0,0:0:0:0:
182,192,53164,1,0,0:0:0:0:
329,192,53378,128,0,53485:0:0:0:0:
36,192,53378,1,0,0:0:0:0:
402,192,53485,128,0,53592:0:0:0:0:
109,192,53485,1,0,0:0:0:0:
475,192,53592,128,0,53807:0:0:0:0:
182,192,53592,1,0,0:0:0:0:
329,192,53592,1,0,0:0:0:0:
256,192,53592,1,0,0:0:0:0:
402,192,53807,128,0,53914:0:0:0:0:
329,192,53914,128,0,54021:0:0:0:0:
109,192,53914,1,0,0:0:0:0:
182,192,53914,1,0,0:0:0:0:
256,192,54021,128,0,54128:0:0:0:0:
36,192,54021,1,0,0:0:0:0:
36,192,54128,128,0,54235:0:0:0:0:
475,192,54128,1,0,0:0:0:0:
109,192,54235,128,0,54342:0:0:0:0:
256,192,54235,1,0,0:0:0:0:
402,192,54235,1,0,0:0:0:0:
329,192,54235,1,0,0:0:0:0:
182,192,54342,128,0,54450:0:0:0:0:
256,192,54450,128,0,54557:0:0:0:0:
329,192,54557,128,0,54610:0:0:0:0:
109,192,54557,1,0,0:0:0:0:
475,192,54557,1,0,0:0:0:0:
329,192,54664,128,0,54771:0:0:0:0:
182,192,54664,1,0,0:0:0:0:
36,192,54771,128,0,54878:0:0:0:0:
256,192,54771,1,0,0:0:0:0:
109,192,54878,128,0,55092:0:0:0:0:
402,192,54878,1,0,0:0:0:0:
329,192,54878,1,0,0:0:0:0:
475,192,54878,1,0,0:0:0:0:
182,192,55092,128,0,55200:0:0:0:0:
36,192,55092,1,0,0:0:0:0:
256,192,55200,128,0,55307:0:0:0:0:
329,192,55200,1,0,0:0:0:0:
475,192,55307,128,0,56592:0:0:0:0:
36,192,55307,1,0,0:0:0:0:
109,192,55307,1,0,0:0:0:0:
402,192,55307,1,0,0:0:0:0:
36,192,55735,128,0,56592:0:0:0:0:
109,192,55735,1,0,0:0:0:0:
182,192,55735,1,0,0:0:0:0:
329,192,55735,1,0,0:0:0:0:
109,192,56592,128,0,57021:0:0:0:0:
256,192,56592,128,0,57021:0:0:0:0:
402,192,56592,128,0,57021:0:0:0:0:
182,192,56592,1,0,0:0:0:0:
329,192,56592,1,0,0:0:0:0:
475,192,57021,128,0,57235:0:0:0:0:
182,192,57021,1,0,0:0:0:0:
36,192,57021,128,0,57235:0:0:0:0:
329,192,57021,128,0,57235:0:0:0:0:
182,192,57235,128,0,57342:0:0:0:0:
109,192,57342,128,0,57450:0:0:0:0:
256,192,57342,1,0,0:0:0:0:
475,192,57342,1,0,0:0:0:0:
36,192,57450,128,0,57557:0:0:0:0:
402,192,57450,1,0,0:0:0:0:
182,192,57557,128,0,57664:0:0:0:0:
329,192,57557,1,0,0:0:0:0:
109,192,57664,128,0,57771:0:0:0:0:
402,192,57664,1,0,0:0:0:0:
475,192,57664,1,0,0:0:0:0:
256,192,57664,1,0,0:0:0:0:
36,192,57771,128,0,57878:0:0:0:0:
182,192,57878,128,0,58092:0:0:0:0:
475,192,57985,1,0,0:0:0:0:
329,192,58092,128,0,58200:0:0:0:0:
36,192,58092,1,0,0:0:0:0:
256,192,58092,1,0,0:0:0:0:
402,192,58200,128,0,58307:0:0:0:0:
109,192,58200,1,0,0:0:0:0:
475,192,58307,128,0,58414:0:0:0:0:
256,192,58307,1,0,0:0:0:0:
182,192,58307,1,0,0:0:0:0:
402,192,58414,128,0,58521:0:0:0:0:
109,192,58414,1,0,0:0:0:0:
329,192,58521,128,0,58628:0:0:0:0:
256,192,58521,1,0,0:0:0:0:
36,192,58521,1,0,0:0:0:0:
402,192,58628,128,0,58735:0:0:0:0:
109,192,58628,1,0,0:0:0:0:
182,192,58682,1,0,0:0:0:0:
475,192,58735,128,0,58950:0:0:0:0:
36,192,58735,1,0,0:0:0:0:
109,192,58735,1,0,0:0:0:0:
256,192,58735,1,0,0:0:0:0:
36,192,58950,128,0,59057:0:0:0:0:
109,192,59057,128,0,59164:0:0:0:0:
256,192,59057,1,0,0:0:0:0:
329,192,59057,1,0,0:0:0:0:
182,192,59164,128,0,59271:0:0:0:0:
402,192,59164,1,0,0:0:0:0:
256,192,59271,128,0,59378:0:0:0:0:
475,192,59271,1,0,0:0:0:0:
36,192,59378,128,0,59485:0:0:0:0:
109,192,59378,1,0,0:0:0:0:
329,192,59378,1,0,0:0:0:0:
402,192,59378,1,0,0:0:0:0:
182,192,59485,1,0,0:0:0:0:
256,192,59539,1,0,0:0:0:0:
329,192,59592,128,0,59700:0:0:0:0:
402,192,59700,128,0,59807:0:0:0:0:
475,192,59807,128,0,59914:0:0:0:0:
329,192,59914,128,0,60021:0:0:0:0:
402,192,60021,128,0,60128:0:0:0:0:
475,192,60021,1,0,0:0:0:0:
109,192,60021,128,0,60128:0:0:0:0:
36,192,60021,1,0,0:0:0:0:
182,192,60021,1,0,0:0:0:0:
402,192,60235,128,0,60450:0:0:0:0:
109,192,60235,128,0,60450:0:0:0:0:
329,192,60450,1,0,0:0:0:0:
36,192,60450,1,0,0:0:0:0:
182,192,60450,1,0,0:0:0:0:
475,192,60450,128,0,60664:0:0:0:0:
182,192,60664,128,0,60771:0:0:0:0:
329,192,60771,1,0,0:0:0:0:
256,192,60771,1,0,0:0:0:0:
109,192,60771,128,0,60878:0:0:0:0:
475,192,60878,1,0,0:0:0:0:
36,192,60878,128,0,60985:0:0:0:0:
402,192,60985,1,0,0:0:0:0:
182,192,60985,128,0,61092:0:0:0:0:
475,192,61092,1,0,0:0:0:0:
256,192,61092,1,0,0:0:0:0:
109,192,61092,128,0,61200:0:0:0:0:
329,192,61092,1,0,0:0:0:0:
36,192,61200,128,0,61307:0:0:0:0:
182,192,61307,128,0,61521:0:0:0:0:
475,192,61414,1,0,0:0:0:0:
256,192,61521,1,0,0:0:0:0:
36,192,61521,1,0,0:0:0:0:
329,192,61521,128,0,61628:0:0:0:0:
109,192,61628,1,0,0:0:0:0:
402,192,61628,128,0,61735:0:0:0:0:
182,192,61735,1,0,0:0:0:0:
256,192,61735,1,0,0:0:0:0:
475,192,61735,128,0,61842:0:0:0:0:
109,192,61842,1,0,0:0:0:0:
402,192,61842,128,0,61950:0:0:0:0:
36,192,61950,1,0,0:0:0:0:
256,192,61950,1,0,0:0:0:0:
329,192,61950,128,0,62057:0:0:0:0:
109,192,62057,1,0,0:0:0:0:
402,192,62057,128,0,62164:0:0:0:0:
182,192,62110,1,0,0:0:0:0:
109,192,62164,1,0,0:0:0:0:
256,192,62164,1,0,0:0:0:0:
475,192,62164,128,0,62378:0:0:0:0:
36,192,62164,1,0,0:0:0:0:
36,192,62378,128,0,62485:0:0:0:0:
329,192,62485,1,0,0:0:0:0:
256,192,62485,1,0,0:0:0:0:
109,192,62485,128,0,62592:0:0:0:0:
402,192,62592,1,0,0:0:0:0:
182,192,62592,128,0,62700:0:0:0:0:
475,192,62700,1,0,0:0:0:0:
256,192,62700,128,0,62807:0:0:0:0:
329,192,62807,1,0,0:0:0:0:
402,192,62807,1,0,0:0:0:0:
36,192,62807,128,0,62914:0:0:0:0:
109,192,62807,1,0,0:0:0:0:
182,192,62914,1,0,0:0:0:0:
256,192,62967,1,0,0:0:0:0:
329,192,63021,128,0,63128:0:0:0:0:
402,192,63128,128,0,63235:0:0:0:0:
475,192,63235,128,0,63342:0:0:0:0:
329,192,63342,128,0,63450:0:0:0:0:
256,192,63450,1,0,0:0:0:0:
475,192,63450,1,0,0:0:0:0:
402,192,63450,128,0,63557:0:0:0:0:
36,192,63450,1,0,0:0:0:0:
109,192,63450,128,0,63557:0:0:0:0:
402,192,63664,128,0,63878:0:0:0:0:
109,192,63664,128,0,63878:0:0:0:0:
182,192,63878,1,0,0:0:0:0:
36,192,63878,1,0,0:0:0:0:
329,192,63878,1,0,0:0:0:0:
475,192,63878,128,0,64092:0:0:0:0:
182,192,64092,128,0,64200:0:0:0:0:
109,192,64200,128,0,64307:0:0:0:0:
256,192,64200,1,0,0:0:0:0:
329,192,64200,1,0,0:0:0:0:
36,192,64307,128,0,64414:0:0:0:0:
475,192,64307,1,0,0:0:0:0:
182,192,64414,128,0,64521:0:0:0:0:
402,192,64414,1,0,0:0:0:0:
109,192,64521,128,0,64628:0:0:0:0:
329,192,64521,1,0,0:0:0:0:
475,192,64521,1,0,0:0:0:0:
256,192,64521,1,0,0:0:0:0:
36,192,64628,128,0,64735:0:0:0:0:
182,192,64735,128,0,64950:0:0:0:0:
475,192,64842,1,0,0:0:0:0:
329,192,64950,128,0,65057:0:0:0:0:
36,192,64950,1,0,0:0:0:0:
256,192,64950,1,0,0:0:0:0:
402,192,65057,128,0,65164:0:0:0:0:
109,192,65057,1,0,0:0:0:0:
475,192,65164,128,0,65271:0:0:0:0:
256,192,65164,1,0,0:0:0:0:
182,192,65164,1,0,0:0:0:0:
402,192,65271,128,0,65378:0:0:0:0:
109,192,65271,1,0,0:0:0:0:
329,192,65378,128,0,65485:0:0:0:0:
256,192,65378,1,0,0:0:0:0:
36,192,65378,1,0,0:0:0:0:
402,192,65485,128,0,65592:0:0:0:0:
109,192,65485,1,0,0:0:0:0:
182,192,65539,1,0,0:0:0:0:
475,192,65592,128,0,65807:0:0:0:0:
36,192,65592,1,0,0:0:0:0:
109,192,65592,1,0,0:0:0:0:
256,192,65592,1,0,0:0:0:0:
36,192,65807,128,0,65914:0:0:0:0:
109,192,65914,128,0,66021:0:0:0:0:
256,192,65914,1,0,0:0:0:0:
329,192,65914,1,0,0:0:0:0:
182,192,66021,128,0,66128:0:0:0:0:
402,192,66021,1,0,0:0:0:0:
256,192,66128,128,0,66235:0:0:0:0:
475,192,66128,1,0,0:0:0:0:
36,192,66235,128,0,66342:0:0:0:0:
109,192,66235,1,0,0:0:0:0:
329,192,66235,1,0,0:0:0:0:
402,192,66235,1,0,0:0:0:0:
182,192,66342,1,0,0:0:0:0:
256,192,66396,1,0,0:0:0:0:
329,192,66450,128,0,66557:0:0:0:0:
402,192,66557,128,0,66664:0:0:0:0:
475,192,66664,128,0,66771:0:0:0:0:
329,192,66771,128,0,66878:0:0:0:0:
402,192,66878,128,0,66985:0:0:0:0:
36,192,66878,1,0,0:0:0:0:
256,192,66878,1,0,0:0:0:0:
475,192,66878,1,0,0:0:0:0:
109,192,66878,128,0,66985:0:0:0:0:
402,192,67092,128,0,67307:0:0:0:0:
109,192,67092,128,0,67307:0:0:0:0:
329,192,67307,1,0,0:0:0:0:
36,192,67307,1,0,0:0:0:0:
182,192,67307,1,0,0:0:0:0:
475,192,67307,128,0,67521:0:0:0:0:
182,192,67521,128,0,67628:0:0:0:0:
329,192,67628,1,0,0:0:0:0:
256,192,67628,1,0,0:0:0:0:
109,192,67628,128,0,67735:0:0:0:0:
475,192,67735,1,0,0:0:0:0:
36,192,67735,128,0,67842:0:0:0:0:
402,192,67842,1,0,0:0:0:0:
182,192,67842,128,0,67950:0:0:0:0:
475,192,67950,1,0,0:0:0:0:
256,192,67950,1,0,0:0:0:0:
109,192,67950,128,0,68057:0:0:0:0:
329,192,67950,1,0,0:0:0:0:
36,192,68057,128,0,68164:0:0:0:0:
182,192,68164,128,0,68378:0:0:0:0:
475,192,68271,1,0,0:0:0:0:
256,192,68378,1,0,0:0:0:0:
36,192,68378,1,0,0:0:0:0:
329,192,68378,128,0,68485:0:0:0:0:
109,192,68485,1,0,0:0:0:0:
402,192,68485,128,0,68592:0:0:0:0:
182,192,68592,1,0,0:0:0:0:
256,192,68592,1,0,0:0:0:0:
475,192,68592,128,0,68700:0:0:0:0:
109,192,68700,1,0,0:0:0:0:
402,192,68700,128,0,68807:0:0:0:0:
36,192,68807,1,0,0:0:0:0:
256,192,68807,1,0,0:0:0:0:
329,192,68807,128,0,68914:0:0:0:0:
109,192,68914,1,0,0:0:0:0:
402,192,68914,128,0,69021:0:0:0:0:
182,192,68967,1,0,0:0:0:0:
109,192,69021,1,0,0:0:0:0:
256,192,69021,1,0,0:0:0:0:
475,192,69021,128,0,69235:0:0:0:0:
36,192,69021,1,0,0:0:0:0:
36,192,69235,128,0,69342:0:0:0:0:
329,192,69342,1,0,0:0:0:0:
256,192,69342,1,0,0:0:0:0:
109,192,69342,128,0,69450:0:0:0:0:
402,192,69450,1,0,0:0:0:0:
182,192,69450,128,0,69557:0:0:0:0:
475,192,69557,1,0,0:0:0:0:
256,192,69557,128,0,69664:0:0:0:0:
329,192,69664,1,0,0:0:0:0:
402,192,69664,1,0,0:0:0:0:
36,192,69664,128,0,69771:0:0:0:0:
109,192,69664,1,0,0:0:0:0:
182,192,69771,1,0,0:0:0:0:
256,192,69825,1,0,0:0:0:0:
329,192,69878,128,0,69985:0:0:0:0:
402,192,69985,128,0,70092:0:0:0:0:
475,192,70092,128,0,70200:0:0:0:0:
329,192,70200,128,0,70307:0:0:0:0:
256,192,70307,1,0,0:0:0:0:
475,192,70307,1,0,0:0:0:0:
402,192,70307,128,0,70414:0:0:0:0:
36,192,70307,1,0,0:0:0:0:
109,192,70307,128,0,70414:0:0:0:0:
402,192,70521,128,0,70735:0:0:0:0:
109,192,70521,128,0,70735:0:0:0:0:
36,192,70735,128,0,82628:0:0:0:0:
475,192,70735,128,0,70950:0:0:0:0:
182,192,70735,1,0,0:0:0:0:
256,192,70950,128,0,71057:0:0:0:0:
329,192,71057,128,0,71164:0:0:0:0:
402,192,71164,128,0,71271:0:0:0:0:
182,192,71271,128,0,71378:0:0:0:0:
475,192,71378,128,0,71485:0:0:0:0:
402,192,71485,128,0,71592:0:0:0:0:
329,192,71592,128,0,71646:0:0:0:0:
256,192,71646,128,0,71700:0:0:0:0:
182,192,71700,128,0,71807:0:0:0:0:
109,192,71807,128,0,71914:0:0:0:0:
329,192,71914,128,0,72021:0:0:0:0:
402,192,72021,128,0,72128:0:0:0:0:
402,192,72235,128,0,72450:0:0:0:0:
109,192,72450,1,0,0:0:0:0:
329,192,72450,1,0,0:0:0:0:
475,192,72450,128,0,72664:0:0:0:0:
182,192,72450,128,0,82628:0:0:0:0:
256,192,72664,128,0,72771:0:0:0:0:
329,192,72771,128,0,72878:0:0:0:0:
402,192,72878,128,0,72985:0:0:0:0:
256,192,72985,128,0,73092:0:0:0:0:
475,192,73092,128,0,73200:0:0:0:0:
402,192,73200,128,0,73307:0:0:0:0:
329,192,73307,128,0,73360:0:0:0:0:
256,192,73360,128,0,73414:0:0:0:0:
109,192,73414,128,0,73521:0:0:0:0:
329,192,73521,128,0,73628:0:0:0:0:
402,192,73628,128,0,73735:0:0:0:0:
475,192,73735,128,0,73842:0:0:0:0:
475,192,73950,128,0,74164:0:0:0:0:
402,192,74164,128,0,74378:0:0:0:0:
329,192,74164,128,0,82628:0:0:0:0:
109,192,74164,1,0,0:0:0:0:
256,192,74164,1,0,0:0:0:0:
109,192,74378,128,0,74485:0:0:0:0:
256,192,74485,128,0,74592:0:0:0:0:
402,192,74592,128,0,74700:0:0:0:0:
475,192,74700,128,0,74807:0:0:0:0:
109,192,74807,128,0,74914:0:0:0:0:
256,192,74914,128,0,75021:0:0:0:0:
475,192,75021,128,0,75075:0:0:0:0:
402,192,75075,128,0,75128:0:0:0:0:
256,192,75128,128,0,75235:0:0:0:0:
109,192,75235,128,0,75342:0:0:0:0:
256,192,75342,128,0,75450:0:0:0:0:
402,192,75450,128,0,75557:0:0:0:0:
402,192,75664,128,0,75878:0:0:0:0:
256,192,75878,128,0,76092:0:0:0:0:
475,192,75878,128,0,82628:0:0:0:0:
109,192,75878,1,0,0:0:0:0:
109,192,76092,128,0,76200:0:0:0:0:
256,192,76200,128,0,76307:0:0:0:0:
402,192,76307,128,0,76414:0:0:0:0:
109,192,76414,128,0,76521:0:0:0:0:
402,192,76521,128,0,76628:0:0:0:0:
256,192,76628,128,0,76735:0:0:0:0:
109,192,76735,128,0,76789:0:0:0:0:
256,192,76789,128,0,76842:0:0:0:0:
402,192,76842,128,0,76950:0:0:0:0:
109,192,76950,128,0,77057:0:0:0:0:
256,192,77057,128,0,77164:0:0:0:0:
402,192,77164,128,0,77271:0:0:0:0:
256,192,77271,128,0,77378:0:0:0:0:
109,192,77378,128,0,77485:0:0:0:0:
256,192,77485,128,0,77592:0:0:0:0:
402,192,77592,128,0,77914:0:0:0:0:
109,192,77592,1,0,0:0:0:0:
109,192,77807,128,0,77914:0:0:0:0:
256,192,77914,128,0,78021:0:0:0:0:
402,192,78021,128,0,78342:0:0:0:0:
256,192,78128,128,0,78235:0:0:0:0:
109,192,78235,128,0,78342:0:0:0:0:
256,192,78342,128,0,78396:0:0:0:0:
402,192,78450,128,0,78664:0:0:0:0:
256,192,78503,128,0,78557:0:0:0:0:
109,192,78557,128,0,78664:0:0:0:0:
256,192,78664,128,0,78771:0:0:0:0:
402,192,78771,128,0,79628:0:0:0:0:
109,192,78878,128,0,78985:0:0:0:0:
109,192,79092,128,0,79307:0:0:0:0:
256,192,79307,128,0,79521:0:0:0:0:
109,192,79521,128,0,79628:0:0:0:0:
256,192,79628,128,0,79735:0:0:0:0:
402,192,79735,128,0,80057:0:0:0:0:
256,192,79842,128,0,79950:0:0:0:0:
109,192,79950,128,0,80057:0:0:0:0:
256,192,80057,128,0,80110:0:0:0:0:
402,192,80164,128,0,80378:0:0:0:0:
256,192,80217,128,0,80271:0:0:0:0:
109,192,80271,128,0,80378:0:0:0:0:
256,192,80378,128,0,81235:0:0:0:0:
402,192,80485,128,0,81342:0:0:0:0:
109,192,80592,128,0,80700:0:0:0:0:
109,192,80807,128,0,80914:0:0:0:0:
109,192,81021,128,0,81128:0:0:0:0:
109,192,81235,128,0,81557:0:0:0:0:
256,192,81342,128,0,81450:0:0:0:0:
402,192,81450,128,0,81771:0:0:0:0:
256,192,81557,128,0,81664:0:0:0:0:
109,192,81664,128,0,81878:0:0:0:0:
256,192,81771,128,0,81825:0:0:0:0:
402,192,81878,128,0,81985:0:0:0:0:
256,192,81932,128,0,82039:0:0:0:0:
109,192,81985,128,0,82092:0:0:0:0:
402,192,82092,128,0,82200:0:0:0:0:
256,192,82146,128,0,82414:0:0:0:0:
109,192,82200,128,0,82307:0:0:0:0:
402,192,82307,128,0,82521:0:0:0:0:
109,192,82414,128,0,82735:0:0:0:0:
256,192,82521,128,0,82735:0:0:0:0:
402,192,82628,128,0,82735:0:0:0:0:
475,192,82735,128,0,83057:0:0:0:0:
329,192,82735,128,0,83057:0:0:0:0:
182,192,82735,128,0,83057:0:0:0:0:
36,192,82735,128,0,83057:0:0:0:0:
475,192,83164,128,0,84342:0:0:0:0:
329,192,83164,128,0,84342:0:0:0:0:
182,192,83164,128,0,84342:0:0:0:0:
36,192,83164,128,0,84342:0:0:0:0:
109,192,83592,1,0,0:0:0:0:
402,192,83592,1,0,0:0:0:0:
109,192,83807,1,0,0:0:0:0:
402,192,83807,1,0,0:0:0:0:
256,192,84021,1,0,0:0:0:0:
109,192,84021,128,0,84342:0:0:0:0:
402,192,84021,128,0,84342:0:0:0:0:
36,192,84450,128,0,84557:0:0:0:0:
329,192,84450,128,0,84557:0:0:0:0:
182,192,84450,1,0,0:0:0:0:
256,192,84450,1,0,0:0:0:0:
475,192,84450,1,0,0:0:0:0:
109,192,84557,128,0,84610:0:0:0:0:
402,192,84557,128,0,84610:0:0:0:0:
109,192,84664,128,0,84771:0:0:0:0:
402,192,84664,128,0,84771:0:0:0:0:
182,192,84771,128,0,84878:0:0:0:0:
475,192,84771,128,0,84878:0:0:0:0:
109,192,84878,128,0,84985:0:0:0:0:
402,192,84878,128,0,84985:0:0:0:0:
36,192,84985,128,0,85092:0:0:0:0:
329,192,84985,128,0,85092:0:0:0:0:
475,192,85092,128,0,85200:0:0:0:0:
256,192,85092,128,0,85200:0:0:0:0:
402,192,85200,128,0,85307:0:0:0:0:
182,192,85200,128,0,85307:0:0:0:0:
109,192,85307,128,0,85414:0:0:0:0:
329,192,85307,128,0,85414:0:0:0:0:
256,192,85414,128,0,85467:0:0:0:0:
36,192,85414,128,0,85467:0:0:0:0:
36,192,85521,128,0,85628:0:0:0:0:
256,192,85521,128,0,85628:0:0:0:0:
329,192,85628,128,0,85735:0:0:0:0:
475,192,85628,128,0,85735:0:0:0:0:
256,192,85735,128,0,85950:0:0:0:0:
36,192,85735,128,0,85950:0:0:0:0:
109,192,85735,1,0,0:0:0:0:
182,192,85735,1,0,0:0:0:0:
402,192,85735,1,0,0:0:0:0:
109,192,85950,128,0,86057:0:0:0:0:
329,192,85950,128,0,86057:0:0:0:0:
182,192,86057,128,0,86164:0:0:0:0:
402,192,86057,128,0,86164:0:0:0:0:
475,192,86164,128,0,86378:0:0:0:0:
256,192,86164,128,0,86378:0:0:0:0:
329,192,86164,1,0,0:0:0:0:
36,192,86164,1,0,0:0:0:0:
109,192,86164,1,0,0:0:0:0:
402,192,86378,128,0,86485:0:0:0:0:
182,192,86378,128,0,86485:0:0:0:0:
109,192,86485,128,0,86592:0:0:0:0:
329,192,86485,128,0,86592:0:0:0:0:
36,192,86592,128,0,86700:0:0:0:0:
256,192,86592,128,0,86700:0:0:0:0:
475,192,86700,128,0,86807:0:0:0:0:
182,192,86700,128,0,86807:0:0:0:0:
402,192,86807,128,0,86914:0:0:0:0:
109,192,86807,128,0,86914:0:0:0:0:
329,192,86914,128,0,87021:0:0:0:0:
36,192,86914,128,0,87021:0:0:0:0:
256,192,87021,128,0,87128:0:0:0:0:
475,192,87021,128,0,87128:0:0:0:0:
182,192,87128,128,0,87235:0:0:0:0:
36,192,87128,128,0,87235:0:0:0:0:
109,192,87235,128,0,87342:0:0:0:0:
475,192,87235,128,0,87342:0:0:0:0:
402,192,87342,128,0,87450:0:0:0:0:
256,192,87342,128,0,87450:0:0:0:0:
182,192,87450,128,0,87664:0:0:0:0:
36,192,87450,128,0,87664:0:0:0:0:
109,192,87450,1,0,0:0:0:0:
329,192,87450,1,0,0:0:0:0:
475,192,87450,1,0,0:0:0:0:
109,192,87664,128,0,87771:0:0:0:0:
329,192,87664,128,0,87771:0:0:0:0:
182,192,87771,128,0,87878:0:0:0:0:
402,192,87771,128,0,87878:0:0:0:0:
256,192,87878,128,0,88092:0:0:0:0:
475,192,87878,128,0,88092:0:0:0:0:
36,192,87878,1,0,0:0:0:0:
329,192,87878,1,0,0:0:0:0:
109,192,87878,1,0,0:0:0:0:
402,192,88092,128,0,88200:0:0:0:0:
182,192,88092,128,0,88200:0:0:0:0:
329,192,88200,128,0,88307:0:0:0:0:
109,192,88200,128,0,88307:0:0:0:0:
256,192,88307,128,0,88414:0:0:0:0:
36,192,88307,128,0,88414:0:0:0:0:
182,192,88414,128,0,88521:0:0:0:0:
475,192,88414,128,0,88521:0:0:0:0:
109,192,88521,128,0,88628:0:0:0:0:
402,192,88521,128,0,88628:0:0:0:0:
329,192,88628,128,0,88735:0:0:0:0:
36,192,88628,128,0,88735:0:0:0:0:
256,192,88735,128,0,88842:0:0:0:0:
475,192,88735,128,0,88842:0:0:0:0:
182,192,88842,128,0,88896:0:0:0:0:
402,192,88842,128,0,88896:0:0:0:0:
402,192,88950,128,0,89057:0:0:0:0:
182,192,88950,128,0,89057:0:0:0:0:
36,192,89057,128,0,89164:0:0:0:0:
329,192,89057,128,0,89164:0:0:0:0:
182,192,89164,128,0,89378:0:0:0:0:
402,192,89164,128,0,89378:0:0:0:0:
256,192,89164,1,0,0:0:0:0:
475,192,89164,1,0,0:0:0:0:
109,192,89164,1,0,0:0:0:0:
109,192,89378,128,0,89485:0:0:0:0:
329,192,89378,128,0,89485:0:0:0:0:
182,192,89485,128,0,89592:0:0:0:0:
402,192,89485,128,0,89592:0:0:0:0:
475,192,89592,128,0,89700:0:0:0:0:
256,192,89592,128,0,89646:0:0:0:0:
182,192,89646,128,0,89700:0:0:0:0:
109,192,89700,128,0,89807:0:0:0:0:
402,192,89700,128,0,89807:0:0:0:0:
36,192,89807,128,0,89914:0:0:0:0:
329,192,89807,128,0,89914:0:0:0:0:
475,192,89914,128,0,90021:0:0:0:0:
256,192,89914,128,0,90021:0:0:0:0:
402,192,90021,128,0,90128:0:0:0:0:
182,192,90021,128,0,90128:0:0:0:0:
109,192,90128,128,0,90235:0:0:0:0:
329,192,90128,128,0,90235:0:0:0:0:
36,192,90235,128,0,90342:0:0:0:0:
256,192,90235,128,0,90342:0:0:0:0:
182,192,90342,128,0,90450:0:0:0:0:
402,192,90342,128,0,90450:0:0:0:0:
329,192,90450,128,0,90557:0:0:0:0:
109,192,90450,128,0,90557:0:0:0:0:
36,192,90557,128,0,90664:0:0:0:0:
256,192,90557,128,0,90664:0:0:0:0:
109,192,90664,128,0,90771:0:0:0:0:
402,192,90664,128,0,90771:0:0:0:0:
182,192,90771,128,0,90878:0:0:0:0:
475,192,90771,128,0,90878:0:0:0:0:
36,192,90878,128,0,90985:0:0:0:0:
329,192,90878,128,0,90985:0:0:0:0:
109,192,90985,128,0,91092:0:0:0:0:
402,192,90985,128,0,91092:0:0:0:0:
182,192,91092,128,0,91200:0:0:0:0:
475,192,91092,128,0,91200:0:0:0:0:
256,192,91200,128,0,91307:0:0:0:0:
36,192,91307,128,0,91414:0:0:0:0:
329,192,91307,128,0,91414:0:0:0:0:
109,192,91414,128,0,91467:0:0:0:0:
402,192,91414,128,0,91467:0:0:0:0:
109,192,91521,128,0,91628:0:0:0:0:
402,192,91521,128,0,91628:0:0:0:0:
182,192,91628,128,0,91735:0:0:0:0:
475,192,91628,128,0,91735:0:0:0:0:
109,192,91735,128,0,91842:0:0:0:0:
402,192,91735,128,0,91842:0:0:0:0:
36,192,91842,128,0,91950:0:0:0:0:
329,192,91842,128,0,91950:0:0:0:0:
475,192,91950,128,0,92057:0:0:0:0:
256,192,91950,128,0,92057:0:0:0:0:
402,192,92057,128,0,92164:0:0:0:0:
182,192,92057,128,0,92164:0:0:0:0:
109,192,92164,128,0,92271:0:0:0:0:
329,192,92164,128,0,92271:0:0:0:0:
256,192,92271,128,0,92325:0:0:0:0:
36,192,92271,128,0,92325:0:0:0:0:
36,192,92378,128,0,92485:0:0:0:0:
256,192,92378,128,0,92485:0:0:0:0:
329,192,92485,128,0,92592:0:0:0:0:
475,192,92485,128,0,92592:0:0:0:0:
256,192,92592,128,0,92807:0:0:0:0:
36,192,92592,128,0,92807:0:0:0:0:
109,192,92592,1,0,0:0:0:0:
182,192,92592,1,0,0:0:0:0:
402,192,92592,1,0,0:0:0:0:
109,192,92807,128,0,92914:0:0:0:0:
329,192,92807,128,0,92914:0:0:0:0:
182,192,92914,128,0,93021:0:0:0:0:
402,192,92914,128,0,93021:0:0:0:0:
475,192,93021,128,0,93235:0:0:0:0:
256,192,93021,128,0,93235:0:0:0:0:
329,192,93021,1,0,0:0:0:0:
36,192,93021,1,0,0:0:0:0:
109,192,93021,1,0,0:0:0:0:
402,192,93235,128,0,93342:0:0:0:0:
182,192,93235,128,0,93342:0:0:0:0:
109,192,93342,128,0,93450:0:0:0:0:
329,192,93342,128,0,93450:0:0:0:0:
36,192,93450,128,0,93557:0:0:0:0:
256,192,93450,128,0,93557:0:0:0:0:
475,192,93557,128,0,93664:0:0:0:0:
182,192,93557,128,0,93664:0:0:0:0:
402,192,93664,128,0,93771:0:0:0:0:
109,192,93664,128,0,93771:0:0:0:0:
329,192,93771,128,0,93878:0:0:0:0:
36,192,93771,128,0,93878:0:0:0:0:
256,192,93878,128,0,93985:0:0:0:0:
475,192,93878,128,0,93985:0:0:0:0:
182,192,93985,128,0,94092:0:0:0:0:
36,192,93985,128,0,94092:0:0:0:0:
109,192,94092,128,0,94200:0:0:0:0:
475,192,94092,128,0,94200:0:0:0:0:
402,192,94200,128,0,94307:0:0:0:0:
256,192,94200,128,0,94307:0:0:0:0:
182,192,94307,128,0,94521:0:0:0:0:
36,192,94307,128,0,94521:0:0:0:0:
109,192,94307,1,0,0:0:0:0:
329,192,94307,1,0,0:0:0:0:
475,192,94307,1,0,0:0:0:0:
109,192,94521,128,0,94628:0:0:0:0:
329,192,94521,128,0,94628:0:0:0:0:
182,192,94628,128,0,94735:0:0:0:0:
402,192,94628,128,0,94735:0:0:0:0:
256,192,94735,128,0,94950:0:0:0:0:
475,192,94735,128,0,94950:0:0:0:0:
36,192,94735,1,0,0:0:0:0:
329,192,94735,1,0,0:0:0:0:
109,192,94735,1,0,0:0:0:0:
402,192,94950,128,0,95057:0:0:0:0:
182,192,94950,128,0,95057:0:0:0:0:
329,192,95057,128,0,95164:0:0:0:0:
109,192,95057,128,0,95164:0:0:0:0:
256,192,95164,128,0,95271:0:0:0:0:
36,192,95164,128,0,95271:0:0:0:0:
182,192,95271,128,0,95378:0:0:0:0:
475,192,95271,128,0,95378:0:0:0:0:
109,192,95378,128,0,95485:0:0:0:0:
402,192,95378,128,0,95485:0:0:0:0:
329,192,95485,128,0,95592:0:0:0:0:
36,192,95485,128,0,95592:0:0:0:0:
256,192,95592,128,0,95700:0:0:0:0:
475,192,95592,128,0,95700:0:0:0:0:
182,192,95700,128,0,95753:0:0:0:0:
402,192,95700,128,0,95753:0:0:0:0:
402,192,95807,128,0,95914:0:0:0:0:
182,192,95807,128,0,95914:0:0:0:0:
36,192,95914,128,0,96021:0:0:0:0:
329,192,95914,128,0,96021:0:0:0:0:
182,192,96021,128,0,96235:0:0:0:0:
402,192,96021,128,0,96235:0:0:0:0:
256,192,96021,1,0,0:0:0:0:
475,192,96021,1,0,0:0:0:0:
109,192,96021,1,0,0:0:0:0:
109,192,96235,128,0,96342:0:0:0:0:
329,192,96235,128,0,96342:0:0:0:0:
182,192,96342,128,0,96450:0:0:0:0:
402,192,96342,128,0,96450:0:0:0:0:
475,192,96450,128,0,97735:0:0:0:0:
36,192,96450,128,0,97735:0:0:0:0:
329,192,96450,1,0,0:0:0:0:
256,192,96450,1,0,0:0:0:0:
109,192,96878,1,0,0:0:0:0:
182,192,96878,128,0,97735:0:0:0:0:
329,192,96878,128,0,97735:0:0:0:0:
402,192,96878,1,0,0:0:0:0:
109,192,97735,128,0,98164:0:0:0:0:
256,192,97735,128,0,98164:0:0:0:0:
402,192,97735,128,0,98164:0:0:0:0:
182,192,98164,1,0,0:0:0:0:
475,192,98164,128,0,98378:0:0:0:0:
36,192,98164,128,0,98378:0:0:0:0:
329,192,98164,128,0,98378:0:0:0:0:
182,192,98378,128,0,98485:0:0:0:0:
475,192,98485,1,0,0:0:0:0:
256,192,98485,1,0,0:0:0:0:
109,192,98485,128,0,98592:0:0:0:0:
402,192,98592,1,0,0:0:0:0:
36,192,98592,128,0,98700:0:0:0:0:
329,192,98700,1,0,0:0:0:0:
182,192,98700,128,0,98807:0:0:0:0:
475,192,98807,1,0,0:0:0:0:
256,192,98807,1,0,0:0:0:0:
109,192,98807,128,0,98914:0:0:0:0:
402,192,98807,1,0,0:0:0:0:
36,192,98914,128,0,99021:0:0:0:0:
182,192,99021,128,0,99235:0:0:0:0:
475,192,99128,1,0,0:0:0:0:
256,192,99235,1,0,0:0:0:0:
36,192,99235,1,0,0:0:0:0:
329,192,99235,128,0,99342:0:0:0:0:
109,192,99342,1,0,0:0:0:0:
402,192,99342,128,0,99450:0:0:0:0:
182,192,99450,1,0,0:0:0:0:
256,192,99450,1,0,0:0:0:0:
475,192,99450,128,0,99557:0:0:0:0:
109,192,99557,1,0,0:0:0:0:
402,192,99557,128,0,99664:0:0:0:0:
36,192,99664,1,0,0:0:0:0:
256,192,99664,1,0,0:0:0:0:
329,192,99664,128,0,99771:0:0:0:0:
109,192,99771,1,0,0:0:0:0:
402,192,99771,128,0,99878:0:0:0:0:
182,192,99825,1,0,0:0:0:0:
109,192,99878,1,0,0:0:0:0:
256,192,99878,1,0,0:0:0:0:
475,192,99878,128,0,100092:0:0:0:0:
36,192,99878,1,0,0:0:0:0:
36,192,100092,128,0,100200:0:0:0:0:
329,192,100200,1,0,0:0:0:0:
256,192,100200,1,0,0:0:0:0:
109,192,100200,128,0,100307:0:0:0:0:
402,192,100307,1,0,0:0:0:0:
182,192,100307,128,0,100414:0:0:0:0:
475,192,100414,1,0,0:0:0:0:
256,192,100414,128,0,100521:0:0:0:0:
329,192,100521,1,0,0:0:0:0:
402,192,100521,1,0,0:0:0:0:
36,192,100521,128,0,100628:0:0:0:0:
109,192,100521,1,0,0:0:0:0:
182,192,100628,1,0,0:0:0:0:
256,192,100682,1,0,0:0:0:0:
329,192,100735,128,0,100842:0:0:0:0:
402,192,100842,128,0,100950:0:0:0:0:
475,192,100950,128,0,101057:0:0:0:0:
329,192,101057,128,0,101164:0:0:0:0:
36,192,101164,1,0,0:0:0:0:
182,192,101164,1,0,0:0:0:0:
109,192,101164,128,0,101271:0:0:0:0:
402,192,101164,128,0,101271:0:0:0:0:
475,192,101164,1,0,0:0:0:0:
109,192,101378,128,0,101592:0:0:0:0:
402,192,101378,128,0,101592:0:0:0:0:
182,192,101592,1,0,0:0:0:0:
475,192,101592,128,0,101807:0:0:0:0:
329,192,101592,1,0,0:0:0:0:
36,192,101592,1,0,0:0:0:0:
182,192,101807,128,0,101914:0:0:0:0:
109,192,101914,128,0,102021:0:0:0:0:
256,192,101914,1,0,0:0:0:0:
329,192,101914,1,0,0:0:0:0:
36,192,102021,128,0,102128:0:0:0:0:
475,192,102021,1,0,0:0:0:0:
182,192,102128,128,0,102235:0:0:0:0:
402,192,102128,1,0,0:0:0:0:
109,192,102235,128,0,102342:0:0:0:0:
329,192,102235,1,0,0:0:0:0:
475,192,102235,1,0,0:0:0:0:
256,192,102235,1,0,0:0:0:0:
36,192,102342,128,0,102450:0:0:0:0:
182,192,102450,128,0,102664:0:0:0:0:
475,192,102557,1,0,0:0:0:0:
329,192,102664,128,0,102771:0:0:0:0:
36,192,102664,1,0,0:0:0:0:
256,192,102664,1,0,0:0:0:0:
402,192,102771,128,0,102878:0:0:0:0:
109,192,102771,1,0,0:0:0:0:
475,192,102878,128,0,102985:0:0:0:0:
256,192,102878,1,0,0:0:0:0:
182,192,102878,1,0,0:0:0:0:
402,192,102985,128,0,103092:0:0:0:0:
109,192,102985,1,0,0:0:0:0:
329,192,103092,128,0,103200:0:0:0:0:
256,192,103092,1,0,0:0:0:0:
36,192,103092,1,0,0:0:0:0:
402,192,103200,128,0,103307:0:0:0:0:
109,192,103200,1,0,0:0:0:0:
182,192,103253,1,0,0:0:0:0:
475,192,103307,128,0,103521:0:0:0:0:
36,192,103307,1,0,0:0:0:0:
109,192,103307,1,0,0:0:0:0:
256,192,103307,1,0,0:0:0:0:
36,192,103521,128,0,103628:0:0:0:0:
109,192,103628,128,0,103735:0:0:0:0:
256,192,103628,1,0,0:0:0:0:
329,192,103628,1,0,0:0:0:0:
182,192,103735,128,0,103842:0:0:0:0:
402,192,103735,1,0,0:0:0:0:
256,192,103842,128,0,103950:0:0:0:0:
475,192,103842,1,0,0:0:0:0:
36,192,103950,128,0,104057:0:0:0:0:
109,192,103950,1,0,0:0:0:0:
329,192,103950,1,0,0:0:0:0:
402,192,103950,1,0,0:0:0:0:
182,192,104057,1,0,0:0:0:0:
256,192,104110,1,0,0:0:0:0:
329,192,104164,128,0,104271:0:0:0:0:
402,192,104271,128,0,104378:0:0:0:0:
475,192,104378,128,0,104485:0:0:0:0:
329,192,104485,128,0,104592:0:0:0:0:
36,192,104592,1,0,0:0:0:0:
109,192,104592,128,0,104700:0:0:0:0:
402,192,104592,128,0,104700:0:0:0:0:
256,192,104592,1,0,0:0:0:0:
475,192,104592,1,0,0:0:0:0:
109,192,104807,128,0,105021:0:0:0:0:
402,192,104807,128,0,105021:0:0:0:0:
329,192,105021,1,0,0:0:0:0:
475,192,105021,128,0,105235:0:0:0:0:
182,192,105021,1,0,0:0:0:0:
36,192,105021,1,0,0:0:0:0:
182,192,105235,128,0,105342:0:0:0:0:
329,192,105342,1,0,0:0:0:0:
256,192,105342,1,0,0:0:0:0:
109,192,105342,128,0,105450:0:0:0:0:
475,192,105450,1,0,0:0:0:0:
36,192,105450,128,0,105557:0:0:0:0:
402,192,105557,1,0,0:0:0:0:
182,192,105557,128,0,105664:0:0:0:0:
475,192,105664,1,0,0:0:0:0:
256,192,105664,1,0,0:0:0:0:
109,192,105664,128,0,105771:0:0:0:0:
329,192,105664,1,0,0:0:0:0:
36,192,105771,128,0,105878:0:0:0:0:
182,192,105878,128,0,106092:0:0:0:0:
475,192,105985,1,0,0:0:0:0:
256,192,106092,1,0,0:0:0:0:
36,192,106092,1,0,0:0:0:0:
329,192,106092,128,0,106200:0:0:0:0:
109,192,106200,1,0,0:0:0:0:
402,192,106200,128,0,106307:0:0:0:0:
182,192,106307,1,0,0:0:0:0:
256,192,106307,1,0,0:0:0:0:
475,192,106307,128,0,106414:0:0:0:0:
109,192,106414,1,0,0:0:0:0:
402,192,106414,128,0,106521:0:0:0:0:
36,192,106521,1,0,0:0:0:0:
256,192,106521,1,0,0:0:0:0:
329,192,106521,128,0,106628:0:0:0:0:
109,192,106628,1,0,0:0:0:0:
402,192,106628,128,0,106735:0:0:0:0:
182,192,106682,1,0,0:0:0:0:
109,192,106735,1,0,0:0:0:0:
256,192,106735,1,0,0:0:0:0:
475,192,106735,128,0,106950:0:0:0:0:
36,192,106735,1,0,0:0:0:0:
36,192,106950,128,0,107057:0:0:0:0:
329,192,107057,1,0,0:0:0:0:
256,192,107057,1,0,0:0:0:0:
109,192,107057,128,0,107164:0:0:0:0:
402,192,107164,1,0,0:0:0:0:
182,192,107164,128,0,107271:0:0:0:0:
475,192,107271,1,0,0:0:0:0:
256,192,107271,128,0,107378:0:0:0:0:
329,192,107378,1,0,0:0:0:0:
402,192,107378,1,0,0:0:0:0:
36,192,107378,128,0,107485:0:0:0:0:
109,192,107378,1,0,0:0:0:0:
182,192,107485,1,0,0:0:0:0:
256,192,107539,1,0,0:0:0:0:
329,192,107592,128,0,107700:0:0:0:0:
402,192,107700,128,0,107807:0:0:0:0:
475,192,107807,128,0,107914:0:0:0:0:
329,192,107914,128,0,108021:0:0:0:0:
475,192,108021,1,0,0:0:0:0:
109,192,108021,128,0,108128:0:0:0:0:
256,192,108021,1,0,0:0:0:0:
402,192,108021,128,0,108128:0:0:0:0:
36,192,108021,1,0,0:0:0:0:
109,192,108235,128,0,108450:0:0:0:0:
402,192,108235,128,0,108450:0:0:0:0:
182,192,108450,1,0,0:0:0:0:
475,192,108450,128,0,108664:0:0:0:0:
329,192,108450,1,0,0:0:0:0:
36,192,108450,1,0,0:0:0:0:
182,192,108664,128,0,108771:0:0:0:0:
109,192,108771,128,0,108878:0:0:0:0:
256,192,108771,1,0,0:0:0:0:
329,192,108771,1,0,0:0:0:0:
36,192,108878,128,0,108985:0:0:0:0:
475,192,108878,1,0,0:0:0:0:
182,192,108985,128,0,109092:0:0:0:0:
402,192,108985,1,0,0:0:0:0:
109,192,109092,128,0,109200:0:0:0:0:
329,192,109092,1,0,0:0:0:0:
475,192,109092,1,0,0:0:0:0:
256,192,109092,1,0,0:0:0:0:
36,192,109200,128,0,109307:0:0:0:0:
182,192,109307,128,0,109521:0:0:0:0:
475,192,109414,1,0,0:0:0:0:
329,192,109521,128,0,109628:0:0:0:0:
36,192,109521,1,0,0:0:0:0:
256,192,109521,1,0,0:0:0:0:
402,192,109628,128,0,109735:0:0:0:0:
109,192,109628,1,0,0:0:0:0:
475,192,109735,128,0,109842:0:0:0:0:
256,192,109735,1,0,0:0:0:0:
182,192,109735,1,0,0:0:0:0:
402,192,109842,128,0,109950:0:0:0:0:
109,192,109842,1,0,0:0:0:0:
329,192,109950,128,0,110057:0:0:0:0:
256,192,109950,1,0,0:0:0:0:
36,192,109950,1,0,0:0:0:0:
402,192,110057,128,0,110164:0:0:0:0:
109,192,110057,1,0,0:0:0:0:
182,192,110110,1,0,0:0:0:0:
475,192,110164,128,0,110378:0:0:0:0:
36,192,110164,1,0,0:0:0:0:
109,192,110164,1,0,0:0:0:0:
256,192,110164,1,0,0:0:0:0:
36,192,110378,128,0,110485:0:0:0:0:
109,192,110485,128,0,110592:0:0:0:0:
256,192,110485,1,0,0:0:0:0:
329,192,110485,1,0,0:0:0:0:
182,192,110592,128,0,110700:0:0:0:0:
402,192,110592,1,0,0:0:0:0:
256,192,110700,128,0,110807:0:0:0:0:
475,192,110700,1,0,0:0:0:0:
36,192,110807,128,0,110914:0:0:0:0:
109,192,110807,1,0,0:0:0:0:
329,192,110807,1,0,0:0:0:0:
402,192,110807,1,0,0:0:0:0:
182,192,110914,1,0,0:0:0:0:
256,192,110967,1,0,0:0:0:0:
329,192,111021,128,0,111128:0:0:0:0:
402,192,111128,128,0,111235:0:0:0:0:
475,192,111235,128,0,111342:0:0:0:0:
329,192,111342,128,0,111450:0:0:0:0:
36,192,111450,1,0,0:0:0:0:
109,192,111450,128,0,111557:0:0:0:0:
402,192,111450,128,0,111557:0:0:0:0:
256,192,111450,1,0,0:0:0:0:
475,192,111450,1,0,0:0:0:0:
109,192,111664,128,0,111878:0:0:0:0:
402,192,111664,128,0,111878:0:0:0:0:
36,192,111878,128,0,123771:0:0:0:0:
475,192,111878,128,0,112092:0:0:0:0:
182,192,111878,1,0,0:0:0:0:
256,192,112092,128,0,112200:0:0:0:0:
329,192,112200,128,0,112307:0:0:0:0:
402,192,112307,128,0,112414:0:0:0:0:
182,192,112414,128,0,112521:0:0:0:0:
475,192,112521,128,0,112628:0:0:0:0:
402,192,112628,128,0,112735:0:0:0:0:
329,192,112735,128,0,112789:0:0:0:0:
256,192,112789,128,0,112842:0:0:0:0:
182,192,112842,128,0,112950:0:0:0:0:
109,192,112950,128,0,113057:0:0:0:0:
329,192,113057,128,0,113164:0:0:0:0:
402,192,113164,128,0,113271:0:0:0:0:
402,192,113378,128,0,113592:0:0:0:0:
109,192,113592,1,0,0:0:0:0:
329,192,113592,1,0,0:0:0:0:
475,192,113592,128,0,113807:0:0:0:0:
182,192,113592,128,0,123771:0:0:0:0:
256,192,113807,128,0,113914:0:0:0:0:
329,192,113914,128,0,114021:0:0:0:0:
402,192,114021,128,0,114128:0:0:0:0:
256,192,114128,128,0,114235:0:0:0:0:
475,192,114235,128,0,114342:0:0:0:0:
402,192,114342,128,0,114450:0:0:0:0:
329,192,114450,128,0,114503:0:0:0:0:
256,192,114503,128,0,114557:0:0:0:0:
109,192,114557,128,0,114664:0:0:0:0:
329,192,114664,128,0,114771:0:0:0:0:
402,192,114771,128,0,114878:0:0:0:0:
475,192,114878,128,0,114985:0:0:0:0:
475,192,115092,128,0,115307:0:0:0:0:
402,192,115307,128,0,115521:0:0:0:0:
329,192,115307,128,0,123771:0:0:0:0:
109,192,115307,1,0,0:0:0:0:
256,192,115307,1,0,0:0:0:0:
109,192,115521,128,0,115628:0:0:0:0:
256,192,115628,128,0,115735:0:0:0:0:
402,192,115735,128,0,115842:0:0:0:0:
475,192,115842,128,0,115950:0:0:0:0:
109,192,115950,128,0,116057:0:0:0:0:
256,192,116057,128,0,116164:0:0:0:0:
475,192,116164,128,0,116217:0:0:0:0:
402,192,116217,128,0,116271:0:0:0:0:
256,192,116271,128,0,116378:0:0:0:0:
109,192,116378,128,0,116485:0:0:0:0:
256,192,116485,128,0,116592:0:0:0:0:
402,192,116592,128,0,116700:0:0:0:0:
402,192,116807,128,0,117021:0:0:0:0:
256,192,117021,128,0,117235:0:0:0:0:
475,192,117021,128,0,123771:0:0:0:0:
109,192,117021,1,0,0:0:0:0:
109,192,117235,128,0,117342:0:0:0:0:
256,192,117342,128,0,117450:0:0:0:0:
402,192,117450,128,0,117557:0:0:0:0:
109,192,117557,128,0,117664:0:0:0:0:
402,192,117664,128,0,117771:0:0:0:0:
256,192,117771,128,0,117878:0:0:0:0:
109,192,117878,128,0,117932:0:0:0:0:
256,192,117932,128,0,117985:0:0:0:0:
402,192,117985,128,0,118092:0:0:0:0:
109,192,118092,128,0,118200:0:0:0:0:
256,192,118200,128,0,118307:0:0:0:0:
402,192,118307,128,0,118414:0:0:0:0:
256,192,118414,128,0,118521:0:0:0:0:
109,192,118521,128,0,118628:0:0:0:0:
256,192,118628,128,0,118735:0:0:0:0:
402,192,118735,128,0,119057:0:0:0:0:
109,192,118735,1,0,0:0:0:0:
109,192,118950,128,0,119057:0:0:0:0:
256,192,119057,128,0,119164:0:0:0:0:
402,192,119164,128,0,119485:0:0:0:0:
256,192,119271,128,0,119378:0:0:0:0:
109,192,119378,128,0,119485:0:0:0:0:
256,192,119485,128,0,119539:0:0:0:0:
402,192,119592,128,0,119807:0:0:0:0:
256,192,119646,128,0,119700:0:0:0:0:
109,192,119700,128,0,119807:0:0:0:0:
256,192,119807,128,0,119914:0:0:0:0:
402,192,119914,128,0,120771:0:0:0:0:
109,192,120021,128,0,120128:0:0:0:0:
109,192,120235,128,0,120450:0:0:0:0:
256,192,120450,128,0,120664:0:0:0:0:
109,192,120664,128,0,120771:0:0:0:0:
256,192,120771,128,0,120878:0:0:0:0:
402,192,120878,128,0,121200:0:0:0:0:
256,192,120985,128,0,121092:0:0:0:0:
109,192,121092,128,0,121200:0:0:0:0:
256,192,121200,128,0,121253:0:0:0:0:
402,192,121307,128,0,121521:0:0:0:0:
256,192,121360,128,0,121414:0:0:0:0:
109,192,121414,128,0,121521:0:0:0:0:
256,192,121521,128,0,122378:0:0:0:0:
402,192,121628,128,0,122485:0:0:0:0:
109,192,121735,128,0,121842:0:0:0:0:
109,192,121950,128,0,122057:0:0:0:0:
109,192,122164,128,0,122271:0:0:0:0:
109,192,122378,128,0,122700:0:0:0:0:
256,192,122485,128,0,122592:0:0:0:0:
402,192,122592,128,0,122914:0:0:0:0:
256,192,122700,128,0,122807:0:0:0:0:
109,192,122807,128,0,123021:0:0:0:0:
256,192,122914,128,0,122967:0:0:0:0:
402,192,123021,128,0,123128:0:0:0:0:
256,192,123075,128,0,123182:0:0:0:0:
109,192,123128,128,0,123235:0:0:0:0:
402,192,123235,128,0,123342:0:0:0:0:
256,192,123289,128,0,123557:0:0:0:0:
109,192,123342,128,0,123450:0:0:0:0:
402,192,123450,128,0,123664:0:0:0:0:
109,192,123557,128,0,123878:0:0:0:0:
256,192,123664,128,0,123878:0:0:0:0:
402,192,123771,128,0,123878:0:0:0:0:
475,192,123878,128,0,124200:0:0:0:0:
329,192,123878,128,0,124200:0:0:0:0:
182,192,123878,128,0,124200:0:0:0:0:
36,192,123878,128,0,124200:0:0:0:0:
475,192,124307,128,0,125485:0:0:0:0:
329,192,124307,128,0,125485:0:0:0:0:
182,192,124307,128,0,125485:0:0:0:0:
36,192,124307,128,0,125485:0:0:0:0:
109,192,124735,1,0,0:0:0:0:
402,192,124735,1,0,0:0:0:0:
109,192,124950,1,0,0:0:0:0:
402,192,124950,1,0,0:0:0:0:
256,192,125164,1,0,0:0:0:0:
109,192,125164,128,0,125485:0:0:0:0:
402,192,125164,128,0,125485:0:0:0:0:
36,192,125592,128,0,127307:0:0:0:0:
182,192,125592,128,0,125914:0:0:0:0:
256,192,125592,1,0,0:0:0:0:
402,192,125592,1,0,0:0:0:0:
475,192,125592,1,0,0:0:0:0:
109,192,125914,128,0,126450:0:0:0:0:
329,192,125914,1,0,0:0:0:0:
402,192,125914,1,0,0:0:0:0:
475,192,125914,1,0,0:0:0:0:
256,192,126235,1,0,0:0:0:0:
402,192,126235,1,0,0:0:0:0:
475,192,126235,1,0,0:0:0:0:
182,192,126450,128,0,126771:0:0:0:0:
256,192,126557,1,0,0:0:0:0:
402,192,126557,1,0,0:0:0:0:
475,192,126557,1,0,0:0:0:0:
109,192,126771,128,0,127307:0:0:0:0:
256,192,126878,1,0,0:0:0:0:
402,192,126878,1,0,0:0:0:0:
475,192,126878,1,0,0:0:0:0:
475,192,127307,128,0,129021:0:0:0:0:
182,192,127307,128,0,127628:0:0:0:0:
256,192,127307,1,0,0:0:0:0:
329,192,127307,1,0,0:0:0:0:
402,192,127307,1,0,0:0:0:0:
36,192,127628,128,0,129021:0:0:0:0:
109,192,127628,1,0,0:0:0:0:
256,192,127628,1,0,0:0:0:0:
402,192,127628,1,0,0:0:0:0:
109,192,127950,128,0,129021:0:0:0:0:
256,192,127950,1,0,0:0:0:0:
329,192,127950,1,0,0:0:0:0:
402,192,127950,1,0,0:0:0:0:
182,192,128592,128,0,129021:0:0:0:0:
256,192,128592,1,0,0:0:0:0:
329,192,128592,1,0,0:0:0:0:
402,192,128592,1,0,0:0:0:0:
402,192,129021,128,0,130735:0:0:0:0:
329,192,129021,128,0,129342:0:0:0:0:
256,192,129021,1,0,0:0:0:0:
475,192,129342,128,0,129878:0:0:0:0:
36,192,129342,1,0,0:0:0:0:
109,192,129342,1,0,0:0:0:0:
256,192,129342,1,0,0:0:0:0:
36,192,129664,1,0,0:0:0:0:
109,192,129664,1,0,0:0:0:0:
182,192,129664,1,0,0:0:0:0:
329,192,129878,128,0,130200:0:0:0:0:
36,192,129985,1,0,0:0:0:0:
109,192,129985,1,0,0:0:0:0:
182,192,129985,1,0,0:0:0:0:
475,192,130200,128,0,130735:0:0:0:0:
36,192,130307,1,0,0:0:0:0:
182,192,130307,1,0,0:0:0:0:
109,192,130307,1,0,0:0:0:0:
109,192,130735,128,0,132450:0:0:0:0:
182,192,130735,128,0,131057:0:0:0:0:
36,192,130735,1,0,0:0:0:0:
256,192,130735,1,0,0:0:0:0:
329,192,130735,1,0,0:0:0:0:
475,192,131057,128,0,132450:0:0:0:0:
36,192,131057,1,0,0:0:0:0:
256,192,131057,1,0,0:0:0:0:
329,192,131057,1,0,0:0:0:0:
402,192,131378,128,0,132450:0:0:0:0:
36,192,131378,1,0,0:0:0:0:
182,192,131378,1,0,0:0:0:0:
329,192,131378,1,0,0:0:0:0:
36,192,131700,1,0,0:0:0:0:
182,192,131700,1,0,0:0:0:0:
256,192,131700,1,0,0:0:0:0:
329,192,132021,128,0,132450:0:0:0:0:
36,192,132021,1,0,0:0:0:0:
182,192,132021,1,0,0:0:0:0:
256,192,132021,1,0,0:0:0:0:
256,192,132450,1,0,0:0:0:0:
36,192,132450,128,0,134164:0:0:0:0:
182,192,132450,128,0,132771:0:0:0:0:
402,192,132771,1,0,0:0:0:0:
475,192,132771,1,0,0:0:0:0:
109,192,132771,128,0,133307:0:0:0:0:
329,192,132771,1,0,0:0:0:0:
475,192,133092,1,0,0:0:0:0:
402,192,133092,1,0,0:0:0:0:
256,192,133092,1,0,0:0:0:0:
182,192,133307,128,0,133628:0:0:0:0:
475,192,133414,1,0,0:0:0:0:
402,192,133414,1,0,0:0:0:0:
256,192,133414,1,0,0:0:0:0:
109,192,133628,128,0,134164:0:0:0:0:
475,192,133735,1,0,0:0:0:0:
402,192,133735,1,0,0:0:0:0:
256,192,133735,1,0,0:0:0:0:
329,192,134164,1,0,0:0:0:0:
402,192,134164,1,0,0:0:0:0:
256,192,134164,1,0,0:0:0:0:
475,192,134164,128,0,135878:0:0:0:0:
182,192,134164,128,0,134485:0:0:0:0:
256,192,134485,1,0,0:0:0:0:
402,192,134485,1,0,0:0:0:0:
36,192,134485,128,0,135878:0:0:0:0:
109,192,134485,1,0,0:0:0:0:
329,192,134807,1,0,0:0:0:0:
402,192,134807,1,0,0:0:0:0:
109,192,134807,128,0,135878:0:0:0:0:
256,192,134807,1,0,0:0:0:0:
329,192,135450,1,0,0:0:0:0:
402,192,135450,1,0,0:0:0:0:
182,192,135450,128,0,135878:0:0:0:0:
256,192,135450,1,0,0:0:0:0:
256,192,135878,1,0,0:0:0:0:
329,192,135878,128,0,136200:0:0:0:0:
402,192,135878,128,0,137592:0:0:0:0:
109,192,136200,1,0,0:0:0:0:
256,192,136200,1,0,0:0:0:0:
475,192,136200,128,0,136735:0:0:0:0:
36,192,136200,1,0,0:0:0:0:
182,192,136521,1,0,0:0:0:0:
109,192,136521,1,0,0:0:0:0:
36,192,136521,1,0,0:0:0:0:
329,192,136735,128,0,137057:0:0:0:0:
182,192,136842,1,0,0:0:0:0:
109,192,136842,1,0,0:0:0:0:
36,192,136842,1,0,0:0:0:0:
475,192,137057,128,0,137592:0:0:0:0:
109,192,137164,1,0,0:0:0:0:
182,192,137164,1,0,0:0:0:0:
36,192,137164,1,0,0:0:0:0:
256,192,137592,1,0,0:0:0:0:
329,192,137592,1,0,0:0:0:0:
36,192,137592,1,0,0:0:0:0:
109,192,137592,128,0,139307:0:0:0:0:
182,192,137592,128,0,137914:0:0:0:0:
256,192,137914,1,0,0:0:0:0:
329,192,137914,1,0,0:0:0:0:
475,192,137914,128,0,139307:0:0:0:0:
36,192,137914,1,0,0:0:0:0:
182,192,138235,1,0,0:0:0:0:
329,192,138235,1,0,0:0:0:0:
402,192,138235,128,0,139307:0:0:0:0:
36,192,138235,1,0,0:0:0:0:
256,192,138557,1,0,0:0:0:0:
182,192,138557,1,0,0:0:0:0:
36,192,138557,1,0,0:0:0:0:
182,192,138878,1,0,0:0:0:0:
256,192,138878,1,0,0:0:0:0:
329,192,138878,128,0,139307:0:0:0:0:
36,192,138878,1,0,0:0:0:0:
36,192,139307,128,0,139521:0:0:0:0:
182,192,139307,1,0,0:0:0:0:
256,192,139307,1,0,0:0:0:0:
256,192,139521,128,0,139628:0:0:0:0:
36,192,139628,128,0,139735:0:0:0:0:
475,192,139628,1,0,0:0:0:0:
402,192,139628,1,0,0:0:0:0:
329,192,139628,1,0,0:0:0:0:
109,192,139735,128,0,139842:0:0:0:0:
182,192,139842,128,0,139950:0:0:0:0:
256,192,139950,128,0,140057:0:0:0:0:
36,192,139950,1,0,0:0:0:0:
402,192,139950,1,0,0:0:0:0:
475,192,139950,1,0,0:0:0:0:
329,192,140057,128,0,140164:0:0:0:0:
475,192,140164,128,0,140271:0:0:0:0:
402,192,140271,128,0,140378:0:0:0:0:
109,192,140271,1,0,0:0:0:0:
36,192,140271,1,0,0:0:0:0:
182,192,140271,1,0,0:0:0:0:
329,192,140378,128,0,140485:0:0:0:0:
256,192,140485,128,0,140592:0:0:0:0:
475,192,140566,1,0,0:0:0:0:
402,192,140592,128,0,141021:0:0:0:0:
36,192,140592,1,0,0:0:0:0:
109,192,140592,1,0,0:0:0:0:
182,192,140592,1,0,0:0:0:0:
109,192,140807,128,0,141021:0:0:0:0:
475,192,141021,1,0,0:0:0:0:
182,192,141021,1,0,0:0:0:0:
36,192,141021,128,0,141235:0:0:0:0:
256,192,141235,128,0,141342:0:0:0:0:
402,192,141342,1,0,0:0:0:0:
329,192,141342,1,0,0:0:0:0:
36,192,141342,128,0,141450:0:0:0:0:
475,192,141342,1,0,0:0:0:0:
109,192,141450,128,0,141557:0:0:0:0:
182,192,141557,128,0,141664:0:0:0:0:
402,192,141664,1,0,0:0:0:0:
475,192,141664,1,0,0:0:0:0:
256,192,141664,128,0,141771:0:0:0:0:
36,192,141664,1,0,0:0:0:0:
329,192,141771,128,0,141878:0:0:0:0:
475,192,141878,128,0,141985:0:0:0:0:
36,192,141985,1,0,0:0:0:0:
182,192,141985,1,0,0:0:0:0:
402,192,141985,128,0,142092:0:0:0:0:
109,192,141985,1,0,0:0:0:0:
329,192,142092,128,0,142200:0:0:0:0:
256,192,142200,128,0,142307:0:0:0:0:
475,192,142280,1,0,0:0:0:0:
109,192,142307,1,0,0:0:0:0:
182,192,142307,1,0,0:0:0:0:
402,192,142307,128,0,142735:0:0:0:0:
36,192,142307,1,0,0:0:0:0:
109,192,142521,128,0,142735:0:0:0:0:
36,192,142735,128,0,142950:0:0:0:0:
182,192,142735,1,0,0:0:0:0:
475,192,142735,1,0,0:0:0:0:
256,192,142950,128,0,143057:0:0:0:0:
36,192,143057,128,0,143164:0:0:0:0:
475,192,143057,1,0,0:0:0:0:
402,192,143057,1,0,0:0:0:0:
329,192,143057,1,0,0:0:0:0:
109,192,143164,128,0,143271:0:0:0:0:
182,192,143271,128,0,143378:0:0:0:0:
256,192,143378,128,0,143485:0:0:0:0:
36,192,143378,1,0,0:0:0:0:
402,192,143378,1,0,0:0:0:0:
475,192,143378,1,0,0:0:0:0:
329,192,143485,128,0,143592:0:0:0:0:
475,192,143592,128,0,143700:0:0:0:0:
402,192,143700,128,0,143807:0:0:0:0:
109,192,143700,1,0,0:0:0:0:
36,192,143700,1,0,0:0:0:0:
182,192,143700,1,0,0:0:0:0:
329,192,143807,128,0,143914:0:0:0:0:
256,192,143914,128,0,144021:0:0:0:0:
475,192,143994,1,0,0:0:0:0:
402,192,144021,128,0,144450:0:0:0:0:
36,192,144021,1,0,0:0:0:0:
109,192,144021,1,0,0:0:0:0:
182,192,144021,1,0,0:0:0:0:
109,192,144235,128,0,144450:0:0:0:0:
475,192,144450,1,0,0:0:0:0:
182,192,144450,1,0,0:0:0:0:
36,192,144450,128,0,144664:0:0:0:0:
256,192,144664,128,0,144771:0:0:0:0:
402,192,144771,1,0,0:0:0:0:
329,192,144771,1,0,0:0:0:0:
36,192,144771,128,0,144878:0:0:0:0:
475,192,144771,1,0,0:0:0:0:
109,192,144878,128,0,144985:0:0:0:0:
182,192,144985,128,0,145092:0:0:0:0:
402,192,145092,1,0,0:0:0:0:
475,192,145092,1,0,0:0:0:0:
256,192,145092,128,0,145200:0:0:0:0:
36,192,145092,1,0,0:0:0:0:
329,192,145200,128,0,145307:0:0:0:0:
475,192,145307,128,0,145414:0:0:0:0:
36,192,145414,1,0,0:0:0:0:
182,192,145414,1,0,0:0:0:0:
402,192,145414,128,0,145521:0:0:0:0:
109,192,145414,1,0,0:0:0:0:
329,192,145521,128,0,145628:0:0:0:0:
256,192,145628,128,0,145735:0:0:0:0:
475,192,145708,1,0,0:0:0:0:
109,192,145735,1,0,0:0:0:0:
36,192,145735,1,0,0:0:0:0:
182,192,145735,128,0,146164:0:0:0:0:
402,192,145950,128,0,146164:0:0:0:0:
256,192,146164,1,0,0:0:0:0:
475,192,146164,128,0,146378:0:0:0:0:
329,192,146164,1,0,0:0:0:0:
256,192,146378,128,0,146485:0:0:0:0:
109,192,146485,1,0,0:0:0:0:
36,192,146485,1,0,0:0:0:0:
182,192,146485,1,0,0:0:0:0:
475,192,146485,128,0,146592:0:0:0:0:
402,192,146592,128,0,146700:0:0:0:0:
329,192,146700,128,0,146807:0:0:0:0:
109,192,146807,1,0,0:0:0:0:
475,192,146807,1,0,0:0:0:0:
36,192,146807,1,0,0:0:0:0:
256,192,146807,128,0,146914:0:0:0:0:
182,192,146914,128,0,147021:0:0:0:0:
36,192,147021,128,0,147128:0:0:0:0:
402,192,147128,1,0,0:0:0:0:
109,192,147128,128,0,147235:0:0:0:0:
329,192,147128,1,0,0:0:0:0:
475,192,147128,1,0,0:0:0:0:
182,192,147235,128,0,147342:0:0:0:0:
256,192,147342,128,0,147450:0:0:0:0:
36,192,147423,1,0,0:0:0:0:
475,192,147450,1,0,0:0:0:0:
109,192,147450,128,0,147878:0:0:0:0:
402,192,147450,1,0,0:0:0:0:
329,192,147450,1,0,0:0:0:0:
402,192,147664,128,0,147878:0:0:0:0:
329,192,147878,1,0,0:0:0:0:
36,192,147878,1,0,0:0:0:0:
475,192,147878,128,0,148092:0:0:0:0:
256,192,148092,128,0,148200:0:0:0:0:
475,192,148200,128,0,148307:0:0:0:0:
109,192,148200,1,0,0:0:0:0:
36,192,148200,1,0,0:0:0:0:
182,192,148200,1,0,0:0:0:0:
402,192,148307,128,0,148414:0:0:0:0:
329,192,148414,128,0,148521:0:0:0:0:
36,192,148521,1,0,0:0:0:0:
475,192,148521,1,0,0:0:0:0:
256,192,148521,128,0,148628:0:0:0:0:
109,192,148521,1,0,0:0:0:0:
182,192,148628,128,0,148735:0:0:0:0:
36,192,148735,128,0,148842:0:0:0:0:
109,192,148842,128,0,148950:0:0:0:0:
402,192,148842,1,0,0:0:0:0:
329,192,148842,1,0,0:0:0:0:
475,192,148842,1,0,0:0:0:0:
182,192,148950,128,0,149057:0:0:0:0:
256,192,149057,128,0,149164:0:0:0:0:
36,192,149137,1,0,0:0:0:0:
109,192,149164,128,0,149592:0:0:0:0:
402,192,149164,1,0,0:0:0:0:
475,192,149164,1,0,0:0:0:0:
329,192,149164,1,0,0:0:0:0:
402,192,149378,128,0,149592:0:0:0:0:
329,192,149592,1,0,0:0:0:0:
475,192,149592,128,0,149807:0:0:0:0:
36,192,149592,1,0,0:0:0:0:
256,192,149807,128,0,149914:0:0:0:0:
109,192,149914,1,0,0:0:0:0:
182,192,149914,1,0,0:0:0:0:
475,192,149914,128,0,150021:0:0:0:0:
36,192,149914,1,0,0:0:0:0:
402,192,150021,128,0,150128:0:0:0:0:
329,192,150128,128,0,150235:0:0:0:0:
475,192,150235,1,0,0:0:0:0:
256,192,150235,128,0,150342:0:0:0:0:
36,192,150235,1,0,0:0:0:0:
109,192,150235,1,0,0:0:0:0:
182,192,150342,128,0,150450:0:0:0:0:
36,192,150450,128,0,150557:0:0:0:0:
475,192,150557,1,0,0:0:0:0:
402,192,150557,1,0,0:0:0:0:
329,192,150557,1,0,0:0:0:0:
109,192,150557,128,0,150664:0:0:0:0:
182,192,150664,128,0,150771:0:0:0:0:
256,192,150771,128,0,150878:0:0:0:0:
36,192,150851,1,0,0:0:0:0:
402,192,150878,1,0,0:0:0:0:
475,192,150878,1,0,0:0:0:0:
329,192,150878,1,0,0:0:0:0:
109,192,150878,128,0,151307:0:0:0:0:
402,192,151092,128,0,151307:0:0:0:0:
475,192,151307,128,0,151521:0:0:0:0:
36,192,151307,1,0,0:0:0:0:
329,192,151307,1,0,0:0:0:0:
256,192,151521,128,0,151628:0:0:0:0:
475,192,151628,128,0,151735:0:0:0:0:
36,192,151628,1,0,0:0:0:0:
109,192,151628,1,0,0:0:0:0:
182,192,151628,1,0,0:0:0:0:
402,192,151735,128,0,151842:0:0:0:0:
329,192,151842,128,0,151950:0:0:0:0:
256,192,151950,128,0,152057:0:0:0:0:
475,192,151950,1,0,0:0:0:0:
109,192,151950,1,0,0:0:0:0:
36,192,151950,1,0,0:0:0:0:
182,192,152057,128,0,152164:0:0:0:0:
36,192,152164,128,0,152271:0:0:0:0:
109,192,152271,128,0,152378:0:0:0:0:
402,192,152271,1,0,0:0:0:0:
475,192,152271,1,0,0:0:0:0:
329,192,152271,1,0,0:0:0:0:
182,192,152378,128,0,152485:0:0:0:0:
256,192,152485,128,0,152592:0:0:0:0:
36,192,152566,1,0,0:0:0:0:
109,192,152592,128,0,153021:0:0:0:0:
475,192,152592,1,0,0:0:0:0:
402,192,152592,1,0,0:0:0:0:
329,192,152592,1,0,0:0:0:0:
402,192,152807,128,0,153021:0:0:0:0:
36,192,153021,128,0,164914:0:0:0:0:
475,192,153021,128,0,153235:0:0:0:0:
182,192,153021,1,0,0:0:0:0:
256,192,153235,128,0,153342:0:0:0:0:
329,192,153342,128,0,153450:0:0:0:0:
402,192,153450,128,0,153557:0:0:0:0:
182,192,153557,128,0,153664:0:0:0:0:
475,192,153664,128,0,153771:0:0:0:0:
402,192,153771,128,0,153878:0:0:0:0:
329,192,153878,128,0,153932:0:0:0:0:
256,192,153932,128,0,153985:0:0:0:0:
182,192,153985,128,0,154092:0:0:0:0:
109,192,154092,128,0,154200:0:0:0:0:
329,192,154200,128,0,154307:0:0:0:0:
402,192,154307,128,0,154414:0:0:0:0:
402,192,154521,128,0,154735:0:0:0:0:
109,192,154735,1,0,0:0:0:0:
329,192,154735,1,0,0:0:0:0:
475,192,154735,128,0,154950:0:0:0:0:
182,192,154735,128,0,164914:0:0:0:0:
256,192,154950,128,0,155057:0:0:0:0:
329,192,155057,128,0,155164:0:0:0:0:
402,192,155164,128,0,155271:0:0:0:0:
256,192,155271,128,0,155378:0:0:0:0:
475,192,155378,128,0,155485:0:0:0:0:
402,192,155485,128,0,155592:0:0:0:0:
329,192,155592,128,0,155646:0:0:0:0:
256,192,155646,128,0,155700:0:0:0:0:
109,192,155700,128,0,155807:0:0:0:0:
329,192,155807,128,0,155914:0:0:0:0:
402,192,155914,128,0,156021:0:0:0:0:
475,192,156021,128,0,156128:0:0:0:0:
475,192,156235,128,0,156450:0:0:0:0:
402,192,156450,128,0,156664:0:0:0:0:
329,192,156450,128,0,164914:0:0:0:0:
109,192,156450,1,0,0:0:0:0:
256,192,156450,1,0,0:0:0:0:
109,192,156664,128,0,156771:0:0:0:0:
256,192,156771,128,0,156878:0:0:0:0:
402,192,156878,128,0,156985:0:0:0:0:
475,192,156985,128,0,157092:0:0:0:0:
109,192,157092,128,0,157200:0:0:0:0:
256,192,157200,128,0,157307:0:0:0:0:
475,192,157307,128,0,157360:0:0:0:0:
402,192,157360,128,0,157414:0:0:0:0:
256,192,157414,128,0,157521:0:0:0:0:
109,192,157521,128,0,157628:0:0:0:0:
256,192,157628,128,0,157735:0:0:0:0:
402,192,157735,128,0,157842:0:0:0:0:
402,192,157950,128,0,158164:0:0:0:0:
256,192,158164,128,0,158378:0:0:0:0:
475,192,158164,128,0,164914:0:0:0:0:
109,192,158164,1,0,0:0:0:0:
109,192,158378,128,0,158485:0:0:0:0:
256,192,158485,128,0,158592:0:0:0:0:
402,192,158592,128,0,158700:0:0:0:0:
109,192,158700,128,0,158807:0:0:0:0:
402,192,158807,128,0,158914:0:0:0:0:
256,192,158914,128,0,158967:0:0:0:0:
109,192,159021,128,0,159075:0:0:0:0:
256,192,159075,128,0,159128:0:0:0:0:
402,192,159128,128,0,159235:0:0:0:0:
109,192,159235,128,0,159342:0:0:0:0:
256,192,159342,128,0,159450:0:0:0:0:
402,192,159450,128,0,159557:0:0:0:0:
256,192,159557,128,0,159664:0:0:0:0:
109,192,159664,128,0,159771:0:0:0:0:
256,192,159771,128,0,159878:0:0:0:0:
402,192,159878,128,0,160200:0:0:0:0:
109,192,159878,1,0,0:0:0:0:
109,192,160092,128,0,160200:0:0:0:0:
256,192,160200,128,0,160307:0:0:0:0:
402,192,160307,128,0,160628:0:0:0:0:
256,192,160414,128,0,160521:0:0:0:0:
109,192,160521,128,0,160628:0:0:0:0:
256,192,160628,128,0,160682:0:0:0:0:
402,192,160735,128,0,160950:0:0:0:0:
256,192,160789,128,0,160842:0:0:0:0:
109,192,160842,128,0,160950:0:0:0:0:
256,192,160950,128,0,161057:0:0:0:0:
402,192,161057,128,0,161914:0:0:0:0:
109,192,161164,128,0,161271:0:0:0:0:
109,192,161378,128,0,161592:0:0:0:0:
256,192,161592,128,0,161807:0:0:0:0:
109,192,161807,128,0,161914:0:0:0:0:
256,192,161914,128,0,162021:0:0:0:0:
402,192,162021,128,0,162342:0:0:0:0:
256,192,162128,128,0,162235:0:0:0:0:
109,192,162235,128,0,162342:0:0:0:0:
256,192,162342,128,0,162396:0:0:0:0:
402,192,162450,128,0,162664:0:0:0:0:
256,192,162503,128,0,162557:0:0:0:0:
109,192,162557,128,0,162664:0:0:0:0:
256,192,162664,128,0,163521:0:0:0:0:
402,192,162771,128,0,163628:0:0:0:0:
109,192,162878,128,0,162985:0:0:0:0:
109,192,163092,128,0,163200:0:0:0:0:
109,192,163307,128,0,163414:0:0:0:0:
109,192,163521,128,0,163842:0:0:0:0:
256,192,163628,128,0,163735:0:0:0:0:
402,192,163735,128,0,164057:0:0:0:0:
256,192,163842,128,0,163950:0:0:0:0:
109,192,163950,128,0,164164:0:0:0:0:
256,192,164057,128,0,164110:0:0:0:0:
402,192,164164,128,0,164271:0:0:0:0:
256,192,164217,128,0,164325:0:0:0:0:
109,192,164271,128,0,164378:0:0:0:0:
402,192,164378,128,0,164485:0:0:0:0:
256,192,164432,128,0,164700:0:0:0:0:
109,192,164485,128,0,164592:0:0:0:0:
402,192,164592,128,0,164807:0:0:0:0:
109,192,164700,128,0,165021:0:0:0:0:
256,192,164807,128,0,165021:0:0:0:0:
402,192,164914,128,0,165021:0:0:0:0:
475,192,165021,128,0,165342:0:0:0:0:
329,192,165021,128,0,165342:0:0:0:0:
182,192,165021,128,0,165342:0:0:0:0:
36,192,165021,128,0,165342:0:0:0:0:
475,192,165450,128,0,166628:0:0:0:0:
329,192,165450,128,0,166628:0:0:0:0:
182,192,165450,128,0,166628:0:0:0:0:
36,192,165450,128,0,166628:0:0:0:0:
109,192,165878,1,0,0:0:0:0:
402,192,165878,1,0,0:0:0:0:
109,192,166092,1,0,0:0:0:0:
402,192,166092,1,0,0:0:0:0:
256,192,166307,1,0,0:0:0:0:
109,192,166307,128,0,166628:0:0:0:0:
402,192,166307,128,0,166628:0:0:0:0:
36,192,166735,128,0,167057:0:0:0:0:
329,192,166735,128,0,167057:0:0:0:0:
109,192,166842,128,0,166896:0:0:0:0:
402,192,166842,128,0,166896:0:0:0:0:
109,192,166950,128,0,167057:0:0:0:0:
402,192,166950,128,0,167057:0:0:0:0:
182,192,167057,128,0,167378:0:0:0:0:
475,192,167057,128,0,167271:0:0:0:0:
109,192,167164,128,0,167485:0:0:0:0:
402,192,167164,128,0,167378:0:0:0:0:
36,192,167271,128,0,167592:0:0:0:0:
329,192,167271,128,0,167485:0:0:0:0:
475,192,167378,128,0,167807:0:0:0:0:
256,192,167378,128,0,167592:0:0:0:0:
402,192,167485,128,0,168021:0:0:0:0:
182,192,167485,128,0,168021:0:0:0:0:
109,192,167592,128,0,168021:0:0:0:0:
329,192,167592,128,0,167807:0:0:0:0:
256,192,167700,128,0,167753:0:0:0:0:
36,192,167700,128,0,167753:0:0:0:0:
36,192,167807,128,0,167914:0:0:0:0:
256,192,167807,128,0,167914:0:0:0:0:
329,192,167914,128,0,168021:0:0:0:0:
475,192,167914,128,0,168021:0:0:0:0:
256,192,168021,128,0,168342:0:0:0:0:
36,192,168021,128,0,168450:0:0:0:0:
109,192,168235,128,0,168450:0:0:0:0:
329,192,168235,128,0,168450:0:0:0:0:
182,192,168342,128,0,168450:0:0:0:0:
402,192,168342,128,0,168450:0:0:0:0:
475,192,168450,128,0,168664:0:0:0:0:
256,192,168450,128,0,168664:0:0:0:0:
402,192,168664,128,0,168985:0:0:0:0:
182,192,168664,128,0,168878:0:0:0:0:
109,192,168771,128,0,168985:0:0:0:0:
329,192,168771,128,0,169092:0:0:0:0:
36,192,168878,128,0,169092:0:0:0:0:
256,192,168878,128,0,169200:0:0:0:0:
475,192,168985,128,0,169200:0:0:0:0:
182,192,168985,128,0,169307:0:0:0:0:
402,192,169092,128,0,169521:0:0:0:0:
109,192,169092,128,0,169414:0:0:0:0:
329,192,169200,128,0,169628:0:0:0:0:
36,192,169200,128,0,169307:0:0:0:0:
256,192,169307,128,0,169521:0:0:0:0:
475,192,169307,128,0,169414:0:0:0:0:
182,192,169414,128,0,169628:0:0:0:0:
36,192,169414,128,0,169628:0:0:0:0:
109,192,169521,128,0,169735:0:0:0:0:
475,192,169521,128,0,169628:0:0:0:0:
402,192,169628,128,0,169950:0:0:0:0:
256,192,169628,128,0,169735:0:0:0:0:
182,192,169735,128,0,169950:0:0:0:0:
36,192,169735,128,0,170164:0:0:0:0:
109,192,169950,128,0,170164:0:0:0:0:
329,192,169950,128,0,170164:0:0:0:0:
182,192,170057,128,0,170164:0:0:0:0:
402,192,170057,128,0,170164:0:0:0:0:
256,192,170164,128,0,170378:0:0:0:0:
475,192,170164,128,0,170378:0:0:0:0:
402,192,170378,128,0,170700:0:0:0:0:
182,192,170378,128,0,170592:0:0:0:0:
329,192,170485,128,0,170807:0:0:0:0:
109,192,170485,128,0,170700:0:0:0:0:
256,192,170592,128,0,170914:0:0:0:0:
36,192,170592,128,0,170807:0:0:0:0:
182,192,170700,128,0,171021:0:0:0:0:
475,192,170700,128,0,170914:0:0:0:0:
109,192,170807,128,0,171342:0:0:0:0:
402,192,170807,128,0,171021:0:0:0:0:
329,192,170914,128,0,171128:0:0:0:0:
36,192,170914,128,0,171128:0:0:0:0:
256,192,171021,128,0,171342:0:0:0:0:
475,192,171021,128,0,171342:0:0:0:0:
182,192,171128,128,0,171182:0:0:0:0:
402,192,171128,128,0,171182:0:0:0:0:
402,192,171235,128,0,171342:0:0:0:0:
182,192,171235,128,0,171342:0:0:0:0:
36,192,171342,128,0,171450:0:0:0:0:
329,192,171342,128,0,171450:0:0:0:0:
182,192,171450,128,0,171664:0:0:0:0:
402,192,171450,128,0,171664:0:0:0:0:
109,192,171664,128,0,171771:0:0:0:0:
329,192,171664,128,0,171771:0:0:0:0:
182,192,171771,128,0,171878:0:0:0:0:
402,192,171771,128,0,171878:0:0:0:0:
475,192,171878,128,0,172092:0:0:0:0:
256,192,171878,128,0,172092:0:0:0:0:
182,192,171932,128,0,172200:0:0:0:0:
109,192,171985,128,0,172307:0:0:0:0:
402,192,171985,128,0,172200:0:0:0:0:
36,192,172092,128,0,172414:0:0:0:0:
329,192,172092,128,0,172307:0:0:0:0:
475,192,172200,128,0,172950:0:0:0:0:
256,192,172200,128,0,172414:0:0:0:0:
402,192,172307,128,0,172521:0:0:0:0:
182,192,172307,128,0,172521:0:0:0:0:
109,192,172414,128,0,172628:0:0:0:0:
329,192,172414,128,0,172628:0:0:0:0:
36,192,172521,128,0,172735:0:0:0:0:
256,192,172521,128,0,172735:0:0:0:0:
182,192,172628,128,0,172950:0:0:0:0:
402,192,172628,128,0,172842:0:0:0:0:
329,192,172735,128,0,173057:0:0:0:0:
109,192,172735,128,0,172842:0:0:0:0:
36,192,172842,128,0,173057:0:0:0:0:
256,192,172842,128,0,173378:0:0:0:0:
109,192,172950,128,0,173164:0:0:0:0:
402,192,172950,128,0,173164:0:0:0:0:
182,192,173057,128,0,173271:0:0:0:0:
475,192,173057,128,0,173271:0:0:0:0:
36,192,173164,128,0,173378:0:0:0:0:
329,192,173164,128,0,173378:0:0:0:0:
109,192,173271,128,0,173485:0:0:0:0:
402,192,173271,128,0,173485:0:0:0:0:
182,192,173378,128,0,173592:0:0:0:0:
475,192,173378,128,0,173592:0:0:0:0:
256,192,173485,128,0,173592:0:0:0:0:
329,192,173592,128,0,173914:0:0:0:0:
36,192,173592,128,0,173914:0:0:0:0:
402,192,173700,128,0,173753:0:0:0:0:
109,192,173700,128,0,173753:0:0:0:0:
402,192,173807,128,0,173914:0:0:0:0:
109,192,173807,128,0,173914:0:0:0:0:
475,192,173914,128,0,174128:0:0:0:0:
182,192,173914,128,0,174235:0:0:0:0:
402,192,174021,128,0,174235:0:0:0:0:
109,192,174021,128,0,174342:0:0:0:0:
329,192,174128,128,0,174342:0:0:0:0:
36,192,174128,128,0,174450:0:0:0:0:
256,192,174235,128,0,174450:0:0:0:0:
475,192,174235,128,0,174664:0:0:0:0:
182,192,174342,128,0,174878:0:0:0:0:
402,192,174342,128,0,174878:0:0:0:0:
329,192,174450,128,0,174664:0:0:0:0:
109,192,174450,128,0,174878:0:0:0:0:
36,192,174557,128,0,174610:0:0:0:0:
256,192,174557,128,0,174610:0:0:0:0:
256,192,174664,128,0,174771:0:0:0:0:
36,192,174664,128,0,174771:0:0:0:0:
475,192,174771,128,0,174878:0:0:0:0:
329,192,174771,128,0,174878:0:0:0:0:
36,192,174878,128,0,175307:0:0:0:0:
256,192,174878,128,0,175200:0:0:0:0:
329,192,175092,128,0,175307:0:0:0:0:
109,192,175092,128,0,175307:0:0:0:0:
402,192,175200,128,0,175307:0:0:0:0:
182,192,175200,128,0,175307:0:0:0:0:
256,192,175307,128,0,175521:0:0:0:0:
475,192,175307,128,0,175521:0:0:0:0:
182,192,175521,128,0,175735:0:0:0:0:
402,192,175521,128,0,175842:0:0:0:0:
329,192,175628,128,0,175950:0:0:0:0:
109,192,175628,128,0,175842:0:0:0:0:
256,192,175735,128,0,176057:0:0:0:0:
36,192,175735,128,0,175950:0:0:0:0:
182,192,175842,128,0,176164:0:0:0:0:
475,192,175842,128,0,176057:0:0:0:0:
109,192,175950,128,0,176271:0:0:0:0:
402,192,175950,128,0,176378:0:0:0:0:
36,192,176057,128,0,176164:0:0:0:0:
329,192,176057,128,0,176485:0:0:0:0:
475,192,176164,128,0,176271:0:0:0:0:
256,192,176164,128,0,176378:0:0:0:0:
36,192,176271,128,0,176485:0:0:0:0:
182,192,176271,128,0,176485:0:0:0:0:
475,192,176378,128,0,176485:0:0:0:0:
109,192,176378,128,0,176592:0:0:0:0:
256,192,176485,128,0,176592:0:0:0:0:
402,192,176485,128,0,176807:0:0:0:0:
36,192,176592,128,0,177021:0:0:0:0:
182,192,176592,128,0,176807:0:0:0:0:
329,192,176807,128,0,177021:0:0:0:0:
109,192,176807,128,0,177021:0:0:0:0:
402,192,176914,128,0,177021:0:0:0:0:
182,192,176914,128,0,177021:0:0:0:0:
475,192,177021,128,0,183878:0:0:0:0:
256,192,177021,128,0,183450:0:0:0:0:
182,192,179378,128,0,179807:0:0:0:0:
109,192,179807,128,0,180235:0:0:0:0:
36,192,180235,128,0,180664:0:0:0:0:
109,192,180664,128,0,181092:0:0:0:0:
182,192,181092,128,0,181414:0:0:0:0:
109,192,181414,128,0,181735:0:0:0:0:
36,192,181735,128,0,182057:0:0:0:0:
109,192,182057,128,0,182271:0:0:0:0:
182,192,182325,1,0,0:0:0:0:
109,192,182378,128,0,182700:0:0:0:0:
36,192,182700,128,0,183021:0:0:0:0:
109,192,183021,128,0,183878:0:0:0:0:
182,192,183878,128,0,184307:0:0:0:0:
329,192,184307,128,0,184735:0:0:0:0:
182,192,184414,1,0,0:0:0:0:
109,192,184467,1,0,0:0:0:0:
256,192,184521,128,0,188271:0:0:0:0:
36,192,184521,128,0,189342:0:0:0:0:
475,192,184735,128,0,185057:0:0:0:0:
402,192,185057,128,0,185164:0:0:0:0:
329,192,185164,128,0,185485:0:0:0:0:
475,192,185485,128,0,185914:0:0:0:0:
329,192,185914,128,0,186235:0:0:0:0:
402,192,186235,128,0,186771:0:0:0:0:
475,192,186771,128,0,187200:0:0:0:0:
402,192,187200,128,0,187521:0:0:0:0:
329,192,187628,128,0,187682:0:0:0:0:
402,192,187682,128,0,187735:0:0:0:0:
475,192,187735,128,0,187842:0:0:0:0:
329,192,187842,128,0,188271:0:0:0:0:
475,192,188378,1,0,0:0:0:0:
329,192,188432,1,0,0:0:0:0:
475,192,188485,128,0,189342:0:0:0:0:
256,192,188914,1,0,0:0:0:0:
402,192,189342,128,0,190092:0:0:0:0:
109,192,189342,1,0,0:0:0:0:
329,192,189771,1,0,0:0:0:0:
36,192,190092,1,0,0:0:0:0:
182,192,190146,1,0,0:0:0:0:
36,192,190200,128,0,190842:0:0:0:0:
256,192,190307,1,0,0:0:0:0:
475,192,190307,1,0,0:0:0:0:
109,192,190842,128,0,191378:0:0:0:0:
329,192,190842,1,0,0:0:0:0:
36,192,191378,128,0,197592:0:0:0:0:
402,192,191378,1,0,0:0:0:0:
475,192,191807,1,0,0:0:0:0:
402,192,192342,128,0,197592:0:0:0:0:
329,192,192664,1,0,0:0:0:0:
256,192,192717,1,0,0:0:0:0:
109,192,192771,1,0,0:0:0:0:
475,192,192771,1,0,0:0:0:0:
182,192,192771,128,0,193735:0:0:0:0:
256,192,193735,128,0,194807:0:0:0:0:
475,192,194807,128,0,197592:0:0:0:0:
