osu file format v14

[General]
AudioFilename: audio.mp3
AudioLeadIn: 0
PreviewTime: 43307
Countdown: 0
SampleSet: Normal
StackLeniency: 0.7
Mode: 3
LetterboxInBreaks: 0
SpecialStyle: 0
WidescreenStoryboard: 0

[Editor]
Bookmarks: 30735,34164,37592,41021
DistanceSpacing: 2
BeatDivisor: 4
GridSize: 4
TimelineZoom: 2.7

[Metadata]
Title:Rockhill
TitleUnicode:Rockhill
Artist:Beltaine
ArtistUnicode:Beltaine
Creator:Cuma Iseng
Version:Easy
Source:
Tags:
BeatmapID:2247636
BeatmapSetID:1073960

[Difficulty]
HPDrainRate:7
CircleSize:7
OverallDifficulty:7
ApproachRate:5
SliderMultiplier:1.4
SliderTickRate:1

[Events]
//Background and Video events
0,0,"image.jpg",0,0
//Break Periods
//Storyboard Layer 0 (Background)
//Storyboard Layer 1 (Fail)
//Storyboard Layer 2 (Pass)
//Storyboard Layer 3 (Foreground)
//Storyboard Layer 4 (Overlay)
//Storyboard Sound Samples

[TimingPoints]
450,428.571428571429,4,1,0,5,1,0
43307,-100,4,1,0,5,0,1
57021,-100,4,1,0,5,0,0
84450,-100,4,1,0,5,0,1
98164,-100,4,1,0,5,0,0
166735,-100,4,1,0,5,0,1
177021,-100,4,1,0,5,0,0

[HitObjects]
36,192,450,5,0,0:0:0:0:
109,192,771,1,0,0:0:0:0:
182,192,1092,1,0,0:0:0:0:
256,192,1414,1,0,0:0:0:0:
329,192,1735,1,0,0:0:0:0:
402,192,1735,1,0,0:0:0:0:
475,192,2164,1,0,0:0:0:0:
402,192,2485,1,0,0:0:0:0:
329,192,2807,1,0,0:0:0:0:
256,192,3128,1,0,0:0:0:0:
182,192,3450,1,0,0:0:0:0:
109,192,3450,1,0,0:0:0:0:
36,192,3878,1,0,0:0:0:0:
475,192,4200,1,0,0:0:0:0:
109,192,4521,1,0,0:0:0:0:
402,192,4842,1,0,0:0:0:0:
182,192,5164,1,0,0:0:0:0:
256,192,5164,1,0,0:0:0:0:
475,192,5592,1,0,0:0:0:0:
36,192,5914,1,0,0:0:0:0:
402,192,6235,1,0,0:0:0:0:
109,192,6557,1,0,0:0:0:0:
256,192,6878,1,0,0:0:0:0:
329,192,6878,1,0,0:0:0:0:
36,192,7307,1,0,0:0:0:0:
109,192,7628,1,0,0:0:0:0:
182,192,7950,1,0,0:0:0:0:
402,192,8271,1,0,0:0:0:0:
256,192,8592,1,0,0:0:0:0:
329,192,8592,1,0,0:0:0:0:
475,192,9021,1,0,0:0:0:0:
402,192,9342,1,0,0:0:0:0:
329,192,9664,1,0,0:0:0:0:
109,192,9985,1,0,0:0:0:0:
182,192,10307,1,0,0:0:0:0:
256,192,10307,1,0,0:0:0:0:
36,192,10735,1,0,0:0:0:0:
256,192,11057,1,0,0:0:0:0:
109,192,11378,1,0,0:0:0:0:
329,192,11700,1,0,0:0:0:0:
182,192,12021,1,0,0:0:0:0:
402,192,12021,1,0,0:0:0:0:
475,192,12450,1,0,0:0:0:0:
256,192,12771,1,0,0:0:0:0:
402,192,13092,1,0,0:0:0:0:
182,192,13414,1,0,0:0:0:0:
329,192,13735,1,0,0:0:0:0:
109,192,13735,1,0,0:0:0:0:
36,192,14164,1,0,0:0:0:0:
109,192,14485,1,0,0:0:0:0:
182,192,14807,1,0,0:0:0:0:
256,192,15235,1,0,0:0:0:0:
475,192,15450,128,0,15664:0:0:0:0:
329,192,15664,128,0,15878:0:0:0:0:
36,192,15878,1,0,0:0:0:0:
109,192,16200,1,0,0:0:0:0:
182,192,16521,1,0,0:0:0:0:
256,192,16950,1,0,0:0:0:0:
475,192,17164,128,0,17378:0:0:0:0:
329,192,17378,128,0,17592:0:0:0:0:
36,192,17592,1,0,0:0:0:0:
109,192,17914,1,0,0:0:0:0:
182,192,18235,1,0,0:0:0:0:
256,192,18664,1,0,0:0:0:0:
475,192,18878,128,0,19092:0:0:0:0:
329,192,19092,128,0,19307:0:0:0:0:
36,192,19307,1,0,0:0:0:0:
109,192,19628,1,0,0:0:0:0:
182,192,19950,1,0,0:0:0:0:
256,192,20378,1,0,0:0:0:0:
475,192,20592,128,0,20807:0:0:0:0:
36,192,20807,128,0,21021:0:0:0:0:
475,192,21021,1,0,0:0:0:0:
402,192,21342,1,0,0:0:0:0:
329,192,21664,1,0,0:0:0:0:
256,192,22092,1,0,0:0:0:0:
36,192,22307,128,0,22521:0:0:0:0:
182,192,22521,128,0,22735:0:0:0:0:
475,192,22735,1,0,0:0:0:0:
402,192,23057,1,0,0:0:0:0:
329,192,23378,1,0,0:0:0:0:
256,192,23807,1,0,0:0:0:0:
36,192,24021,128,0,24235:0:0:0:0:
182,192,24235,128,0,24450:0:0:0:0:
475,192,24450,1,0,0:0:0:0:
402,192,24771,1,0,0:0:0:0:
329,192,25092,1,0,0:0:0:0:
256,192,25521,1,0,0:0:0:0:
36,192,25735,128,0,25950:0:0:0:0:
182,192,25950,128,0,26164:0:0:0:0:
475,192,26164,1,0,0:0:0:0:
402,192,26485,1,0,0:0:0:0:
329,192,26807,1,0,0:0:0:0:
256,192,27235,1,0,0:0:0:0:
36,192,27450,128,0,27664:0:0:0:0:
475,192,27664,128,0,27878:0:0:0:0:
36,192,27878,1,0,0:0:0:0:
109,192,28200,1,0,0:0:0:0:
182,192,28521,1,0,0:0:0:0:
256,192,28950,1,0,0:0:0:0:
475,192,29164,128,0,29378:0:0:0:0:
329,192,29378,128,0,29592:0:0:0:0:
36,192,29592,1,0,0:0:0:0:
109,192,29914,1,0,0:0:0:0:
182,192,30235,1,0,0:0:0:0:
109,192,30664,128,0,30878:0:0:0:0:
256,192,30878,128,0,31092:0:0:0:0:
402,192,31092,128,0,31307:0:0:0:0:
36,192,31307,1,0,0:0:0:0:
109,192,31628,1,0,0:0:0:0:
182,192,31950,1,0,0:0:0:0:
256,192,32378,1,0,0:0:0:0:
475,192,32592,128,0,32807:0:0:0:0:
329,192,32807,128,0,33021:0:0:0:0:
36,192,33021,1,0,0:0:0:0:
109,192,33342,1,0,0:0:0:0:
182,192,33664,1,0,0:0:0:0:
475,192,34092,128,0,34307:0:0:0:0:
256,192,34307,128,0,34521:0:0:0:0:
36,192,34521,128,0,34735:0:0:0:0:
475,192,34735,1,0,0:0:0:0:
402,192,35057,1,0,0:0:0:0:
329,192,35378,1,0,0:0:0:0:
256,192,35807,1,0,0:0:0:0:
36,192,36021,128,0,36235:0:0:0:0:
182,192,36235,128,0,36450:0:0:0:0:
475,192,36450,1,0,0:0:0:0:
402,192,36771,1,0,0:0:0:0:
329,192,37092,1,0,0:0:0:0:
402,192,37521,128,0,37735:0:0:0:0:
256,192,37735,128,0,37950:0:0:0:0:
109,192,37950,128,0,38164:0:0:0:0:
475,192,38164,1,0,0:0:0:0:
402,192,38485,1,0,0:0:0:0:
329,192,38807,1,0,0:0:0:0:
256,192,39235,1,0,0:0:0:0:
36,192,39450,128,0,39664:0:0:0:0:
182,192,39664,128,0,39878:0:0:0:0:
475,192,39878,1,0,0:0:0:0:
402,192,40200,1,0,0:0:0:0:
329,192,40521,1,0,0:0:0:0:
36,192,40950,128,0,41164:0:0:0:0:
256,192,41164,128,0,41378:0:0:0:0:
475,192,41378,128,0,41592:0:0:0:0:
36,192,41592,128,0,42878:0:0:0:0:
329,192,41592,1,0,0:0:0:0:
329,192,42235,1,0,0:0:0:0:
402,192,42878,1,0,0:0:0:0:
475,192,43307,128,0,43628:0:0:0:0:
36,192,43628,128,0,43950:0:0:0:0:
475,192,43950,128,0,44271:0:0:0:0:
36,192,44378,128,0,44592:0:0:0:0:
109,192,44592,128,0,44807:0:0:0:0:
182,192,44807,128,0,45021:0:0:0:0:
475,192,45021,128,0,45342:0:0:0:0:
36,192,45342,128,0,45664:0:0:0:0:
475,192,45664,128,0,45985:0:0:0:0:
36,192,46092,128,0,46307:0:0:0:0:
329,192,46307,128,0,46521:0:0:0:0:
256,192,46521,128,0,46735:0:0:0:0:
36,192,46735,128,0,47057:0:0:0:0:
475,192,47057,128,0,47378:0:0:0:0:
36,192,47378,128,0,47700:0:0:0:0:
182,192,47807,128,0,48021:0:0:0:0:
256,192,48021,128,0,48235:0:0:0:0:
329,192,48235,128,0,48450:0:0:0:0:
475,192,48450,128,0,48771:0:0:0:0:
36,192,48771,128,0,49092:0:0:0:0:
475,192,49092,128,0,49414:0:0:0:0:
109,192,49521,128,0,49735:0:0:0:0:
182,192,49735,128,0,49950:0:0:0:0:
256,192,49950,128,0,50164:0:0:0:0:
475,192,50164,128,0,50485:0:0:0:0:
36,192,50485,128,0,50807:0:0:0:0:
475,192,50807,128,0,51128:0:0:0:0:
36,192,51235,128,0,51450:0:0:0:0:
109,192,51450,128,0,51664:0:0:0:0:
182,192,51664,128,0,51878:0:0:0:0:
475,192,51878,128,0,52200:0:0:0:0:
36,192,52200,128,0,52521:0:0:0:0:
475,192,52521,128,0,52842:0:0:0:0:
36,192,52950,128,0,53164:0:0:0:0:
329,192,53164,128,0,53378:0:0:0:0:
256,192,53378,128,0,53592:0:0:0:0:
36,192,53592,128,0,53914:0:0:0:0:
475,192,53914,128,0,54235:0:0:0:0:
36,192,54235,128,0,54557:0:0:0:0:
182,192,54664,128,0,54878:0:0:0:0:
256,192,54878,128,0,55092:0:0:0:0:
329,192,55092,128,0,55307:0:0:0:0:
475,192,55307,128,0,57021:0:0:0:0:
36,192,55307,1,0,0:0:0:0:
36,192,55735,1,0,0:0:0:0:
36,192,57021,128,0,57342:0:0:0:0:
402,192,57342,128,0,57664:0:0:0:0:
36,192,57664,128,0,57985:0:0:0:0:
402,192,58092,128,0,58307:0:0:0:0:
329,192,58307,128,0,58521:0:0:0:0:
256,192,58521,128,0,58735:0:0:0:0:
36,192,58735,128,0,59057:0:0:0:0:
402,192,59057,128,0,59378:0:0:0:0:
36,192,59378,128,0,59700:0:0:0:0:
109,192,59807,128,0,60021:0:0:0:0:
402,192,60021,128,0,60450:0:0:0:0:
475,192,60450,128,0,60771:0:0:0:0:
109,192,60771,128,0,61092:0:0:0:0:
475,192,61092,128,0,61414:0:0:0:0:
329,192,61521,128,0,61735:0:0:0:0:
256,192,61735,128,0,61950:0:0:0:0:
182,192,61950,128,0,62164:0:0:0:0:
36,192,62164,128,0,62485:0:0:0:0:
402,192,62485,128,0,62807:0:0:0:0:
36,192,62807,128,0,63128:0:0:0:0:
402,192,63235,128,0,63450:0:0:0:0:
109,192,63450,128,0,63878:0:0:0:0:
36,192,63878,128,0,64200:0:0:0:0:
402,192,64200,128,0,64521:0:0:0:0:
36,192,64521,128,0,64842:0:0:0:0:
402,192,64950,128,0,65164:0:0:0:0:
329,192,65164,128,0,65378:0:0:0:0:
256,192,65378,128,0,65592:0:0:0:0:
36,192,65592,128,0,65914:0:0:0:0:
402,192,65914,128,0,66235:0:0:0:0:
36,192,66235,128,0,66557:0:0:0:0:
402,192,66664,128,0,66878:0:0:0:0:
109,192,66878,128,0,67307:0:0:0:0:
475,192,67307,128,0,67628:0:0:0:0:
109,192,67628,128,0,67950:0:0:0:0:
475,192,67950,128,0,68271:0:0:0:0:
329,192,68378,128,0,68592:0:0:0:0:
256,192,68592,128,0,68807:0:0:0:0:
182,192,68807,128,0,69021:0:0:0:0:
475,192,69021,128,0,69342:0:0:0:0:
109,192,69342,128,0,69664:0:0:0:0:
475,192,69664,128,0,69985:0:0:0:0:
109,192,70092,128,0,70307:0:0:0:0:
402,192,70307,128,0,70735:0:0:0:0:
36,192,70735,128,0,72450:0:0:0:0:
475,192,70735,1,0,0:0:0:0:
475,192,72021,1,0,0:0:0:0:
182,192,72450,128,0,74164:0:0:0:0:
402,192,72450,1,0,0:0:0:0:
402,192,73735,1,0,0:0:0:0:
329,192,74164,128,0,75878:0:0:0:0:
109,192,74164,1,0,0:0:0:0:
109,192,75450,1,0,0:0:0:0:
475,192,75878,128,0,77592:0:0:0:0:
36,192,75878,1,0,0:0:0:0:
36,192,77164,1,0,0:0:0:0:
36,192,77592,128,0,79307:0:0:0:0:
329,192,77592,1,0,0:0:0:0:
329,192,78878,1,0,0:0:0:0:
182,192,79307,128,0,81021:0:0:0:0:
402,192,79307,1,0,0:0:0:0:
402,192,80592,1,0,0:0:0:0:
329,192,81021,128,0,82735:0:0:0:0:
109,192,81021,1,0,0:0:0:0:
109,192,82307,1,0,0:0:0:0:
36,192,82735,1,0,0:0:0:0:
402,192,82735,1,0,0:0:0:0:
36,192,83164,1,0,0:0:0:0:
402,192,83164,1,0,0:0:0:0:
475,192,84450,128,0,84771:0:0:0:0:
256,192,84771,128,0,85092:0:0:0:0:
36,192,85092,128,0,85414:0:0:0:0:
109,192,85521,128,0,85735:0:0:0:0:
182,192,85735,128,0,85950:0:0:0:0:
256,192,85950,128,0,86164:0:0:0:0:
475,192,86164,128,0,86485:0:0:0:0:
256,192,86485,128,0,86807:0:0:0:0:
36,192,86807,128,0,87128:0:0:0:0:
109,192,87235,128,0,87450:0:0:0:0:
402,192,87450,128,0,87664:0:0:0:0:
256,192,87664,128,0,87878:0:0:0:0:
36,192,87878,128,0,88200:0:0:0:0:
256,192,88200,128,0,88521:0:0:0:0:
475,192,88521,128,0,88842:0:0:0:0:
182,192,88950,128,0,89164:0:0:0:0:
256,192,89164,128,0,89378:0:0:0:0:
329,192,89378,128,0,89592:0:0:0:0:
36,192,89592,128,0,89914:0:0:0:0:
256,192,89914,128,0,90235:0:0:0:0:
475,192,90235,128,0,90557:0:0:0:0:
109,192,90664,128,0,90878:0:0:0:0:
182,192,90878,128,0,91092:0:0:0:0:
256,192,91092,128,0,91307:0:0:0:0:
475,192,91307,128,0,91628:0:0:0:0:
36,192,91628,128,0,91950:0:0:0:0:
475,192,91950,128,0,92271:0:0:0:0:
36,192,92378,128,0,92592:0:0:0:0:
109,192,92592,128,0,92807:0:0:0:0:
182,192,92807,128,0,93021:0:0:0:0:
475,192,93021,128,0,93342:0:0:0:0:
36,192,93342,128,0,93664:0:0:0:0:
402,192,93664,128,0,93985:0:0:0:0:
36,192,94092,128,0,94307:0:0:0:0:
329,192,94307,128,0,94521:0:0:0:0:
256,192,94521,128,0,94735:0:0:0:0:
36,192,94735,128,0,95057:0:0:0:0:
402,192,95057,128,0,95378:0:0:0:0:
36,192,95378,128,0,95700:0:0:0:0:
182,192,95807,128,0,96021:0:0:0:0:
256,192,96021,128,0,96235:0:0:0:0:
329,192,96235,128,0,96450:0:0:0:0:
475,192,96450,128,0,98164:0:0:0:0:
36,192,96450,1,0,0:0:0:0:
36,192,96878,1,0,0:0:0:0:
36,192,98164,128,0,98485:0:0:0:0:
475,192,98485,128,0,98807:0:0:0:0:
36,192,98807,128,0,99128:0:0:0:0:
475,192,99235,128,0,99450:0:0:0:0:
402,192,99450,128,0,99664:0:0:0:0:
329,192,99664,128,0,99878:0:0:0:0:
36,192,99878,128,0,100200:0:0:0:0:
475,192,100200,128,0,100521:0:0:0:0:
36,192,100521,128,0,100842:0:0:0:0:
109,192,100950,128,0,101164:0:0:0:0:
402,192,101164,128,0,101592:0:0:0:0:
475,192,101592,128,0,101914:0:0:0:0:
36,192,101914,128,0,102235:0:0:0:0:
475,192,102235,128,0,102557:0:0:0:0:
329,192,102664,128,0,102878:0:0:0:0:
256,192,102878,128,0,103092:0:0:0:0:
182,192,103092,128,0,103307:0:0:0:0:
36,192,103307,128,0,103628:0:0:0:0:
475,192,103628,128,0,103950:0:0:0:0:
36,192,103950,128,0,104271:0:0:0:0:
402,192,104378,128,0,104592:0:0:0:0:
109,192,104592,128,0,105021:0:0:0:0:
36,192,105021,128,0,105342:0:0:0:0:
475,192,105342,128,0,105664:0:0:0:0:
36,192,105664,128,0,105985:0:0:0:0:
475,192,106092,128,0,106307:0:0:0:0:
402,192,106307,128,0,106521:0:0:0:0:
329,192,106521,128,0,106735:0:0:0:0:
36,192,106735,128,0,107057:0:0:0:0:
475,192,107057,128,0,107378:0:0:0:0:
36,192,107378,128,0,107700:0:0:0:0:
402,192,107807,128,0,108021:0:0:0:0:
109,192,108021,128,0,108450:0:0:0:0:
475,192,108450,128,0,108771:0:0:0:0:
36,192,108771,128,0,109092:0:0:0:0:
475,192,109092,128,0,109414:0:0:0:0:
329,192,109521,128,0,109735:0:0:0:0:
256,192,109735,128,0,109950:0:0:0:0:
182,192,109950,128,0,110164:0:0:0:0:
475,192,110164,128,0,110485:0:0:0:0:
36,192,110485,128,0,110807:0:0:0:0:
475,192,110807,128,0,111128:0:0:0:0:
109,192,111235,128,0,111450:0:0:0:0:
402,192,111450,128,0,111878:0:0:0:0:
36,192,111878,128,0,113592:0:0:0:0:
475,192,111878,1,0,0:0:0:0:
475,192,113164,1,0,0:0:0:0:
182,192,113592,128,0,115307:0:0:0:0:
402,192,113592,1,0,0:0:0:0:
402,192,114878,1,0,0:0:0:0:
329,192,115307,128,0,117021:0:0:0:0:
109,192,115307,1,0,0:0:0:0:
109,192,116592,1,0,0:0:0:0:
36,192,117021,1,0,0:0:0:0:
475,192,117021,128,0,117664:0:0:0:0:
256,192,117664,128,0,118307:0:0:0:0:
36,192,118307,1,0,0:0:0:0:
402,192,118307,128,0,118735:0:0:0:0:
36,192,118735,128,0,120450:0:0:0:0:
329,192,118735,1,0,0:0:0:0:
329,192,120021,1,0,0:0:0:0:
182,192,120450,128,0,122164:0:0:0:0:
402,192,120450,1,0,0:0:0:0:
402,192,121735,1,0,0:0:0:0:
329,192,122164,128,0,123878:0:0:0:0:
109,192,122164,1,0,0:0:0:0:
109,192,123450,1,0,0:0:0:0:
36,192,123878,1,0,0:0:0:0:
402,192,123878,1,0,0:0:0:0:
36,192,124307,1,0,0:0:0:0:
402,192,124307,1,0,0:0:0:0:
475,192,125592,128,0,125914:0:0:0:0:
36,192,125914,128,0,126450:0:0:0:0:
475,192,126450,128,0,126771:0:0:0:0:
36,192,126771,128,0,127307:0:0:0:0:
475,192,127307,128,0,127628:0:0:0:0:
36,192,127628,128,0,127950:0:0:0:0:
182,192,127950,128,0,128592:0:0:0:0:
329,192,128592,128,0,129021:0:0:0:0:
475,192,129021,128,0,129342:0:0:0:0:
36,192,129342,128,0,129878:0:0:0:0:
475,192,129878,128,0,130200:0:0:0:0:
36,192,130200,128,0,130735:0:0:0:0:
475,192,130735,128,0,131057:0:0:0:0:
36,192,131057,128,0,131378:0:0:0:0:
182,192,131378,128,0,132021:0:0:0:0:
329,192,132021,128,0,132450:0:0:0:0:
36,192,132450,128,0,132771:0:0:0:0:
475,192,132771,128,0,133307:0:0:0:0:
36,192,133307,128,0,133628:0:0:0:0:
475,192,133628,128,0,134164:0:0:0:0:
36,192,134164,128,0,134485:0:0:0:0:
475,192,134485,128,0,134807:0:0:0:0:
329,192,134807,128,0,135450:0:0:0:0:
182,192,135450,128,0,135878:0:0:0:0:
36,192,135878,128,0,136200:0:0:0:0:
475,192,136200,128,0,136735:0:0:0:0:
36,192,136735,128,0,137057:0:0:0:0:
475,192,137057,128,0,137592:0:0:0:0:
36,192,137592,128,0,137914:0:0:0:0:
475,192,137914,128,0,138235:0:0:0:0:
329,192,138235,128,0,138878:0:0:0:0:
182,192,138878,128,0,139307:0:0:0:0:
402,192,139307,128,0,139628:0:0:0:0:
109,192,139628,128,0,140164:0:0:0:0:
402,192,140164,128,0,140485:0:0:0:0:
109,192,140485,128,0,141021:0:0:0:0:
402,192,141021,128,0,141342:0:0:0:0:
36,192,141342,128,0,142735:0:0:0:0:
182,192,141664,128,0,142735:0:0:0:0:
329,192,142307,128,0,142735:0:0:0:0:
475,192,142735,128,0,143057:0:0:0:0:
36,192,143057,128,0,143592:0:0:0:0:
475,192,143592,128,0,143914:0:0:0:0:
36,192,143914,128,0,144450:0:0:0:0:
475,192,144450,128,0,144771:0:0:0:0:
329,192,144771,128,0,146164:0:0:0:0:
182,192,145092,128,0,146164:0:0:0:0:
36,192,145735,128,0,146164:0:0:0:0:
109,192,146164,128,0,146485:0:0:0:0:
402,192,146485,128,0,147021:0:0:0:0:
109,192,147021,128,0,147342:0:0:0:0:
402,192,147342,128,0,147878:0:0:0:0:
109,192,147878,128,0,148200:0:0:0:0:
475,192,148200,128,0,149592:0:0:0:0:
329,192,148521,128,0,149592:0:0:0:0:
182,192,149164,128,0,149592:0:0:0:0:
36,192,149592,128,0,149914:0:0:0:0:
475,192,149914,128,0,150450:0:0:0:0:
36,192,150450,128,0,150771:0:0:0:0:
475,192,150771,128,0,151307:0:0:0:0:
36,192,151307,128,0,151628:0:0:0:0:
182,192,151628,128,0,153021:0:0:0:0:
329,192,151950,128,0,153021:0:0:0:0:
475,192,152592,128,0,153021:0:0:0:0:
402,192,153021,1,0,0:0:0:0:
36,192,153021,128,0,154735:0:0:0:0:
402,192,154307,1,0,0:0:0:0:
475,192,154735,1,0,0:0:0:0:
182,192,154735,128,0,156450:0:0:0:0:
475,192,156021,1,0,0:0:0:0:
109,192,156450,1,0,0:0:0:0:
329,192,156450,128,0,158164:0:0:0:0:
109,192,157735,1,0,0:0:0:0:
36,192,158164,1,0,0:0:0:0:
475,192,158164,128,0,159878:0:0:0:0:
36,192,159450,1,0,0:0:0:0:
329,192,159878,1,0,0:0:0:0:
36,192,159878,128,0,161592:0:0:0:0:
329,192,161164,1,0,0:0:0:0:
402,192,161592,1,0,0:0:0:0:
182,192,161592,128,0,163307:0:0:0:0:
402,192,162878,1,0,0:0:0:0:
109,192,163307,1,0,0:0:0:0:
329,192,163307,128,0,165021:0:0:0:0:
109,192,164592,1,0,0:0:0:0:
402,192,165021,1,0,0:0:0:0:
36,192,165021,1,0,0:0:0:0:
402,192,165450,1,0,0:0:0:0:
36,192,165450,1,0,0:0:0:0:
475,192,166735,128,0,167057:0:0:0:0:
329,192,167057,128,0,167378:0:0:0:0:
182,192,167378,128,0,167700:0:0:0:0:
36,192,167807,128,0,168021:0:0:0:0:
109,192,168021,128,0,168235:0:0:0:0:
182,192,168235,128,0,168450:0:0:0:0:
475,192,168450,128,0,168771:0:0:0:0:
329,192,168771,128,0,169092:0:0:0:0:
182,192,169092,128,0,169414:0:0:0:0:
36,192,169521,128,0,169735:0:0:0:0:
329,192,169735,128,0,169950:0:0:0:0:
256,192,169950,128,0,170164:0:0:0:0:
36,192,170164,128,0,170485:0:0:0:0:
182,192,170485,128,0,170807:0:0:0:0:
329,192,170807,128,0,171128:0:0:0:0:
475,192,171235,128,0,171450:0:0:0:0:
402,192,171450,128,0,171664:0:0:0:0:
329,192,171664,128,0,171878:0:0:0:0:
36,192,171878,128,0,172200:0:0:0:0:
182,192,172200,128,0,172521:0:0:0:0:
329,192,172521,128,0,172842:0:0:0:0:
475,192,172950,128,0,173164:0:0:0:0:
182,192,173164,128,0,173378:0:0:0:0:
256,192,173378,128,0,173592:0:0:0:0:
475,192,173592,128,0,173914:0:0:0:0:
36,192,173914,128,0,174235:0:0:0:0:
475,192,174235,128,0,174557:0:0:0:0:
36,192,174664,128,0,174878:0:0:0:0:
109,192,174878,128,0,175092:0:0:0:0:
182,192,175092,128,0,175307:0:0:0:0:
475,192,175307,128,0,175628:0:0:0:0:
36,192,175628,128,0,175950:0:0:0:0:
475,192,175950,128,0,176271:0:0:0:0:
36,192,176378,128,0,176592:0:0:0:0:
329,192,176592,128,0,176807:0:0:0:0:
256,192,176807,128,0,177021:0:0:0:0:
36,192,177021,128,0,179378:0:0:0:0:
402,192,179378,128,0,179807:0:0:0:0:
329,192,179807,128,0,180235:0:0:0:0:
256,192,180235,128,0,180664:0:0:0:0:
36,192,180664,128,0,181092:0:0:0:0:
109,192,181092,128,0,181414:0:0:0:0:
256,192,181414,128,0,181735:0:0:0:0:
329,192,181735,128,0,182057:0:0:0:0:
475,192,182057,128,0,182700:0:0:0:0:
182,192,182700,128,0,183021:0:0:0:0:
402,192,183021,128,0,183878:0:0:0:0:
109,192,183878,128,0,184735:0:0:0:0:
475,192,184735,128,0,185485:0:0:0:0:
402,192,185485,128,0,186235:0:0:0:0:
109,192,186235,128,0,186771:0:0:0:0:
36,192,186771,128,0,187307:0:0:0:0:
109,192,187307,128,0,187842:0:0:0:0:
182,192,187842,128,0,188485:0:0:0:0:
329,192,188485,128,0,189342:0:0:0:0:
36,192,189342,128,0,190200:0:0:0:0:
402,192,190200,128,0,190842:0:0:0:0:
329,192,190842,128,0,191378:0:0:0:0:
109,192,191378,128,0,192342:0:0:0:0:
256,192,192235,128,0,197592:0:0:0:0:
