osu file format v14

[General]
AudioFilename: audio.mp3
AudioLeadIn: 0
PreviewTime: -1
Countdown: 0
SampleSet: None
StackLeniency: 0.7
Mode: 1
LetterboxInBreaks: 0
WidescreenStoryboard: 0

[Editor]
DistanceSpacing: 1.7
BeatDivisor: 4
GridSize: 32
TimelineZoom: 1.9

[Metadata]
Title:Rockhill
TitleUnicode:Rockhill
Artist:Beltaine
ArtistUnicode:Beltaine
Creator:Coryn
Version:Inner Oni
Source:Pump It Up PIU FIESTA 2
Tags:F2
BeatmapID:1815702
BeatmapSetID:868701

[Difficulty]
HPDrainRate:5
CircleSize:5
OverallDifficulty:5.4
ApproachRate:5
SliderMultiplier:1.4
SliderTickRate:1

[Events]
//Background and Video events
0,0,"Violin_and_Grapes_1912_ac7d715f-3c70-4793-bf07-2496dd73227e.jpg",0,0
//Break Periods
//Storyboard Layer 0 (Background)
//Storyboard Layer 1 (Fail)
//Storyboard Layer 2 (Pass)
//Storyboard Layer 3 (Foreground)
//Storyboard Sound Samples

[TimingPoints]
978,428.571428571429,4,1,0,90,1,0
14049,-103.092783505155,4,1,0,90,0,0
14263,-105.263157894737,4,1,0,90,0,0
14370,-111.111111111111,4,1,0,70,0,0
14478,-111.111111111111,4,1,0,70,0,0
16406,-100,4,1,0,90,0,1
30120,-98.0392156862745,4,1,0,90,0,0
33549,-96.1538461538461,4,1,0,90,0,0
36978,-93.4579439252336,4,1,0,90,0,0
38692,-90.9090909090909,4,1,0,90,0,0
40406,-88.4955752212389,4,1,0,90,0,0
42120,-86.2068965517241,4,1,0,90,0,0
43620,-85.4700854700855,4,1,0,90,0,0
43728,-84.7457627118644,4,1,0,90,0,0
43835,-84.0336134453781,4,1,0,90,0,0
45549,-81.9672131147541,4,1,0,90,0,0
47263,-80,4,1,0,90,0,0
49299,-80.6451612903226,4,1,0,90,0,0
49406,-81.3008130081301,4,1,0,90,0,0
49513,-81.9672131147541,4,1,0,90,0,0
49620,-82.6446280991736,4,1,0,90,0,0
49728,-83.3333333333333,4,1,0,90,0,0
49835,-84.0336134453781,4,1,0,90,0,0
49942,-84.7457627118644,4,1,0,90,0,0
50049,-85.4700854700855,4,1,0,90,0,0
50692,-100,4,1,0,80,0,0
51013,-105.263157894737,4,1,0,80,0,0
51335,-111.111111111111,4,1,0,80,0,0
64406,-100,4,1,0,65,0,1
77906,-97.5609756097561,4,1,0,65,0,1
78120,-95.2380952380952,4,1,0,75,0,0
88192,-97.5609756097561,4,1,0,75,0,0
88299,-100,4,1,0,75,0,0
88406,714.285714285714,4,1,0,90,1,0
88406,-60.9756097560976,4,1,0,50,0,0
91263,370.37037037037,4,1,0,50,1,0
91263,-117.06860220089,4,1,0,50,0,0
91633,352.941176470588,4,1,0,50,1,8
91633,-122.925629993854,4,1,0,50,0,0
91985,408.163265306122,4,1,0,50,1,8
91985,-106.112054329372,4,1,0,50,0,0
92393,333.333333333333,4,1,0,50,1,8
92393,-130.24225058609,4,1,0,50,0,0
92726,333.333333333333,4,1,0,50,1,0
92726,-130.24225058609,4,1,0,50,0,0
94059,342.857142857143,4,1,0,50,1,0
94059,-126.582278481013,4,1,0,50,0,0
94401,400,4,1,0,50,1,8
94401,-108.307159103217,4,1,0,50,0,0
96001,333.333333333333,4,1,0,50,1,0
96001,-130.24225058609,4,1,0,50,0,0
96334,387.096774193548,4,1,0,50,1,8
96334,-111.957008508733,4,1,0,50,0,0
96527,368.098159509202,4,1,0,50,1,8
96527,-117.799505242078,4,1,0,50,0,0
96895,382.165605095541,4,1,0,50,1,0
96895,-113.417262107293,4,1,0,50,0,0
97659,461.538461538462,4,1,0,50,1,0
97659,-93.7294966726029,4,1,0,50,0,0
99043,600,4,1,0,50,1,8
99043,-71.9424460431655,4,1,0,50,0,0
99193,600,4,1,0,50,1,0
99193,-71.9424460431655,4,1,0,50,0,0
100393,485.82995951417,4,1,0,50,1,8
100393,-88.6367665307569,4,1,0,50,0,0
100635,444.444444444444,4,1,0,50,1,0
100635,-97.3709834469328,4,1,0,50,0,0
101523,444.444444444444,4,1,0,50,1,0
101523,-97.3709834469328,4,1,0,50,0,0
101967,528.63436123348,4,1,0,50,1,8
101967,-101.010101010101,4,1,0,50,0,0
102231,528.63436123348,4,1,0,50,1,8
102231,-81.732733959951,4,1,0,50,0,0
102759,487.80487804878,4,1,0,50,1,0
102759,-88.6367665307569,4,1,0,50,0,0
103734,487.80487804878,4,1,0,50,1,0
103734,-88.6367665307569,4,1,0,50,0,0

[HitObjects]
326,186,978,5,0,0:0:0:0:
326,186,1085,1,0,0:0:0:0:
182,189,1192,1,8,0:0:0:0:
182,189,1299,1,8,0:0:0:0:
182,189,1406,1,8,0:0:0:0:
176,160,1513,1,0,0:0:0:0:
313,69,1620,1,8,0:0:0:0:
313,69,1728,1,8,0:0:0:0:
313,69,1835,1,0,0:0:0:0:
313,69,1942,1,8,0:0:0:0:
313,69,2049,1,8,0:0:0:0:
313,69,2156,1,0,0:0:0:0:
313,69,2263,1,8,0:0:0:0:
313,69,2478,1,0,0:0:0:0:
313,69,2692,1,0,0:0:0:0:
313,69,2799,1,0,0:0:0:0:
313,69,2906,1,8,0:0:0:0:
313,69,3013,1,0,0:0:0:0:
313,69,3120,1,8,0:0:0:0:
252,99,3228,1,8,0:0:0:0:
252,99,3335,1,0,0:0:0:0:
252,99,3442,1,8,0:0:0:0:
252,99,3549,1,0,0:0:0:0:
252,99,3763,1,8,0:0:0:0:
252,99,3978,1,8,0:0:0:0:
252,99,4192,1,0,0:0:0:0:
226,172,4406,1,8,0:0:0:0:
226,172,4513,1,8,0:0:0:0:
226,172,4620,1,0,0:0:0:0:
226,172,4728,1,8,0:0:0:0:
226,172,4835,1,0,0:0:0:0:
226,172,4942,1,8,0:0:0:0:
226,172,5049,1,0,0:0:0:0:
226,172,5156,1,0,0:0:0:0:
226,172,5263,1,8,0:0:0:0:
226,172,5370,1,0,0:0:0:0:
226,172,5478,1,8,0:0:0:0:
226,172,5585,1,8,0:0:0:0:
226,172,5692,1,0,0:0:0:0:
226,172,5906,1,8,0:0:0:0:
226,172,6120,1,8,0:0:0:0:
226,172,6228,1,0,0:0:0:0:
226,172,6335,1,8,0:0:0:0:
226,172,6442,1,8,0:0:0:0:
226,172,6549,1,0,0:0:0:0:
226,172,6656,1,8,0:0:0:0:
226,172,6763,1,0,0:0:0:0:
226,172,6870,1,0,0:0:0:0:
226,172,6978,1,8,0:0:0:0:
226,172,7192,1,0,0:0:0:0:
226,172,7406,1,0,0:0:0:0:
226,172,7620,1,8,0:0:0:0:
221,184,7835,1,0,0:0:0:0:
442,178,7942,1,0,0:0:0:0:
442,178,8049,1,8,0:0:0:0:
442,178,8156,1,0,0:0:0:0:
442,178,8263,1,8,0:0:0:0:
442,178,8370,1,0,0:0:0:0:
442,178,8478,1,8,0:0:0:0:
442,178,8585,1,8,0:0:0:0:
147,216,8692,1,0,0:0:0:0:
220,236,8799,1,0,0:0:0:0:
220,236,8906,1,8,0:0:0:0:
220,236,9013,1,0,0:0:0:0:
220,236,9120,1,8,0:0:0:0:
220,236,9335,1,0,0:0:0:0:
221,184,9549,1,0,0:0:0:0:
220,236,9656,1,8,0:0:0:0:
220,236,9763,1,0,0:0:0:0:
220,236,9870,1,8,0:0:0:0:
220,236,9978,1,8,0:0:0:0:
220,236,10085,1,8,0:0:0:0:
220,236,10192,1,0,0:0:0:0:
220,236,10299,1,8,0:0:0:0:
167,187,10406,1,0,0:0:0:0:
167,187,10620,1,8,0:0:0:0:
167,187,10835,1,8,0:0:0:0:
167,187,11049,1,0,0:0:0:0:
221,184,11263,1,8,0:0:0:0:
220,236,11370,1,0,0:0:0:0:
220,236,11478,1,0,0:0:0:0:
220,236,11585,1,8,0:0:0:0:
220,236,11692,1,0,0:0:0:0:
220,236,11799,1,8,0:0:0:0:
220,236,11906,1,8,0:0:0:0:
220,236,12013,1,0,0:0:0:0:
220,236,12120,1,8,0:0:0:0:
220,236,12228,1,0,0:0:0:0:
220,236,12335,1,8,0:0:0:0:
220,236,12442,1,8,0:0:0:0:
220,236,12549,1,8,0:0:0:0:
206,160,12763,1,0,0:0:0:0:
221,184,12978,1,8,0:0:0:0:
301,181,13085,1,0,0:0:0:0:
301,181,13192,1,8,0:0:0:0:
301,181,13299,1,8,0:0:0:0:
301,181,13406,1,0,0:0:0:0:
301,181,13513,1,8,0:0:0:0:
301,181,13620,1,0,0:0:0:0:
301,181,13728,1,0,0:0:0:0:
167,114,13835,1,8,0:0:0:0:
229,102,14049,1,0,0:0:0:0:
221,184,14263,1,0,0:0:0:0:
221,184,14478,1,8,0:0:0:0:
221,184,14585,1,8,0:0:0:0:
221,184,14692,1,0,0:0:0:0:
451,265,14906,1,0,0:0:0:0:
451,265,15013,1,0,0:0:0:0:
451,265,15120,1,8,0:0:0:0:
451,265,15228,1,0,0:0:0:0:
451,265,15335,1,8,0:0:0:0:
451,265,15442,1,0,0:0:0:0:
451,265,15549,1,0,0:0:0:0:
451,265,15656,1,8,0:0:0:0:
451,265,15763,1,8,0:0:0:0:
451,265,15870,1,8,0:0:0:0:
451,265,15978,1,0,0:0:0:0:
150,250,16406,1,0,0:0:0:0:
150,250,16513,1,8,0:0:0:0:
150,250,16620,1,8,0:0:0:0:
150,250,16728,1,8,0:0:0:0:
150,250,16835,1,0,0:0:0:0:
150,250,16942,1,8,0:0:0:0:
150,250,17049,1,8,0:0:0:0:
150,250,17156,1,0,0:0:0:0:
150,250,17263,1,8,0:0:0:0:
214,218,17370,1,8,0:0:0:0:
214,218,17478,1,8,0:0:0:0:
214,218,17585,1,0,0:0:0:0:
214,218,17692,1,8,0:0:0:0:
442,280,17906,1,0,0:0:0:0:
442,280,18013,1,8,0:0:0:0:
442,280,18120,1,8,0:0:0:0:
442,280,18335,1,8,0:0:0:0:
442,280,18442,1,0,0:0:0:0:
442,280,18549,1,0,0:0:0:0:
442,280,18656,1,8,0:0:0:0:
442,280,18763,1,0,0:0:0:0:
442,280,18870,1,8,0:0:0:0:
442,280,18978,1,8,0:0:0:0:
442,280,19085,1,8,0:0:0:0:
442,280,19192,1,0,0:0:0:0:
442,280,19299,1,0,0:0:0:0:
442,280,19406,1,8,0:0:0:0:
442,280,19620,1,0,0:0:0:0:
442,280,19728,1,8,0:0:0:0:
442,280,19835,1,8,0:0:0:0:
442,280,20049,1,8,0:0:0:0:
442,280,20156,1,8,0:0:0:0:
442,280,20263,1,0,0:0:0:0:
442,280,20370,1,0,0:0:0:0:
442,280,20478,1,8,0:0:0:0:
442,280,20585,1,0,0:0:0:0:
442,280,20692,1,8,0:0:0:0:
442,280,20799,1,8,0:0:0:0:
442,280,20906,1,8,0:0:0:0:
442,280,21013,1,0,0:0:0:0:
442,280,21120,1,8,0:0:0:0:
442,280,21335,1,8,0:0:0:0:
442,280,21442,1,0,0:0:0:0:
442,280,21549,1,8,0:0:0:0:
442,280,21620,1,0,0:0:0:0:
191,140,21692,1,0,0:0:0:0:
442,280,21763,1,8,0:0:0:0:
433,90,21870,1,0,0:0:0:0:
433,90,21978,1,8,0:0:0:0:
433,90,22085,1,8,0:0:0:0:
433,90,22192,1,8,0:0:0:0:
433,90,22299,1,0,0:0:0:0:
206,154,22406,1,8,0:0:0:0:
206,154,22513,1,0,0:0:0:0:
206,154,22620,1,8,0:0:0:0:
206,154,22728,1,0,0:0:0:0:
206,154,22835,1,8,0:0:0:0:
208,183,22942,1,0,0:0:0:0:
66,148,23049,1,0,0:0:0:0:
66,148,23156,1,8,0:0:0:0:
66,148,23263,1,0,0:0:0:0:
66,148,23370,1,8,0:0:0:0:
66,148,23478,1,8,0:0:0:0:
66,148,23585,1,8,0:0:0:0:
66,148,23692,1,0,0:0:0:0:
71,154,23799,1,0,0:0:0:0:
71,154,23906,1,8,0:0:0:0:
71,154,24013,1,8,0:0:0:0:
200,122,24120,1,0,0:0:0:0:
200,122,24228,1,8,0:0:0:0:
200,122,24335,1,0,0:0:0:0:
200,122,24442,1,0,0:0:0:0:
200,122,24549,1,8,0:0:0:0:
200,122,24763,1,0,0:0:0:0:
200,122,24870,1,8,0:0:0:0:
200,122,24978,1,8,0:0:0:0:
200,122,25192,1,0,0:0:0:0:
200,122,25299,1,8,0:0:0:0:
200,122,25406,1,0,0:0:0:0:
200,122,25513,1,0,0:0:0:0:
200,122,25620,1,8,0:0:0:0:
200,122,25728,1,0,0:0:0:0:
200,122,25835,1,8,0:0:0:0:
238,138,25906,1,0,0:0:0:0:
200,122,25978,1,0,0:0:0:0:
200,122,26049,1,0,0:0:0:0:
200,122,26156,1,8,0:0:0:0:
200,122,26263,1,0,0:0:0:0:
448,187,26478,1,0,0:0:0:0:
448,187,26585,1,8,0:0:0:0:
448,187,26692,1,8,0:0:0:0:
340,183,26906,1,8,0:0:0:0:
340,183,27013,1,0,0:0:0:0:
340,183,27120,1,0,0:0:0:0:
322,148,27228,1,8,0:0:0:0:
287,120,27335,1,0,0:0:0:0:
287,120,27442,1,8,0:0:0:0:
287,120,27549,1,0,0:0:0:0:
287,120,27656,1,8,0:0:0:0:
287,120,27763,1,8,0:0:0:0:
287,120,27870,1,0,0:0:0:0:
287,120,27978,1,8,0:0:0:0:
287,120,28192,1,8,0:0:0:0:
276,175,28299,1,0,0:0:0:0:
276,175,28406,1,8,0:0:0:0:
229,143,28478,1,0,0:0:0:0:
229,143,28549,1,0,0:0:0:0:
229,143,28620,1,8,0:0:0:0:
256,122,28728,1,0,0:0:0:0:
256,122,28835,1,8,0:0:0:0:
256,122,28942,1,8,0:0:0:0:
256,122,29049,1,0,0:0:0:0:
256,122,29156,1,8,0:0:0:0:
259,131,29263,1,8,0:0:0:0:
259,131,29370,1,0,0:0:0:0:
294,174,29478,1,0,0:0:0:0:
294,174,29549,1,8,0:0:0:0:
294,174,29620,1,8,0:0:0:0:
294,174,29692,1,0,0:0:0:0:
259,131,30120,1,12,0:0:0:0:
396,99,30335,5,0,0:0:0:0:
396,99,30442,1,0,0:0:0:0:
396,99,30549,1,8,0:0:0:0:
396,99,30656,1,0,0:0:0:0:
396,99,30763,1,8,0:0:0:0:
396,99,30870,1,8,0:0:0:0:
396,99,30978,1,0,0:0:0:0:
165,125,31192,1,8,0:0:0:0:
165,125,31299,1,0,0:0:0:0:
165,125,31406,1,8,0:0:0:0:
165,125,31513,1,0,0:0:0:0:
165,125,31620,1,8,0:0:0:0:
165,125,31728,1,8,0:0:0:0:
165,125,31835,1,0,0:0:0:0:
165,125,32049,1,0,0:0:0:0:
165,125,32156,1,8,0:0:0:0:
165,125,32263,1,8,0:0:0:0:
165,125,32370,1,0,0:0:0:0:
165,125,32478,1,8,0:0:0:0:
165,125,32585,1,8,0:0:0:0:
165,125,32692,1,0,0:0:0:0:
300,122,32763,1,8,0:0:0:0:
300,122,32835,1,0,0:0:0:0:
288,127,32906,1,8,0:0:0:0:
238,122,33013,1,0,0:0:0:0:
238,122,33120,1,8,0:0:0:0:
238,122,33335,1,0,0:0:0:0:
238,122,33549,1,12,0:0:0:0:
252,111,33763,1,0,0:0:0:0:
252,111,33870,1,8,0:0:0:0:
252,111,33978,1,8,0:0:0:0:
252,111,34085,1,0,0:0:0:0:
252,111,34192,1,8,0:0:0:0:
252,111,34299,1,8,0:0:0:0:
252,111,34406,1,0,0:0:0:0:
75,143,34620,1,8,0:0:0:0:
75,143,34728,1,8,0:0:0:0:
75,143,34835,1,0,0:0:0:0:
75,143,34942,1,8,0:0:0:0:
75,143,35049,1,8,0:0:0:0:
250,172,35156,1,0,0:0:0:0:
250,172,35263,1,8,0:0:0:0:
250,172,35478,1,0,0:0:0:0:
250,172,35585,1,0,0:0:0:0:
250,172,35692,1,8,0:0:0:0:
250,172,35799,1,0,0:0:0:0:
250,172,35906,1,8,0:0:0:0:
250,172,36013,1,8,0:0:0:0:
370,96,36120,1,8,0:0:0:0:
370,96,36192,1,0,0:0:0:0:
370,96,36263,1,0,0:0:0:0:
281,203,36335,1,8,0:0:0:0:
399,239,36442,1,0,0:0:0:0:
399,239,36549,1,8,0:0:0:0:
399,239,36763,1,8,0:0:0:0:
399,239,36978,1,4,0:0:0:0:
206,160,37192,1,0,0:0:0:0:
206,160,37299,1,8,0:0:0:0:
206,160,37406,1,0,0:0:0:0:
206,160,37513,1,8,0:0:0:0:
206,160,37620,1,8,0:0:0:0:
206,160,37728,1,0,0:0:0:0:
366,90,37835,1,0,0:0:0:0:
366,90,37906,1,8,0:0:0:0:
366,90,37978,1,8,0:0:0:0:
366,90,38049,1,0,0:0:0:0:
238,180,38156,1,0,0:0:0:0:
238,180,38263,1,8,0:0:0:0:
238,180,38478,1,8,0:0:0:0:
238,180,38692,1,4,0:0:0:0:
364,224,38906,1,8,0:0:0:0:
364,224,39013,1,0,0:0:0:0:
364,224,39120,1,8,0:0:0:0:
364,224,39228,1,0,0:0:0:0:
364,224,39335,1,8,0:0:0:0:
364,224,39442,1,8,0:0:0:0:
440,127,39549,1,8,0:0:0:0:
440,127,39620,1,0,0:0:0:0:
440,127,39692,1,8,0:0:0:0:
440,127,39763,1,0,0:0:0:0:
153,213,39870,1,0,0:0:0:0:
153,213,39978,1,8,0:0:0:0:
153,213,40192,1,8,0:0:0:0:
153,213,40406,1,12,0:0:0:0:
153,213,40620,1,8,0:0:0:0:
153,213,40728,1,0,0:0:0:0:
153,213,40835,1,0,0:0:0:0:
153,213,40942,1,8,0:0:0:0:
153,213,41049,1,0,0:0:0:0:
153,213,41156,1,8,0:0:0:0:
314,157,41263,1,8,0:0:0:0:
314,157,41335,1,0,0:0:0:0:
314,157,41406,1,0,0:0:0:0:
314,157,41478,1,8,0:0:0:0:
466,37,41585,1,0,0:0:0:0:
466,37,41692,1,8,0:0:0:0:
466,37,41906,1,8,0:0:0:0:
466,37,42120,1,12,0:0:0:0:
306,189,42335,1,0,0:0:0:0:
306,189,42442,1,8,0:0:0:0:
306,189,42549,1,8,0:0:0:0:
133,143,42656,1,0,0:0:0:0:
133,143,42763,1,8,0:0:0:0:
133,143,42870,1,0,0:0:0:0:
133,143,42978,1,8,0:0:0:0:
300,113,43049,1,8,0:0:0:0:
300,113,43120,1,0,0:0:0:0:
300,113,43192,1,0,0:0:0:0:
364,160,43299,1,8,0:0:0:0:
364,160,43406,1,0,0:0:0:0:
364,160,43513,1,0,0:0:0:0:
364,160,43620,1,8,0:0:0:0:
364,160,43728,1,0,0:0:0:0:
364,160,43835,1,8,0:0:0:0:
364,160,44049,1,8,0:0:0:0:
226,192,44156,1,8,0:0:0:0:
226,192,44263,1,8,0:0:0:0:
226,192,44370,1,0,0:0:0:0:
145,133,44478,1,8,0:0:0:0:
145,133,44585,1,8,0:0:0:0:
273,180,44692,1,8,0:0:0:0:
285,82,44763,1,8,0:0:0:0:
285,82,44835,1,0,0:0:0:0:
285,82,44906,1,8,0:0:0:0:
393,58,45049,1,0,0:0:0:0:
393,58,45120,1,8,0:0:0:0:
422,213,45335,1,8,0:0:0:0:
422,213,45549,1,4,0:0:0:0:
477,321,45763,1,8,0:0:0:0:
477,321,45870,1,0,0:0:0:0:
477,321,45978,1,8,0:0:0:0:
477,321,46085,1,0,0:0:0:0:
477,321,46192,1,8,0:0:0:0:
477,321,46299,1,8,0:0:0:0:
422,145,46406,1,8,0:0:0:0:
422,145,46478,1,8,0:0:0:0:
422,145,46549,1,0,0:0:0:0:
422,145,46620,1,0,0:0:0:0:
335,270,46763,1,0,0:0:0:0:
335,270,46835,1,8,0:0:0:0:
34,180,47049,1,8,0:0:0:0:
381,225,47263,1,4,0:0:0:0:
381,225,47478,1,0,0:0:0:0:
381,225,47585,1,8,0:0:0:0:
381,225,47692,1,8,0:0:0:0:
498,138,47799,1,0,0:0:0:0:
381,225,47906,1,8,0:0:0:0:
407,178,48013,1,8,0:0:0:0:
407,178,48120,1,8,0:0:0:0:
329,99,48192,1,8,0:0:0:0:
329,99,48263,1,0,0:0:0:0:
329,99,48335,1,8,0:0:0:0:
258,202,48442,1,0,0:0:0:0:
258,202,48549,1,8,0:0:0:0:
466,268,48656,1,8,0:0:0:0:
466,268,48763,1,0,0:0:0:0:
466,268,48870,1,8,0:0:0:0:
425,163,48978,1,8,0:0:0:0:
425,163,49049,1,0,0:0:0:0:
425,163,49120,1,0,0:0:0:0:
425,163,49192,1,8,0:0:0:0:
475,117,49299,1,0,0:0:0:0:
475,117,49406,1,8,0:0:0:0:
475,117,49513,1,8,0:0:0:0:
475,117,49620,1,0,0:0:0:0:
475,117,49728,1,8,0:0:0:0:
475,117,49835,1,0,0:0:0:0:
475,117,49942,1,0,0:0:0:0:
475,117,50049,1,8,0:0:0:0:
384,122,50192,1,8,0:0:0:0:
384,122,50263,1,0,0:0:0:0:
250,134,50692,1,8,0:0:0:0:
276,131,51013,1,0,0:0:0:0:
378,183,51120,1,8,0:0:0:0:
314,125,51335,1,8,0:0:0:0:
276,131,51549,1,8,0:0:0:0:
314,125,51656,1,0,0:0:0:0:
276,131,51870,1,0,0:0:0:0:
378,183,51978,1,8,0:0:0:0:
305,90,52192,1,0,0:0:0:0:
349,231,52406,1,8,0:0:0:0:
349,231,52728,1,8,0:0:0:0:
378,183,52835,1,0,0:0:0:0:
349,231,53049,1,0,0:0:0:0:
305,90,53478,1,8,0:0:0:0:
349,231,53692,1,0,0:0:0:0:
305,90,53906,1,8,0:0:0:0:
349,231,54120,1,8,0:0:0:0:
349,231,54442,1,0,0:0:0:0:
378,183,54549,1,8,0:0:0:0:
378,183,54763,1,8,0:0:0:0:
349,231,54978,1,8,0:0:0:0:
378,183,55085,1,0,0:0:0:0:
349,231,55299,1,0,0:0:0:0:
378,183,55406,1,8,0:0:0:0:
305,90,55620,1,0,0:0:0:0:
349,231,55835,1,8,0:0:0:0:
349,231,56156,1,8,0:0:0:0:
378,183,56263,1,8,0:0:0:0:
349,231,56478,1,0,0:0:0:0:
378,183,56906,1,8,0:0:0:0:
349,231,57120,1,0,0:0:0:0:
305,90,57335,1,0,0:0:0:0:
349,231,57549,1,8,0:0:0:0:
349,231,57870,1,0,0:0:0:0:
305,90,57978,1,8,0:0:0:0:
305,90,58192,1,8,0:0:0:0:
349,231,58406,1,8,0:0:0:0:
305,90,58513,1,0,0:0:0:0:
349,231,58728,1,0,0:0:0:0:
305,90,58835,1,0,0:0:0:0:
305,90,59049,1,0,0:0:0:0:
349,231,59263,1,8,0:0:0:0:
349,231,59585,1,8,0:0:0:0:
305,90,59692,1,0,0:0:0:0:
349,231,59906,1,0,0:0:0:0:
305,90,60335,1,8,0:0:0:0:
349,231,60549,1,0,0:0:0:0:
305,90,60763,1,8,0:0:0:0:
349,231,60978,1,8,0:0:0:0:
349,231,61299,1,0,0:0:0:0:
305,90,61406,1,0,0:0:0:0:
305,90,61620,1,0,0:0:0:0:
349,231,61835,1,8,0:0:0:0:
305,90,61942,1,8,0:0:0:0:
349,231,62156,1,0,0:0:0:0:
305,90,62263,1,8,0:0:0:0:
305,90,62478,1,0,0:0:0:0:
349,231,62692,1,8,0:0:0:0:
349,231,63013,1,8,0:0:0:0:
305,90,63120,1,8,0:0:0:0:
349,231,63335,1,8,0:0:0:0:
30,105,63549,1,8,0:0:0:0:
30,105,63656,1,0,0:0:0:0:
30,105,63870,1,0,0:0:0:0:
258,256,63978,1,8,0:0:0:0:
326,186,64406,5,8,0:0:0:0:
27,143,64478,1,8,0:0:0:0:
326,186,64549,1,8,0:0:0:0:
182,189,64620,1,0,0:0:0:0:
182,189,64728,1,8,0:0:0:0:
182,189,64835,1,8,0:0:0:0:
176,160,64942,1,0,0:0:0:0:
313,69,65049,1,8,0:0:0:0:
313,69,65156,1,8,0:0:0:0:
313,69,65263,1,0,0:0:0:0:
313,69,65370,1,8,0:0:0:0:
313,69,65478,1,8,0:0:0:0:
313,69,65585,1,0,0:0:0:0:
313,69,65692,1,8,0:0:0:0:
313,69,65906,1,0,0:0:0:0:
313,69,66120,1,0,0:0:0:0:
313,69,66228,1,0,0:0:0:0:
313,69,66335,1,8,0:0:0:0:
313,69,66442,1,0,0:0:0:0:
313,69,66549,1,8,0:0:0:0:
252,99,66656,1,8,0:0:0:0:
252,99,66763,1,0,0:0:0:0:
252,99,66870,1,8,0:0:0:0:
252,99,66978,1,8,0:0:0:0:
30,105,67085,1,0,0:0:0:0:
252,99,67192,1,8,0:0:0:0:
30,105,67299,1,0,0:0:0:0:
252,99,67406,1,8,0:0:0:0:
252,99,67620,1,0,0:0:0:0:
226,172,67835,1,8,0:0:0:0:
226,172,67942,1,0,0:0:0:0:
226,172,68049,1,8,0:0:0:0:
226,172,68156,1,8,0:0:0:0:
226,172,68263,1,0,0:0:0:0:
226,172,68370,1,8,0:0:0:0:
226,172,68478,1,0,0:0:0:0:
226,172,68585,1,0,0:0:0:0:
226,172,68692,1,8,0:0:0:0:
226,172,68799,1,0,0:0:0:0:
226,172,68906,1,8,0:0:0:0:
226,172,69013,1,8,0:0:0:0:
226,172,69120,1,0,0:0:0:0:
226,172,69335,1,8,0:0:0:0:
226,172,69549,1,8,0:0:0:0:
226,172,69656,1,0,0:0:0:0:
226,172,69763,1,8,0:0:0:0:
226,172,69870,1,8,0:0:0:0:
226,172,69978,1,0,0:0:0:0:
226,172,70085,1,8,0:0:0:0:
226,172,70192,1,8,0:0:0:0:
226,172,70299,1,0,0:0:0:0:
226,172,70406,1,0,0:0:0:0:
30,105,70513,1,8,0:0:0:0:
226,172,70620,1,8,0:0:0:0:
30,105,70728,1,0,0:0:0:0:
226,172,70835,1,8,0:0:0:0:
226,172,71049,1,0,0:0:0:0:
221,184,71263,1,0,0:0:0:0:
442,178,71370,1,0,0:0:0:0:
442,178,71478,1,8,0:0:0:0:
442,178,71585,1,8,0:0:0:0:
442,178,71692,1,0,0:0:0:0:
442,178,71799,1,8,0:0:0:0:
442,178,71906,1,0,0:0:0:0:
442,178,72013,1,0,0:0:0:0:
147,216,72120,1,8,0:0:0:0:
220,236,72228,1,8,0:0:0:0:
220,236,72335,1,0,0:0:0:0:
220,236,72442,1,0,0:0:0:0:
220,236,72549,1,8,0:0:0:0:
220,236,72763,1,8,0:0:0:0:
221,184,72978,1,0,0:0:0:0:
220,236,73085,1,8,0:0:0:0:
220,236,73192,1,0,0:0:0:0:
220,236,73299,1,8,0:0:0:0:
220,236,73406,1,8,0:0:0:0:
220,236,73513,1,8,0:0:0:0:
220,236,73620,1,0,0:0:0:0:
220,236,73728,1,8,0:0:0:0:
167,187,73835,1,0,0:0:0:0:
30,105,73942,1,0,0:0:0:0:
167,187,74049,1,8,0:0:0:0:
30,105,74156,1,8,0:0:0:0:
167,187,74263,1,8,0:0:0:0:
167,187,74478,1,0,0:0:0:0:
221,184,74692,1,0,0:0:0:0:
220,236,74799,1,8,0:0:0:0:
220,236,74906,1,0,0:0:0:0:
220,236,75013,1,8,0:0:0:0:
220,236,75120,1,8,0:0:0:0:
220,236,75228,1,0,0:0:0:0:
220,236,75335,1,8,0:0:0:0:
220,236,75442,1,0,0:0:0:0:
220,236,75549,1,8,0:0:0:0:
220,236,75656,1,8,0:0:0:0:
220,236,75763,1,0,0:0:0:0:
220,236,75870,1,0,0:0:0:0:
220,236,75978,1,8,0:0:0:0:
206,160,76192,1,0,0:0:0:0:
221,184,76406,1,8,0:0:0:0:
301,181,76513,1,0,0:0:0:0:
301,181,76620,1,8,0:0:0:0:
301,181,76728,1,8,0:0:0:0:
301,181,76835,1,0,0:0:0:0:
301,181,76942,1,8,0:0:0:0:
301,181,77049,1,0,0:0:0:0:
301,181,77156,1,0,0:0:0:0:
167,114,77263,1,8,0:0:0:0:
211,90,77370,1,0,0:0:0:0:
229,102,77478,1,0,0:0:0:0:
211,90,77585,1,8,0:0:0:0:
221,184,77692,1,0,0:0:0:0:
221,184,77906,1,8,0:0:0:0:
221,184,78120,1,0,0:0:0:0:
451,265,78335,1,8,0:0:0:0:
451,265,78442,1,8,0:0:0:0:
451,265,78549,1,0,0:0:0:0:
451,265,78656,1,0,0:0:0:0:
451,265,78763,1,8,0:0:0:0:
451,265,78870,1,0,0:0:0:0:
451,265,78978,1,8,0:0:0:0:
211,76,79049,1,8,0:0:0:0:
451,265,79120,1,0,0:0:0:0:
451,265,79192,1,8,0:0:0:0:
181,174,79299,1,0,0:0:0:0:
451,265,79406,1,8,0:0:0:0:
325,169,79620,1,8,0:0:0:0:
325,169,79728,1,0,0:0:0:0:
325,169,79835,1,8,0:0:0:0:
325,169,80049,1,0,0:0:0:0:
325,169,80156,1,8,0:0:0:0:
325,169,80263,1,8,0:0:0:0:
325,169,80370,1,0,0:0:0:0:
325,169,80478,1,8,0:0:0:0:
325,169,80585,1,0,0:0:0:0:
325,169,80692,1,8,0:0:0:0:
211,76,80763,1,0,0:0:0:0:
325,169,80835,1,0,0:0:0:0:
453,288,80906,1,8,0:0:0:0:
453,288,81013,1,0,0:0:0:0:
453,288,81120,1,8,0:0:0:0:
325,169,81335,1,8,0:0:0:0:
325,169,81442,1,0,0:0:0:0:
325,169,81549,1,8,0:0:0:0:
325,169,81763,1,8,0:0:0:0:
325,169,81870,1,8,0:0:0:0:
325,169,81978,1,0,0:0:0:0:
325,169,82085,1,0,0:0:0:0:
325,169,82192,1,8,0:0:0:0:
325,169,82299,1,0,0:0:0:0:
281,145,82406,1,8,0:0:0:0:
453,288,82478,1,8,0:0:0:0:
453,288,82549,1,0,0:0:0:0:
453,288,82620,1,8,0:0:0:0:
51,158,82728,1,0,0:0:0:0:
325,169,82835,1,8,0:0:0:0:
363,208,83049,1,0,0:0:0:0:
363,208,83156,1,8,0:0:0:0:
363,208,83263,1,8,0:0:0:0:
363,208,83335,1,0,0:0:0:0:
424,92,83406,1,0,0:0:0:0:
363,208,83478,1,8,0:0:0:0:
390,39,83585,1,0,0:0:0:0:
390,39,83692,1,8,0:0:0:0:
390,39,83799,1,0,0:0:0:0:
390,39,83906,1,0,0:0:0:0:
390,39,84013,1,0,0:0:0:0:
390,39,84120,1,8,0:0:0:0:
390,39,84228,1,0,0:0:0:0:
390,39,84335,1,0,0:0:0:0:
340,148,84406,1,8,0:0:0:0:
340,148,84478,1,8,0:0:0:0:
340,148,84549,1,0,0:0:0:0:
328,153,84656,1,0,0:0:0:0:
328,153,84763,1,8,0:0:0:0:
328,153,84870,1,8,0:0:0:0:
328,153,84978,1,0,0:0:0:0:
328,153,85085,1,8,0:0:0:0:
328,153,85192,1,8,0:0:0:0:
328,153,85299,1,0,0:0:0:0:
328,153,85406,1,0,0:0:0:0:
328,153,85513,1,8,0:0:0:0:
328,153,85620,1,0,0:0:0:0:
328,153,85728,1,8,0:0:0:0:
216,116,85835,1,8,0:0:0:0:
216,116,85906,1,8,0:0:0:0:
216,116,85978,1,0,0:0:0:0:
216,116,86049,1,0,0:0:0:0:
328,153,86156,1,0,0:0:0:0:
129,137,86263,1,8,0:0:0:0:
313,86,86478,1,0,0:0:0:0:
313,86,86585,1,8,0:0:0:0:
313,86,86692,1,8,0:0:0:0:
255,107,86906,1,8,0:0:0:0:
255,107,87013,1,0,0:0:0:0:
255,107,87120,1,8,0:0:0:0:
255,107,87228,1,0,0:0:0:0:
255,107,87335,1,8,0:0:0:0:
255,107,87442,1,8,0:0:0:0:
129,137,87549,1,0,0:0:0:0:
129,137,87620,1,8,0:0:0:0:
129,137,87692,1,0,0:0:0:0:
129,137,87763,1,8,0:0:0:0:
313,86,87870,1,0,0:0:0:0:
313,86,87978,1,8,0:0:0:0:
214,144,88192,1,8,0:0:0:0:
214,144,88299,1,8,0:0:0:0:
181,173,88406,2,0,L|254:143,12,54.9500002096176
292,127,90906,1,8,0:0:0:0:
466,229,91263,1,0,0:0:0:0:
466,229,91633,1,8,0:0:0:0:
466,229,91985,1,8,0:0:0:0:
466,229,92393,1,0,0:0:0:0:
466,229,92726,1,0,0:0:0:0:
466,229,93059,1,8,0:0:0:0:
284,107,93392,1,8,0:0:0:0:
284,107,93726,1,8,0:0:0:0:
284,107,93809,1,0,0:0:0:0:
284,107,94059,1,0,0:0:0:0:
284,107,94401,1,8,0:0:0:0:
284,107,95201,1,0,0:0:0:0:
284,107,95601,1,8,0:0:0:0:
176,156,96001,1,8,0:0:0:0:
176,156,96334,1,0,0:0:0:0:
176,156,96527,1,8,0:0:0:0:
176,156,96895,1,8,0:0:0:0:
176,156,97277,1,0,0:0:0:0:
176,156,97659,1,8,0:0:0:0:
176,156,98120,1,8,0:0:0:0:
176,156,98582,1,0,0:0:0:0:
176,156,98928,1,0,0:0:0:0:
176,156,99043,1,8,0:0:0:0:
176,156,99193,1,0,0:0:0:0:
220,138,99793,1,8,0:0:0:0:
220,138,100635,1,0,0:0:0:0:
220,138,101523,1,8,0:0:0:0:
220,138,102231,1,0,0:0:0:0:
220,138,102759,1,8,0:0:0:0:
256,192,103734,12,0,107636,0:0:0:0:
