osu file format v14

[General]
AudioFilename: audio.mp3
AudioLeadIn: 0
PreviewTime: 16406
Countdown: 0
SampleSet: Normal
StackLeniency: 0.7
Mode: 0
LetterboxInBreaks: 0
WidescreenStoryboard: 0

[Editor]
Bookmarks: 978,1299,1620,2049,2263,2692,3013,3335,3763,3978,4406,7835,14692,15978,16406,28406,28835,29692,30120,36978,43835,48978,49406,50263,50692,52406,52728,53049,55835,56156,56478,59263,59585,59906,62692,63013,63335,64406,78120,88406
DistanceSpacing: 1.7
BeatDivisor: 4
GridSize: 8
TimelineZoom: 1

[Metadata]
Title:Rockhill
TitleUnicode:Rockhill
Artist:Beltaine
ArtistUnicode:Beltaine
Creator:404 AccNotFound
Version:404 STD
Source:Pump It Up PIU Fiesta
Tags:
BeatmapID:1448016
BeatmapSetID:684217

[Difficulty]
HPDrainRate:5
CircleSize:4.3
OverallDifficulty:7
ApproachRate:8.4
SliderMultiplier:2.8
SliderTickRate:1

[Events]
//Background and Video events
0,0,"Axis.Powers-.Hetalia.full.568942.jpg",0,0
//Break Periods
//Storyboard Layer 0 (Background)
//Storyboard Layer 1 (Fail)
//Storyboard Layer 2 (Pass)
//Storyboard Layer 3 (Foreground)
//Storyboard Sound Samples

[TimingPoints]
978,428.571428571429,4,1,0,55,1,0
16406,-100,4,1,0,55,0,0
30335,-142.857142857143,4,1,0,55,0,0
30978,-100,4,1,0,55,0,0
32049,-142.857142857143,4,1,0,55,0,0
32692,-100,4,1,0,55,0,0
33763,-142.857142857143,4,1,0,55,0,0
34406,-100,4,1,0,55,0,0
35478,-142.857142857143,4,1,0,55,0,0
36120,-100,4,1,0,55,0,0
37192,-142.857142857143,4,1,0,55,0,0
37835,-100,4,1,0,55,0,0
38906,-142.857142857143,4,1,0,55,0,0
39549,-100,4,1,0,55,0,0
40620,-142.857142857143,4,1,0,55,0,0
41263,-100,4,1,0,55,0,0
42335,-142.857142857143,4,1,0,55,0,0
42978,-100,4,1,0,55,0,0
88406,714.285714285714,4,1,0,55,1,0
91263,370.37037037037,4,1,0,55,1,0
91633,352.941176470588,4,1,0,55,1,0
91985,408.163265306122,4,1,0,55,1,0
92393,333.333333333333,4,1,0,55,1,0
92726,333.333333333333,4,1,0,55,1,0
94059,342.857142857143,4,1,0,55,1,0
94401,400,4,1,0,55,1,0
96001,333.333333333333,4,1,0,55,1,0
96334,387.096774193548,4,1,0,55,1,0
96527,368.098159509202,4,1,0,55,1,0
96895,382.165605095541,4,1,0,55,1,0
97659,461.538461538462,4,1,0,55,1,0
99043,600,4,1,0,55,1,0
99193,600,4,1,0,55,1,0
100393,485.82995951417,4,1,0,55,1,0
100635,444.444444444444,4,1,0,55,1,0
101523,444.444444444444,4,1,0,55,1,0
101967,528.63436123348,4,1,0,55,1,0
102231,528.63436123348,4,1,0,55,1,0
102759,487.80487804878,4,1,0,55,1,0
103734,487.80487804878,4,1,0,55,1,0

[Colours]
Combo1 : 128,0,64
Combo2 : 74,74,255
Combo3 : 128,128,255
Combo4 : 147,0,147
Combo5 : 255,134,255

[HitObjects]
224,88,978,5,0,0:0:0:0:
80,224,1299,1,0,0:0:0:0:
272,288,1620,1,0,0:0:0:0:
272,288,2049,1,0,0:0:0:0:
304,144,2263,1,8,0:0:0:0:
312,152,2692,5,0,0:0:0:0:
136,264,3013,1,0,0:0:0:0:
152,80,3335,1,0,0:0:0:0:
152,88,3763,1,0,0:0:0:0:
296,64,3978,1,8,0:0:0:0:
296,64,4406,5,0,0:0:0:0:
208,248,4728,1,0,0:0:0:0:
424,208,5049,1,0,0:0:0:0:
424,208,5478,1,0,0:0:0:0:
376,336,5692,1,8,0:0:0:0:
376,336,6120,5,0,0:0:0:0:
208,296,6442,1,0,0:0:0:0:
328,184,6763,1,0,0:0:0:0:
328,184,7192,1,0,0:0:0:0:
288,72,7406,1,8,0:0:0:0:
112,296,7835,6,0,B|168:272|264:304|264:304|320:216,1,209.999992847443,0|0,0:0|0:0,0:0:0:0:
296,264,8263,1,8,0:0:0:0:
256,192,8478,5,0,0:0:0:0:
280,184,8585,1,0,0:0:0:0:
376,280,8692,1,0,0:0:0:0:
368,256,8799,1,0,0:0:0:0:
440,192,8906,1,0,0:0:0:0:
256,192,9120,6,0,B|272:168|303:173|303:173|347:221|420:203,1,139.999995231629,8|0,0:0|0:0,0:0:0:0:
120,80,9549,6,0,B|129:128|192:128|256:56|256:56|272:72|329:72,1,209.999992847443,0|0,0:0|0:0,0:0:0:0:
296,64,9978,1,8,0:0:0:0:
352,176,10192,5,0,0:0:0:0:
344,192,10299,1,0,0:0:0:0:
336,208,10406,2,0,L|160:248,1,139.999995231629,0|0,0:0|0:0,0:0:0:0:
16,200,10835,2,0,L|136:80,1,139.999995231629,8|0,0:0|0:0,0:0:0:0:
224,104,11263,6,0,B|281:124|291:243|291:243|360:208,1,209.999992847443,0|0,0:3|0:3,0:3:0:0:
336,224,11692,1,8,0:0:0:0:
360,160,11906,5,0,0:0:0:0:
384,176,12013,1,0,0:0:0:0:
464,224,12120,1,0,0:0:0:0:
432,232,12228,1,0,0:0:0:0:
456,152,12335,1,0,0:0:0:0:
360,152,12549,6,0,B|322:116|322:116|264:143|204:98,1,139.999995231629,8|0,0:0|0:0,0:0:0:0:
160,112,12978,6,0,B|176:208|248:200|296:200|296:200|272:272,1,209.999992847443,0|0,0:0|0:0,0:0:0:0:
287,225,13406,1,8,0:0:0:0:
432,264,13620,5,0,0:0:0:0:
424,288,13728,1,0,0:0:0:0:
416,312,13835,2,0,L|240:352,1,139.999995231629,0|0,0:0|0:0,0:0:0:0:
80,296,14263,2,0,L|200:176,1,139.999995231629,8|0,0:0|0:0,0:0:0:0:
256,192,14692,12,0,15978,0:0:0:0:
176,80,16406,6,0,L|248:64,1,69.9999976158143,4|0,0:0|0:0,0:0:0:0:
296,192,16620,2,0,L|232:136,1,69.9999976158143,0|8,0:0|0:0,0:0:0:0:
72,232,16835,1,0,0:0:0:0:
144,176,16942,1,0,0:0:0:0:
144,320,17049,2,0,L|176:248,1,69.9999976158143,0|0,0:0|0:0,0:0:0:0:
296,304,17263,5,0,0:0:0:0:
280,296,17370,1,0,0:0:0:0:
408,264,17478,1,0,0:0:0:0:
400,280,17585,1,0,0:0:0:0:
376,176,17692,1,8,0:0:0:0:
248,112,17906,5,0,0:0:0:0:
248,96,18013,1,0,0:0:0:0:
247,79,18120,2,0,L|191:215,1,139.999995231629
194,209,18442,1,8,0:0:0:0:
256,280,18549,6,0,L|336:232,1,69.9999976158143
408,192,18763,2,0,L|392:288,1,69.9999976158143,0|0,0:0|0:0,0:0:0:0:
328,112,18978,5,0,0:0:0:0:
352,80,19085,1,0,0:0:0:0:
184,56,19192,1,0,0:0:0:0:
216,80,19299,1,0,0:0:0:0:
80,72,19406,1,8,0:0:0:0:
96,216,19620,5,0,0:0:0:0:
96,216,19728,1,0,0:0:0:0:
87,295,19835,2,0,L|255:247,1,139.999995231629
222,257,20156,1,8,0:0:0:0:
280,192,20263,2,0,L|336:264,1,69.9999976158143,0|0,0:0|0:0,0:0:0:0:
336,336,20478,2,0,L|240:328,1,69.9999976158143,0|0,0:0|0:0,0:0:0:0:
424,256,20692,5,0,0:0:0:0:
440,248,20799,1,0,0:0:0:0:
424,136,20906,1,0,0:0:0:0:
416,152,21013,1,0,0:0:0:0:
328,88,21120,1,8,0:0:0:0:
144,80,21335,5,0,0:0:0:0:
144,80,21442,1,0,0:0:0:0:
80,112,21549,2,0,P|63:130|56:152,2,46.6666650772095,0|0|0,0:0|0:0|0:0,0:0:0:0:
128,168,21763,2,0,L|160:232,1,69.9999976158143,0|8,0:0|0:0,0:0:0:0:
224,160,21978,2,0,L|304:136,1,69.9999976158143,0|0,0:0|0:0,0:0:0:0:
320,280,22192,2,0,L|264:232,1,69.9999976158143,0|0,0:0|0:0,0:0:0:0:
360,192,22406,5,0,0:0:0:0:
368,208,22513,1,0,0:0:0:0:
440,104,22620,5,0,0:0:0:0:
432,120,22728,1,0,0:0:0:0:
320,56,22835,5,8,0:0:0:0:
296,48,22942,1,0,0:0:0:0:
272,40,23049,1,0,0:0:0:0:
248,32,23156,1,0,0:0:0:0:
224,24,23263,2,0,L|240:112,1,69.9999976158143,0|0,0:0|0:0,0:0:0:0:
328,144,23478,2,0,L|224:192,1,69.9999976158143,0|8,0:0|0:0,0:0:0:0:
168,144,23692,1,0,0:0:0:0:
136,120,23799,1,0,0:0:0:0:
104,288,23906,2,0,L|120:208,1,69.9999976158143
216,304,24120,5,0,0:0:0:0:
232,296,24228,1,0,0:0:0:0:
368,264,24335,1,0,0:0:0:0:
376,280,24442,1,0,0:0:0:0:
440,160,24549,1,8,0:0:0:0:
312,72,24763,5,0,0:0:0:0:
312,72,24870,1,0,0:0:0:0:
176,112,24978,2,0,L|328:152,1,139.999995231629,0|0,0:0|0:0,0:0:0:0:
311,147,25299,1,8,0:0:0:0:
232,280,25406,2,0,L|200:192,1,69.9999976158143,0|0,0:0|0:0,0:0:0:0:
400,280,25620,2,0,L|304:336,1,69.9999976158143,0|0,0:0|0:0,0:0:0:0:
320,216,25835,5,0,0:0:0:0:
344,224,25942,1,0,0:0:0:0:
432,128,26049,1,0,0:0:0:0:
440,152,26156,1,0,0:0:0:0:
352,88,26263,1,8,0:0:0:0:
48,168,26478,5,0,0:0:0:0:
72,152,26585,1,0,0:0:0:0:
96,136,26692,2,0,L|72:280,1,139.999995231629,0|0,0:0|0:0,0:0:0:0:
72,274,27013,1,8,0:0:0:0:
160,232,27120,2,0,L|208:296,1,69.9999976158143,0|0,0:0|0:0,0:0:0:0:
256,208,27335,2,0,L|288:128,1,69.9999976158143,0|0,0:0|0:0,0:0:0:0:
192,136,27549,5,0,0:0:0:0:
200,112,27656,1,0,0:0:0:0:
336,56,27763,1,0,0:0:0:0:
312,48,27870,1,0,0:0:0:0:
281,143,27978,1,8,0:0:0:0:
408,224,28192,5,0,0:0:0:0:
392,256,28299,1,0,0:0:0:0:
376,288,28406,2,8,L|296:288,3,46.6666650772095
192,232,28835,5,4,0:0:0:0:
256,192,28942,12,0,29478,0:0:0:0:
352,88,29692,5,8,0:0:0:0:
152,112,30120,5,4,0:0:0:0:
200,272,30335,6,0,L|152:232,1,48.9999968357087,0|8,0:0|0:0,0:0:0:0:
320,248,30549,1,0,0:0:0:0:
336,216,30656,1,0,0:0:0:0:
352,184,30763,1,0,0:0:0:0:
368,152,30870,1,0,0:0:0:0:
384,112,30978,2,0,L|240:144,1,146.999990507126
240,143,31299,1,0,0:0:0:0:
160,128,31406,5,8,0:0:0:0:
152,112,31513,1,0,0:0:0:0:
72,208,31620,1,0,0:0:0:0:
88,192,31728,1,0,0:0:0:0:
104,320,31835,5,0,0:0:0:0:
236,275,32049,6,0,L|256:352,1,48.9999968357087,0|8,0:0|0:0,0:0:0:0:
368,328,32263,1,0,0:0:0:0:
384,288,32370,1,0,0:0:0:0:
400,248,32478,1,0,0:0:0:0:
416,208,32585,1,0,0:0:0:0:
432,168,32692,2,0,L|344:192,2,46.6666650772095,0|0|0,0:0|0:0|0:0,0:0:0:0:
368,104,32906,2,0,L|384:24,1,69.9999976158143,0|0,0:0|0:0,0:0:0:0:
456,80,33120,1,8,0:0:0:0:
456,80,33335,1,0,0:0:0:0:
264,160,33549,5,0,0:0:0:0:
128,112,33763,6,0,L|112:168,1,48.9999968357087,0|8,0:0|0:0,0:0:0:0:
80,288,33978,1,0,0:0:0:0:
120,280,34085,1,0,0:0:0:0:
152,272,34192,1,0,0:0:0:0:
192,264,34299,1,0,0:0:0:0:
224,256,34406,2,0,L|80:216,1,139.999995231629
89,218,34728,1,0,0:0:0:0:
112,136,34835,5,8,0:0:0:0:
136,128,34942,1,0,0:0:0:0:
256,168,35049,1,0,0:0:0:0:
240,160,35156,1,0,0:0:0:0:
392,120,35263,5,0,0:0:0:0:
424,288,35478,6,0,L|408:240,1,48.9999968357087,0|8,0:0|0:0,0:0:0:0:
272,328,35692,1,0,0:0:0:0:
240,320,35799,1,0,0:0:0:0:
208,312,35906,1,0,0:0:0:0:
176,304,36013,1,0,0:0:0:0:
216,216,36120,6,0,L|160:232,2,46.6666650772095
288,248,36335,2,0,L|304:128,1,69.9999976158143
224,136,36549,1,8,0:0:0:0:
224,136,36763,1,0,0:0:0:0:
88,168,36978,5,0,0:0:0:0:
168,280,37192,6,0,L|184:224,1,48.9999968357087
256,336,37406,1,0,0:0:0:0:
288,320,37513,1,0,0:0:0:0:
320,304,37620,1,8,0:0:0:0:
352,288,37728,1,0,0:0:0:0:
264,216,37835,6,0,L|320:224,2,46.6666650772095
224,152,38049,2,0,L|160:200,1,69.9999976158143
304,144,38263,1,8,0:0:0:0:
304,144,38478,1,0,0:0:0:0:
416,72,38692,5,0,0:0:0:0:
400,216,38906,6,0,L|432:176,1,48.9999968357087
440,312,39120,1,0,0:0:0:0:
400,320,39228,1,0,0:0:0:0:
360,328,39335,1,8,0:0:0:0:
320,336,39442,1,0,0:0:0:0:
376,248,39549,6,0,L|424:264,2,46.6666650772095
328,192,39763,2,0,L|288:264,1,69.9999976158143
408,176,39978,1,8,0:0:0:0:
408,176,40192,1,0,0:0:0:0:
288,88,40406,5,0,0:0:0:0:
176,152,40620,6,0,L|144:112,1,48.9999968357087
56,200,40835,1,0,0:0:0:0:
64,232,40942,1,0,0:0:0:0:
72,264,41049,1,8,0:0:0:0:
80,296,41156,1,0,0:0:0:0:
160,224,41263,6,0,L|168:168,2,46.6666650772095
208,288,41478,2,0,L|312:240,1,69.9999976158143
240,192,41692,1,8,0:0:0:0:
240,192,41906,1,0,0:0:0:0:
336,104,42120,5,0,0:0:0:0:
456,200,42335,6,0,L|408:216,1,48.9999968357087
360,336,42549,1,0,0:0:0:0:
336,312,42656,1,0,0:0:0:0:
312,288,42763,1,8,0:0:0:0:
288,264,42870,1,0,0:0:0:0:
360,184,42978,6,0,L|296:208,2,46.6666650772095
440,192,43192,2,0,L|424:280,1,69.9999976158143
408,120,43406,5,8,0:0:0:0:
368,104,43513,1,0,0:0:0:0:
328,88,43620,1,0,0:0:0:0:
288,72,43728,1,0,0:0:0:0:
248,56,43835,2,0,L|160:200,1,139.999995231629,8|0,0:0|0:0,0:0:0:0:
128,48,44156,1,0,0:0:0:0:
96,120,44263,6,0,L|24:160,1,69.9999976158143
152,264,44478,2,8,L|96:208,1,69.9999976158143,8|0,0:0|0:0,0:0:0:0:
174,175,44692,6,0,L|246:159,2,46.6666650772095
102,214,44906,2,0,L|158:270,1,69.9999976158143
240,240,45120,1,8,0:0:0:0:
240,240,45335,1,0,0:0:0:0:
304,328,45549,6,8,L|400:176,1,139.999995231629,8|0,0:0|0:0,0:0:0:0:
240,248,45870,1,0,0:0:0:0:
288,112,45978,2,0,L|296:200,1,69.9999976158143
376,128,46192,2,0,L|440:80,1,69.9999976158143,8|0,0:0|0:0,0:0:0:0:
344,48,46406,6,0,L|288:32,2,46.6666650772095
288,112,46620,2,0,L|296:200,1,69.9999976158143
376,128,46835,1,8,0:0:0:0:
376,128,47049,1,0,0:0:0:0:
192,80,47263,6,0,L|144:264,1,140,8|0,0:0|0:0,0:0:0:0:
88,168,47585,1,0,0:0:0:0:
80,240,47692,2,0,L|144:288,1,70
224,200,47906,2,0,L|128:232,1,70,8|0,0:0|0:0,0:0:0:0:
216,280,48120,6,0,L|264:312,2,46.6666666666667
136,282,48335,2,0,L|96:378,1,70
224,328,48549,5,8,0:0:0:0:
256,304,48656,1,0,0:0:0:0:
288,280,48763,1,0,0:0:0:0:
320,256,48870,1,0,0:0:0:0:
264,168,48978,6,8,L|240:216,2,46.6666666666667
320,112,49192,2,0,L|360:192,1,70
248,96,49406,1,4,0:0:0:0:
248,96,50263,5,8,0:0:0:0:
144,152,50692,6,0,P|120:96|160:152,1,209.999992847443
304,272,51549,6,0,P|280:328|320:272,1,209.999992847443
176,216,52406,6,8,B|184:208|192:216|184:224|176:216,1,17.4999994039536
280,136,52728,6,8,B|288:128|296:136|288:144|280:136,1,17.4999994039536
304,264,53049,6,8,B|312:256|320:264|312:272|304:264,1,17.4999994039536
352,152,53692,1,8,0:0:0:0:
352,152,54120,6,0,P|376:96|336:152,1,209.999992847443
192,272,54978,6,0,P|216:328|176:272,1,209.999992847443
320,216,55835,6,8,B|312:208|304:216|312:224|320:216,1,17.4999994039536
216,136,56156,6,8,B|208:128|200:136|208:144|216:136,1,17.4999994039536
192,264,56478,6,8,B|184:256|176:264|184:272|192:264,1,17.4999994039536
192,264,57120,1,8,0:0:0:0:
416,128,57549,6,0,P|336:144|400:104,1,210
144,320,58407,6,0,P|192:256|128:296,1,210
80,144,59264,6,8,B|72:136|64:144|72:152|80:144,1,17.4999994039536
208,120,59585,6,8,B|200:112|192:120|200:128|208:120,1,17.4999994039536
336,96,59906,6,8,B|328:88|320:96|328:104|336:96,1,23.3333333333333
336,96,60549,1,8,0:0:0:0:
336,240,60978,6,0,P|304:304|360:248,1,210
88,264,61835,6,0,P|56:200|104:256,1,210
296,312,62692,6,8,B|288:304|280:312|288:320|296:312,1,17.4999994039536
344,224,63013,6,8,B|336:216|328:224|336:232|344:224,1,17.4999994039536
392,136,63334,6,8,B|384:128|376:136|384:144|392:136,1,23.3333333333333
392,136,63978,1,8,0:0:0:0:
240,56,64406,6,0,L|192:144,1,70,8|0,0:0|0:0,0:0:0:0:
64,112,64620,2,0,L|144:88,1,70
184,232,64835,2,0,L|136:152,1,70
96,328,65049,2,0,L|104:256,1,70,8|0,0:0|0:0,0:0:0:0:
256,304,65263,2,0,L|168:336,1,70
328,232,65478,2,0,L|240:200,1,70
328,128,65692,5,8,0:0:0:0:
328,128,65906,1,0,0:0:0:0:
400,48,66120,6,0,L|432:160,1,70,8|0,0:0|0:0,0:0:0:0:
464,208,66335,2,0,L|496:120,1,70
312,232,66549,2,0,L|400:192,1,70
448,320,66763,2,0,L|368:264,1,70,8|0,0:0|0:0,0:0:0:0:
256,352,66978,2,0,L|344:344,1,70
208,216,67192,2,0,L|208:296,1,70
312,232,67406,5,8,0:0:0:0:
312,232,67620,1,0,0:0:0:0:
280,96,67835,6,0,L|184:136,1,70,8|0,0:0|0:0,0:0:0:0:
136,192,68049,2,0,L|144:112,1,70
216,192,68263,2,0,L|232:288,1,70
80,256,68478,2,0,L|168:272,1,70,8|0,0:0|0:0,0:0:0:0:
0,320,68692,2,0,L|16:232,1,70
96,176,68906,2,0,L|0:184,1,70
152,128,69120,5,8,0:0:0:0:
152,128,69335,1,0,0:0:0:0:
400,96,69549,6,0,L|304:128,1,70,8|0,0:0|0:0,0:0:0:0:
256,168,69763,2,0,L|336:200,1,70
376,264,69978,2,0,L|400:168,1,70
456,264,70192,2,0,L|480:352,1,70,8|0,0:0|0:0,0:0:0:0:
312,344,70406,2,0,L|400:336,1,70
272,256,70620,2,0,L|216:336,1,70
256,168,70835,5,8,0:0:0:0:
256,168,71049,1,0,0:0:0:0:
216,80,71263,6,0,L|96:104,1,70,8|0,0:0|0:0,0:0:0:0:
139,234,71478,2,0,L|168:144,1,70
48,120,71692,2,0,L|72:192,1,70
0,288,71906,2,0,L|80:256,1,70,8|0,0:0|0:0,0:0:0:0:
176,336,72120,2,0,L|80:320,1,70
224,232,72335,2,0,L|264:304,1,70
144,232,72549,5,8,0:0:0:0:
144,232,72763,1,0,0:0:0:0:
200,120,72978,6,0,L|304:80,1,70,8|0,0:0|0:0,0:0:0:0:
344,200,73192,2,0,L|264:168,1,70
336,48,73406,2,0,L|352:136,1,70
416,160,73620,2,0,L|438:77,1,70,8|0,0:0|0:0,0:0:0:0:
512,256,73835,2,0,L|480:184,1,70
352,280,74049,2,0,L|432:256,1,70
344,200,74263,5,8,0:0:0:0:
344,200,74478,1,0,0:0:0:0:
144,336,74692,6,0,L|192:216,1,70,8|0,0:0|0:0,0:0:0:0:
64,216,74906,2,0,L|80:304,1,70
216,184,75120,2,0,L|120:208,1,70
56,112,75335,2,0,L|160:136,1,70,8|0,0:0|0:0,0:0:0:0:
224,48,75549,2,0,L|192:128,1,70
296,176,75763,2,0,L|280:96,1,70
216,184,75978,5,8,0:0:0:0:
216,184,76192,1,0,0:0:0:0:
433,149,76406,6,0,L|337:189,1,70,8|0,0:0|0:0,0:0:0:0:
289,245,76620,2,0,L|297:165,1,70
369,245,76834,2,0,L|385:341,1,70
233,309,77049,2,0,L|321:325,1,70,8|0,0:0|0:0,0:0:0:0:
200,224,77263,2,0,L|104:272,1,70
80,336,77478,2,0,L|40:232,1,70
152,344,77692,6,0,B|168:344|168:344|160:344|160:344|160:328|160:328|160:336|160:336|168:336|168:336|152:336|152:328|168:328|168:328|144:352|144:320|176:320|176:352|144:344|176:344|160:320|160:352|176:328|144:336|152:320|168:352|144:328|152:352|168:320|176:336,1,140,8|0,0:0|0:0,0:0:0:0:
120,152,78120,5,4,0:0:0:0:
376,152,78335,6,0,L|296:184,1,70,0|8,0:0|0:0,0:0:0:0:
272,72,78549,1,0,0:0:0:0:
304,88,78656,1,0,0:0:0:0:
208,216,78763,2,0,L|232:136,1,70
328,280,78978,1,0,0:0:0:0:
336,272,79085,1,0,0:0:0:0:
208,312,79192,1,0,0:0:0:0:
216,328,79299,1,0,0:0:0:0:
104,288,79406,1,8,0:0:0:0:
176,88,79620,5,0,0:0:0:0:
192,80,79728,1,0,0:0:0:0:
208,72,79835,2,0,L|184:224,1,140
186,210,80156,1,8,0:0:0:0:
304,232,80263,2,0,L|208:304,1,70
152,304,80478,2,0,L|208:352,1,70
296,344,80692,5,0,0:0:0:0:
304,328,80799,1,0,0:0:0:0:
400,272,80906,1,0,0:0:0:0:
408,288,81013,1,0,0:0:0:0:
448,184,81120,1,8,0:0:0:0:
336,96,81335,5,0,0:0:0:0:
336,96,81442,1,0,0:0:0:0:
136,96,81549,2,0,L|288:40,1,140
267,47,81870,1,8,0:0:0:0:
248,136,81978,6,0,L|320:192,1,70
384,232,82192,2,0,L|376:144,1,70
296,272,82406,5,0,0:0:0:0:
288,264,82513,1,0,0:0:0:0:
168,296,82620,1,0,0:0:0:0:
160,304,82728,1,0,0:0:0:0:
64,240,82835,1,8,0:0:0:0:
168,192,83049,5,0,0:0:0:0:
168,192,83156,1,0,0:0:0:0:
112,112,83263,2,0,L|96:160,2,46.6666666666667
168,56,83478,2,0,L|200:128,1,70,0|8,0:0|0:0,0:0:0:0:
304,144,83692,2,0,L|232:192,1,70
264,64,83906,2,0,L|368:72,1,70
416,136,84120,5,0,0:0:0:0:
384,208,84228,1,0,0:0:0:0:
312,291,84335,2,0,L|288:240,2,46.6666666666667
208,296,84549,5,8,0:0:0:0:
176,280,84656,1,0,0:0:0:0:
144,264,84763,1,0,0:0:0:0:
112,248,84870,1,0,0:0:0:0:
80,232,84978,2,0,L|80:328,1,70,4|0,0:0|0:0,0:0:0:0:
8,336,85192,2,0,L|8:256,1,70,0|8,0:0|0:0,0:0:0:0:
72,152,85406,6,0,L|0:176,1,70
48,64,85620,2,0,L|160:88,1,70
160,176,85835,5,0,0:0:0:0:
168,160,85942,1,0,0:0:0:0:
280,104,86049,1,0,0:0:0:0:
288,120,86156,1,0,0:0:0:0:
400,160,86263,1,8,0:0:0:0:
352,288,86478,5,0,0:0:0:0:
352,288,86585,1,0,0:0:0:0:
288,232,86692,2,0,L|144:304,1,140
162,294,87013,1,8,0:0:0:0:
72,320,87120,6,0,L|56:240,1,70
136,160,87335,2,0,L|128:240,1,70
64,128,87549,5,0,0:0:0:0:
72,112,87656,1,0,0:0:0:0:
168,72,87763,1,0,0:0:0:0:
176,88,87870,1,0,0:0:0:0:
272,64,87978,1,8,0:0:0:0:
256,248,88192,6,0,L|256:160,1,70
256,192,88406,12,0,90548,0:0:0:0:
160,320,91263,5,0,0:0:0:0:
216,96,91633,1,0,0:0:0:0:
136,112,91985,1,0,0:0:0:0:
384,256,92393,1,0,0:0:0:0:
416,176,92726,1,0,0:0:0:0:
88,160,93059,1,0,0:0:0:0:
112,104,93392,1,0,0:0:0:0:
232,216,93726,1,0,0:0:0:0:
256,264,94059,1,0,0:0:0:0:
384,112,94401,1,0,0:0:0:0:
280,192,95201,5,0,0:0:0:0:
280,192,95601,1,0,0:0:0:0:
184,320,96001,5,0,0:0:0:0:
112,136,96334,2,0,L|112:288,1,140
288,104,96895,1,0,0:0:0:0:
320,144,97277,1,0,0:0:0:0:
120,168,97659,5,0,0:0:0:0:
104,208,98120,1,0,0:0:0:0:
96,232,98582,1,0,0:0:0:0:
88,248,99043,2,0,L|120:272,2,35
344,136,99793,5,0,0:0:0:0:
96,224,100635,1,0,0:0:0:0:
96,224,101523,5,0,0:0:0:0:
96,184,102231,1,0,0:0:0:0:
96,168,102759,1,0,0:0:0:0:
256,192,103734,12,0,108124,0:0:0:0:
