osu file format v14

[General]
AudioFilename: audio.mp3
AudioLeadIn: 0
PreviewTime: 82427
Countdown: 0
SampleSet: Soft
StackLeniency: 0.4
Mode: 0
LetterboxInBreaks: 0
WidescreenStoryboard: 1

[Editor]
Bookmarks: 19285,38485,43285,52885,62477,71927,80477,82877,100877,120077,129527,139127,148877,151277,158477,168077,172877,177677,182477,187277,206477,224477,225677,233677,241676,249676,257676,273676,281676,289676
DistanceSpacing: 1.5
BeatDivisor: 3
GridSize: 32
TimelineZoom: 1.1

[Metadata]
Title:Minuscule
TitleUnicode:Minuscule
Artist:Belmont
ArtistUnicode:Belmont
Creator:Sharkie
Version:Subsided
Source:
Tags:
BeatmapID:1608651
BeatmapSetID:765052

[Difficulty]
HPDrainRate:5
CircleSize:4.3
OverallDifficulty:9
ApproachRate:9.6
SliderMultiplier:1.7
SliderTickRate:1

[Events]
//Background and Video events
0,0,"forest.jpg",0,0
//Break Periods
2,207277,210168
2,211776,214818
2,216577,219768
2,221377,223968
//Storyboard Layer 0 (Background)
//Storyboard Layer 1 (Fail)
//Storyboard Layer 2 (Pass)
//Storyboard Layer 3 (Foreground)
//Storyboard Layer 4 (Overlay)
//Storyboard Sound Samples

[TimingPoints]
85,300,4,2,3,80,1,0
85,-166.666666666667,4,2,3,80,0,0
310,-166.666666666667,4,2,3,5,0,0
385,-166.666666666667,4,2,2,80,0,0
685,-166.666666666667,4,2,7,80,0,0
835,-166.666666666667,4,2,3,80,0,0
1285,-166.666666666667,4,2,7,80,0,0
1435,-166.666666666667,4,2,3,80,0,0
1735,-166.666666666667,4,2,3,50,0,0
1885,-166.666666666667,4,2,7,80,0,0
2035,-166.666666666667,4,2,3,80,0,0
2485,-166.666666666667,4,2,7,80,0,0
2635,-166.666666666667,4,2,3,80,0,0
3685,-166.666666666667,4,2,7,80,0,0
3985,-166.666666666667,4,2,3,80,0,0
4135,-111.111111111111,4,2,3,80,0,0
4885,-166.666666666667,4,2,3,80,0,0
5110,-166.666666666667,4,2,3,5,0,0
5185,-166.666666666667,4,2,2,80,0,0
5485,-166.666666666667,4,2,7,80,0,0
5635,-166.666666666667,4,2,3,80,0,0
6085,-166.666666666667,4,2,7,80,0,0
6235,-166.666666666667,4,2,3,80,0,0
6535,-166.666666666667,4,2,3,50,0,0
6685,-166.666666666667,4,2,7,80,0,0
6835,-166.666666666667,4,2,3,80,0,0
7285,-166.666666666667,4,2,7,80,0,0
7435,-166.666666666667,4,2,3,80,0,0
8485,-166.666666666667,4,2,7,80,0,0
8785,-166.666666666667,4,2,3,80,0,0
8935,-111.111111111111,4,2,3,80,0,0
9310,-166.666666666667,4,2,3,80,0,0
9910,-166.666666666667,4,2,3,5,0,0
9985,-166.666666666667,4,2,2,80,0,0
10285,-166.666666666667,4,2,7,80,0,0
10435,-166.666666666667,4,2,3,80,0,0
10885,-166.666666666667,4,2,7,80,0,0
11035,-166.666666666667,4,2,3,80,0,0
11485,-166.666666666667,4,2,7,80,0,0
11635,-166.666666666667,4,2,3,80,0,0
12085,-166.666666666667,4,2,7,80,0,0
12235,-166.666666666667,4,2,3,80,0,0
13285,-166.666666666667,4,2,7,80,0,0
13585,-166.666666666667,4,2,3,80,0,0
13735,-111.111111111111,4,2,3,80,0,0
14485,-166.666666666667,4,2,3,80,0,0
14710,-166.666666666667,4,2,3,5,0,0
14785,-166.666666666667,4,2,2,80,0,0
15085,-166.666666666667,4,2,7,80,0,0
15235,-166.666666666667,4,2,3,80,0,0
15685,-166.666666666667,4,2,7,80,0,0
15835,-166.666666666667,4,2,3,80,0,0
16285,-166.666666666667,4,2,7,80,0,0
16435,-166.666666666667,4,2,3,80,0,0
16885,-166.666666666667,4,2,7,80,0,0
17035,-166.666666666667,4,2,3,80,0,0
17185,-166.666666666667,4,2,3,80,0,0
17785,-111.111111111111,4,2,3,80,0,0
18085,-142.857142857143,4,2,4,80,0,0
18285,-142.857142857143,4,2,3,80,0,0
18385,-142.857142857143,4,2,4,80,0,0
18585,-142.857142857143,4,2,3,80,0,0
18985,-142.857142857143,4,2,5,80,0,0
19285,-142.857142857143,4,2,3,80,0,0
19885,-142.857142857143,4,2,2,80,0,0
20035,-142.857142857143,4,2,3,80,0,0
20485,-142.857142857143,4,2,2,80,0,0
20785,-142.857142857143,4,2,3,80,0,0
21085,-142.857142857143,4,2,2,80,0,0
21235,-142.857142857143,4,2,3,80,0,0
21685,-142.857142857143,4,2,2,80,0,0
21985,-142.857142857143,4,2,3,80,0,0
22285,-142.857142857143,4,2,2,80,0,0
22435,-142.857142857143,4,2,3,80,0,0
22885,-142.857142857143,4,2,2,80,0,0
23035,-142.857142857143,4,2,3,80,0,0
23485,-142.857142857143,4,2,2,80,0,0
23635,-142.857142857143,4,2,3,80,0,0
24085,-142.857142857143,4,2,3,80,0,0
24685,-142.857142857143,4,2,2,80,0,0
24835,-142.857142857143,4,2,3,80,0,0
25285,-142.857142857143,4,2,7,80,0,0
25585,-142.857142857143,4,2,2,80,0,0
26035,-142.857142857143,4,2,3,80,0,0
26485,-142.857142857143,4,2,2,80,0,0
26785,-142.857142857143,4,2,3,80,0,0
27085,-142.857142857143,4,2,2,80,0,0
27235,-142.857142857143,4,2,3,80,0,0
27685,-142.857142857143,4,2,2,80,0,0
27835,-142.857142857143,4,2,3,80,0,0
28285,-142.857142857143,4,2,7,80,0,0
28435,-142.857142857143,4,2,3,80,0,0
28885,-142.857142857143,4,2,3,80,0,0
29485,-142.857142857143,4,2,2,80,0,0
29635,-142.857142857143,4,2,3,80,0,0
30085,-142.857142857143,4,2,2,80,0,0
30235,-142.857142857143,4,2,3,80,0,0
30385,-142.857142857143,4,2,7,80,0,0
30685,-142.857142857143,4,2,2,80,0,0
30835,-142.857142857143,4,2,3,80,0,0
31285,-142.857142857143,4,2,2,80,0,0
31435,-142.857142857143,4,2,3,80,0,0
31885,-142.857142857143,4,2,2,80,0,0
32035,-142.857142857143,4,2,3,80,0,0
32485,-142.857142857143,4,2,2,80,0,0
32635,-142.857142857143,4,2,3,80,0,0
33085,-142.857142857143,4,2,2,80,0,0
33235,-142.857142857143,4,2,3,80,0,0
33685,-142.857142857143,4,2,3,80,0,0
34285,-142.857142857143,4,2,7,80,0,0
34435,-142.857142857143,4,2,3,80,0,0
34885,-142.857142857143,4,2,2,80,0,0
35185,-142.857142857143,4,2,7,80,0,0
35485,-142.857142857143,4,2,2,80,0,0
35635,-142.857142857143,4,2,3,80,0,0
36085,-142.857142857143,4,2,2,80,0,0
36385,-142.857142857143,4,2,3,80,0,0
36685,-142.857142857143,4,2,2,80,0,0
36835,-142.857142857143,4,2,3,80,0,0
37285,-142.857142857143,4,2,2,80,0,0
37435,-142.857142857143,4,2,3,80,0,0
37885,-111.111111111111,4,2,3,80,0,0
38035,-111.111111111111,4,2,4,80,0,0
38335,-111.111111111111,4,2,3,80,0,0
38935,-111.111111111111,4,2,7,80,0,0
39085,-111.111111111111,4,2,3,80,0,0
39385,-111.111111111111,4,2,7,80,0,0
39535,-111.111111111111,4,2,3,80,0,0
39685,-111.111111111111,4,2,7,80,0,0
39835,-111.111111111111,4,2,3,80,0,0
40135,-111.111111111111,4,2,7,80,0,0
40285,-111.111111111111,4,2,3,80,0,0
40585,-111.111111111111,4,2,7,80,0,0
40735,-111.111111111111,4,2,3,80,0,0
41035,-100,4,2,4,80,0,0
41185,-100,4,2,3,80,0,0
41335,-100,4,2,4,80,0,0
41485,-100,4,2,3,80,0,0
41635,-100,4,2,4,80,0,0
41785,-100,4,2,3,80,0,0
41935,-100,4,2,4,80,0,0
42085,-100,4,2,3,80,0,0
42285,-100,4,2,4,80,0,0
42685,-100,4,2,3,80,0,0
42985,-100,4,2,5,80,0,0
43285,-100,4,2,3,80,0,0
43435,-100,4,2,7,80,0,0
43585,-100,4,2,3,80,0,0
43735,-100,4,2,7,80,0,0
43885,-100,4,2,3,80,0,0
44035,-100,4,2,7,80,0,0
44185,-100,4,2,3,80,0,0
44335,-100,4,2,7,80,0,0
44485,-100,4,2,3,80,0,0
44635,-100,4,2,7,80,0,0
44785,-100,4,2,3,80,0,0
44935,-100,4,2,7,80,0,0
45085,-100,4,2,3,80,0,0
45235,-100,4,2,7,80,0,0
45385,-100,4,2,3,80,0,0
45535,-100,4,2,7,80,0,0
45685,-100,4,2,3,80,0,0
45835,-100,4,2,7,80,0,0
45985,-100,4,2,3,80,0,0
46135,-100,4,2,7,80,0,0
46285,-100,4,2,3,80,0,0
46435,-100,4,2,7,80,0,0
46585,-100,4,2,3,80,0,0
46735,-100,4,2,7,80,0,0
46885,-100,4,2,3,80,0,0
47035,-100,4,2,7,80,0,0
47185,-100,4,2,3,80,0,0
47335,-100,4,2,7,80,0,0
47485,-100,4,2,3,80,0,0
47635,-100,4,2,7,80,0,0
47710,-100,4,2,3,80,0,0
47935,-100,4,2,7,80,0,0
48010,-100,4,2,3,80,0,0
48235,-100,4,2,7,80,0,0
48385,-100,4,2,3,80,0,0
48535,-100,4,2,7,80,0,0
48685,-100,4,2,3,80,0,0
48835,-100,4,2,7,80,0,0
48985,-100,4,2,3,80,0,0
49135,-100,4,2,7,80,0,0
49285,-100,4,2,3,80,0,0
49435,-100,4,2,7,80,0,0
49585,-100,4,2,3,80,0,0
49735,-100,4,2,7,80,0,0
49885,-100,4,2,3,80,0,0
50035,-100,4,2,7,80,0,0
50185,-100,4,2,3,80,0,0
50335,-100,4,2,7,80,0,0
50485,-100,4,2,3,80,0,0
50635,-100,4,2,7,80,0,0
50785,-100,4,2,3,80,0,0
50935,-100,4,2,7,80,0,0
51085,-100,4,2,3,80,0,0
51685,-100,4,2,5,80,0,0
51835,-100,4,2,3,80,0,0
51985,-100,4,2,4,80,0,0
52135,-100,4,2,3,80,0,0
52435,-100,4,2,4,80,0,0
52735,-100,4,2,3,80,0,0
53035,-100,4,2,7,80,0,0
53185,-100,4,2,3,80,0,0
53335,-100,4,2,7,80,0,0
53485,-100,4,2,3,80,0,0
53635,-100,4,2,7,80,0,0
53785,-100,4,2,3,80,0,0
53935,-100,4,2,7,80,0,0
54085,-100,4,2,3,80,0,0
54235,-100,4,2,7,80,0,0
54385,-100,4,2,3,80,0,0
54535,-100,4,2,7,80,0,0
54685,-100,4,2,3,80,0,0
54835,-100,4,2,7,80,0,0
54985,-100,4,2,3,80,0,0
55135,-100,4,2,7,80,0,0
55285,-100,4,2,3,80,0,0
55435,-100,4,2,7,80,0,0
55585,-100,4,2,3,80,0,0
55735,-100,4,2,7,80,0,0
55885,-100,4,2,3,80,0,0
56035,-100,4,2,7,80,0,0
56185,-100,4,2,3,80,0,0
56335,-100,4,2,7,80,0,0
56485,-100,4,2,3,80,0,0
56635,-100,4,2,7,80,0,0
56785,-100,4,2,3,80,0,0
56935,-100,4,2,7,80,0,0
57085,-100,4,2,3,80,0,0
57235,-100,4,2,7,80,0,0
57385,-100,4,2,3,80,0,0
57535,-100,4,2,7,80,0,0
57685,-100,4,2,3,80,0,0
57835,-100,4,2,7,80,0,0
57985,-100,4,2,3,80,0,0
58135,-100,4,2,7,80,0,0
58285,-100,4,2,3,80,0,0
58435,-100,4,2,7,80,0,0
58585,-100,4,2,3,80,0,0
58735,-100,4,2,7,80,0,0
58885,-100,4,2,3,80,0,0
59035,-100,4,2,7,80,0,0
59185,-100,4,2,3,80,0,0
59335,-100,4,2,7,80,0,0
59485,-100,4,2,3,80,0,0
59635,-100,4,2,7,80,0,0
59785,-100,4,2,3,80,0,0
59935,-100,4,2,7,80,0,0
60085,-100,4,2,3,80,0,0
60235,-100,4,2,7,80,0,0
60385,-100,4,2,3,80,0,0
60535,-100,4,2,7,80,0,0
60685,-100,4,2,3,80,0,0
60835,-100,4,2,7,80,0,0
60985,-100,4,2,3,80,0,0
61585,-100,4,2,4,80,0,0
61885,-100,4,2,3,80,0,0
62335,-100,4,2,4,80,0,0
62410,269.058295964126,4,2,4,80,1,0
62477,300,4,2,3,80,1,0
62777,-100,4,2,7,80,0,0
63227,-100,4,2,3,80,0,0
63377,-100,4,2,7,80,0,0
63527,-100,4,2,3,80,0,0
63977,-100,4,2,7,80,0,0
64127,-100,4,2,3,80,0,0
64277,-100,4,2,7,80,0,0
64427,-100,4,2,3,80,0,0
64577,-125,4,2,7,80,0,0
64727,-125,4,2,3,80,0,0
65177,-125,4,2,2,80,0,0
65327,-125,4,2,3,80,0,0
65777,-125,4,2,2,80,0,0
65927,-125,4,2,3,80,0,0
66077,-125,4,2,2,80,0,0
66227,-125,4,2,3,80,0,0
66377,-125,4,2,2,80,0,0
66527,-125,4,2,3,80,0,0
66677,-125,4,2,2,80,0,0
66827,-125,4,2,3,80,0,0
67127,-125,4,2,3,80,0,0
67577,-100,4,2,7,80,0,0
68027,-125,4,2,3,80,0,0
68177,-125,4,2,7,80,0,0
68327,-125,4,2,3,80,0,0
68777,-125,4,2,7,80,0,0
68927,-125,4,2,3,80,0,0
69077,-125,4,2,7,80,0,0
69227,-125,4,2,3,80,0,0
69377,-125,4,2,7,80,0,0
69527,-125,4,2,3,80,0,0
69977,-125,4,2,2,80,0,0
70127,-125,4,2,3,80,0,0
70577,-100,4,2,3,80,0,0
71027,-100,4,2,5,80,0,0
71177,-100,4,2,3,80,0,0
71777,-100,4,2,6,80,0,0
72377,-100,4,2,3,80,0,0
72677,-100,4,2,2,80,0,0
72827,-100,4,2,3,80,0,0
72977,-125,4,2,2,80,0,0
73127,-125,4,2,3,80,0,0
73277,-125,4,2,2,80,0,0
73427,-125,4,2,3,80,0,0
73577,-125,4,2,2,80,0,0
73727,-125,4,2,3,80,0,0
73877,-125,4,2,2,80,0,0
74027,-125,4,2,3,80,0,0
74177,-125,4,2,2,80,0,0
74327,-125,4,2,3,80,0,0
74777,-125,4,2,2,80,0,0
74927,-125,4,2,3,80,0,0
75377,-125,4,2,2,80,0,0
75527,-125,4,2,3,80,0,0
75677,-125,4,2,2,80,0,0
75827,-125,4,2,3,80,0,0
75977,-125,4,2,2,80,0,0
76127,-125,4,2,3,80,0,0
76277,-125,4,2,2,80,0,0
76427,-125,4,2,3,80,0,0
77177,-100,4,2,2,80,0,0
77477,-125,4,2,7,80,0,0
78227,-125,4,2,3,80,0,0
78377,-125,4,2,7,80,0,0
78527,-125,4,2,3,80,0,0
78677,-125,4,2,7,80,0,0
78827,-125,4,2,3,80,0,0
78977,-125,4,2,7,80,0,0
79127,-125,4,2,3,80,0,0
79577,-125,4,2,2,80,0,0
79727,-125,4,2,3,80,0,0
80177,-125,4,2,2,80,0,0
80327,-125,4,2,3,80,0,0
80477,-333.333333333333,4,2,9,80,0,0
81677,-100,4,2,3,80,0,0
82127,-100,4,2,6,80,0,0
82877,-166.666666666667,4,2,3,80,0,1
83477,-166.666666666667,4,2,2,80,0,1
83627,-166.666666666667,4,2,3,80,0,1
84077,-166.666666666667,4,2,2,80,0,1
84227,-166.666666666667,4,2,3,80,0,1
84677,-166.666666666667,4,2,2,80,0,1
84827,-166.666666666667,4,2,3,80,0,1
85877,-166.666666666667,4,2,2,80,0,1
86027,-166.666666666667,4,2,3,80,0,1
86477,-166.666666666667,4,2,2,80,0,1
86627,-166.666666666667,4,2,3,80,0,1
86777,-166.666666666667,4,2,3,80,0,1
87077,-166.666666666667,4,2,2,80,0,1
87227,-166.666666666667,4,2,3,80,0,1
87677,-166.666666666667,4,2,2,80,0,1
87827,-166.666666666667,4,2,3,80,0,1
88277,-166.666666666667,4,2,2,80,0,1
88577,-166.666666666667,4,2,3,80,0,1
88877,-166.666666666667,4,2,2,80,0,1
89027,-166.666666666667,4,2,3,80,0,1
89477,-166.666666666667,4,2,2,80,0,1
89627,-166.666666666667,4,2,3,80,0,1
90077,-166.666666666667,4,2,2,80,0,1
90227,-166.666666666667,4,2,3,80,0,1
90677,-166.666666666667,4,2,2,80,0,1
90827,-166.666666666667,4,2,3,80,0,1
91427,-166.666666666667,4,2,4,80,0,1
91727,-166.666666666667,4,2,3,80,0,1
91877,-166.666666666667,4,2,4,80,0,1
92027,-166.666666666667,4,2,3,80,0,1
92177,-166.666666666667,4,2,3,80,0,0
92477,-166.666666666667,4,2,7,80,0,0
92627,-166.666666666667,4,2,3,80,0,0
93077,-166.666666666667,4,2,3,80,0,1
93677,-166.666666666667,4,2,2,80,0,1
93827,-166.666666666667,4,2,3,80,0,1
93977,-166.666666666667,4,2,2,80,0,1
94127,-166.666666666667,4,2,3,80,0,1
94277,-166.666666666667,4,2,2,80,0,1
94427,-166.666666666667,4,2,3,80,0,1
94877,-166.666666666667,4,2,2,80,0,1
95027,-166.666666666667,4,2,3,50,0,1
95327,-166.666666666667,4,2,3,80,0,1
95477,-166.666666666667,4,2,2,80,0,1
95627,-166.666666666667,4,2,3,80,0,1
96077,-166.666666666667,4,2,2,80,0,1
96227,-166.666666666667,4,2,3,80,0,1
96677,-166.666666666667,4,2,6,80,0,0
97877,-166.666666666667,4,2,3,80,0,1
98477,-166.666666666667,4,2,2,80,0,1
98627,-166.666666666667,4,2,3,80,0,1
99077,-166.666666666667,4,2,2,80,0,1
99227,-166.666666666667,4,2,3,80,0,1
99677,-166.666666666667,4,2,2,80,0,1
99827,-166.666666666667,4,2,3,80,0,1
100127,-166.666666666667,4,2,6,80,0,1
100877,300,4,2,3,80,1,0
100877,-142.857142857143,4,2,3,80,0,0
101477,-142.857142857143,4,2,2,80,0,0
101627,-142.857142857143,4,2,3,80,0,0
102077,-142.857142857143,4,2,2,80,0,0
102377,-142.857142857143,4,2,7,80,0,0
102677,-142.857142857143,4,2,2,80,0,0
102827,-142.857142857143,4,2,3,80,0,0
103277,-142.857142857143,4,2,2,80,0,0
103577,-142.857142857143,4,2,3,80,0,0
103877,-142.857142857143,4,2,2,80,0,0
104027,-142.857142857143,4,2,3,80,0,0
104477,-142.857142857143,4,2,2,80,0,0
104627,-142.857142857143,4,2,3,80,0,0
105077,-142.857142857143,4,2,2,80,0,0
105227,-142.857142857143,4,2,3,80,0,0
105677,-142.857142857143,4,2,3,80,0,0
106277,-142.857142857143,4,2,2,80,0,0
106427,-142.857142857143,4,2,3,80,0,0
106877,-142.857142857143,4,2,2,80,0,0
107177,-142.857142857143,4,2,3,80,0,0
107477,-142.857142857143,4,2,2,80,0,0
107627,-142.857142857143,4,2,3,80,0,0
108077,-142.857142857143,4,2,2,80,0,0
108377,-142.857142857143,4,2,7,80,0,0
108677,-142.857142857143,4,2,2,80,0,0
108827,-142.857142857143,4,2,3,80,0,0
109277,-142.857142857143,4,2,2,80,0,0
109427,-142.857142857143,4,2,3,80,0,0
109877,-142.857142857143,4,2,2,80,0,0
110027,-142.857142857143,4,2,3,80,0,0
111077,-142.857142857143,4,2,2,80,0,0
111227,-142.857142857143,4,2,3,80,0,0
111677,-142.857142857143,4,2,2,80,0,0
111827,-142.857142857143,4,2,3,80,0,0
112277,-142.857142857143,4,2,2,80,0,0
112427,-142.857142857143,4,2,3,80,0,0
112877,-142.857142857143,4,2,2,80,0,0
113027,-142.857142857143,4,2,3,80,0,0
113177,-142.857142857143,4,2,7,80,0,0
113477,-142.857142857143,4,2,2,80,0,0
113627,-142.857142857143,4,2,3,80,0,0
114077,-142.857142857143,4,2,2,80,0,0
114227,-142.857142857143,4,2,3,80,0,0
114677,-142.857142857143,4,2,2,80,0,0
114827,-142.857142857143,4,2,3,80,0,0
115877,-142.857142857143,4,2,2,80,0,0
116027,-142.857142857143,4,2,3,80,0,0
116477,-142.857142857143,4,2,2,80,0,0
116627,-142.857142857143,4,2,3,80,0,0
117077,-142.857142857143,4,2,2,80,0,0
117227,-142.857142857143,4,2,3,80,0,0
117677,-142.857142857143,4,2,2,80,0,0
117977,-142.857142857143,4,2,3,80,0,0
118277,-142.857142857143,4,2,2,80,0,0
118427,-142.857142857143,4,2,3,80,0,0
118877,-142.857142857143,4,2,2,80,0,0
119027,-111.111111111111,4,2,3,80,0,0
119627,-142.857142857143,4,2,4,80,0,0
119927,-111.111111111111,4,2,3,80,0,0
120077,-99.9999999999999,4,2,3,80,0,0
120627,-99.9999999999999,4,2,4,80,0,0
120827,-99.9999999999999,4,2,3,80,0,0
121427,-99.9999999999999,4,2,5,80,0,0
121577,-99.9999999999999,4,2,3,80,0,0
121877,-99.9999999999999,4,2,7,80,0,0
122027,-99.9999999999999,4,2,3,80,0,0
123027,-99.9999999999999,4,2,4,80,0,0
123227,-99.9999999999999,4,2,6,80,0,0
124952,-99.9999999999999,4,2,3,5,0,0
125027,-99.9999999999999,4,2,3,80,0,0
125427,-99.9999999999999,4,2,4,80,0,0
125627,-99.9999999999999,4,2,3,80,0,0
126227,-99.9999999999999,4,2,5,80,0,0
126377,-99.9999999999999,4,2,3,80,0,0
126677,-99.9999999999999,4,2,7,80,0,0
126827,-99.9999999999999,4,2,3,80,0,0
127127,-99.9999999999999,4,2,3,80,0,0
128477,-99.9999999999999,4,2,4,80,0,0
128552,-99.9999999999999,4,2,3,80,0,0
128927,-99.9999999999999,4,2,4,80,0,0
129227,-99.9999999999999,4,2,3,80,0,0
130227,-99.9999999999999,4,2,4,80,0,0
130427,-99.9999999999999,4,2,3,80,0,0
131027,-99.9999999999999,4,2,5,80,0,0
131177,-99.9999999999999,4,2,3,80,0,0
131477,-99.9999999999999,4,2,7,80,0,0
131627,-99.9999999999999,4,2,3,80,0,0
131927,-99.9999999999999,4,2,3,80,0,0
132627,-99.9999999999999,4,2,4,80,0,0
132827,-99.9999999999999,4,2,3,80,0,0
133427,-99.9999999999999,4,2,5,80,0,0
133577,-99.9999999999999,4,2,3,80,0,0
133877,-99.9999999999999,4,2,7,80,0,0
134102,-99.9999999999999,4,2,6,5,0,0
134177,-99.9999999999999,4,2,3,80,0,0
135027,-99.9999999999999,4,2,4,80,0,0
135227,-99.9999999999999,4,2,3,80,0,0
135827,-99.9999999999999,4,2,5,80,0,0
135977,-99.9999999999999,4,2,3,80,0,0
136277,-99.9999999999999,4,2,7,80,0,0
136427,-99.9999999999999,4,2,3,80,0,0
137477,-99.9999999999999,4,2,4,80,0,0
137627,-99.9999999999999,4,2,3,80,0,0
138152,-99.9999999999999,4,2,5,80,0,0
138227,-99.9999999999999,4,2,3,80,0,0
138977,-99.9999999999999,4,2,4,80,0,0
139127,-99.9999999999999,4,2,3,80,0,0
139577,-99.9999999999999,4,2,7,80,0,0
139727,-99.9999999999999,4,2,3,80,0,0
139877,-99.9999999999999,4,2,7,80,0,0
139952,-99.9999999999999,4,2,3,80,0,0
140177,-99.9999999999999,4,2,7,80,0,0
140327,-99.9999999999999,4,2,3,80,0,0
140477,-99.9999999999999,4,2,7,80,0,0
140627,-99.9999999999999,4,2,3,80,0,0
140777,-99.9999999999999,4,2,7,80,0,0
140927,-99.9999999999999,4,2,3,80,0,0
141077,-99.9999999999999,4,2,7,80,0,0
141152,-99.9999999999999,4,2,3,80,0,0
141377,-99.9999999999999,4,2,7,80,0,0
141527,-99.9999999999999,4,2,3,80,0,0
141977,-99.9999999999999,4,2,7,80,0,0
142127,-99.9999999999999,4,2,3,80,0,0
142277,-99.9999999999999,4,2,7,80,0,0
142352,-99.9999999999999,4,2,3,80,0,0
142577,-99.9999999999999,4,2,7,80,0,0
142727,-99.9999999999999,4,2,3,80,0,0
142877,-99.9999999999999,4,2,7,80,0,0
143027,-99.9999999999999,4,2,3,80,0,0
143177,-99.9999999999999,4,2,7,80,0,0
143327,-99.9999999999999,4,2,3,80,0,0
143477,-99.9999999999999,4,2,7,80,0,0
143627,-99.9999999999999,4,2,3,80,0,0
143777,-99.9999999999999,4,2,7,80,0,0
143927,-99.9999999999999,4,2,3,80,0,0
144077,-99.9999999999999,4,2,2,80,0,0
144227,-99.9999999999999,4,2,3,80,0,0
144677,-99.9999999999999,4,2,7,80,0,0
144752,-99.9999999999999,4,2,3,80,0,0
144977,-99.9999999999999,4,2,7,80,0,0
145127,-99.9999999999999,4,2,3,80,0,0
145277,-99.9999999999999,4,2,7,80,0,0
145427,-99.9999999999999,4,2,3,80,0,0
145577,-99.9999999999999,4,2,7,80,0,0
145727,-99.9999999999999,4,2,3,80,0,0
145877,-99.9999999999999,4,2,7,80,0,0
146027,-99.9999999999999,4,2,3,80,0,0
146177,-99.9999999999999,4,2,7,80,0,0
146327,-99.9999999999999,4,2,3,80,0,0
146777,-99.9999999999999,4,2,7,80,0,0
146927,-99.9999999999999,4,2,3,80,0,0
147077,-99.9999999999999,4,2,7,80,0,0
147227,-99.9999999999999,4,2,3,80,0,0
147377,-99.9999999999999,4,2,7,80,0,0
147527,-99.9999999999999,4,2,3,80,0,0
147677,-99.9999999999999,4,2,7,80,0,0
147827,-99.9999999999999,4,2,3,80,0,0
148577,-99.9999999999999,4,2,4,80,0,0
148727,-99.9999999999999,4,2,3,80,0,0
148802,-99.9999999999999,4,2,4,80,0,0
148877,-99.9999999999999,4,2,3,80,0,0
149327,-99.9999999999999,4,2,2,80,0,0
149477,-99.9999999999999,4,2,3,80,0,0
150227,-99.9999999999999,4,2,2,80,0,0
150377,-99.9999999999999,4,2,3,80,0,0
150677,-99.9999999999999,4,2,8,80,0,0
151277,-125,4,2,3,80,0,0
151727,-125,4,2,2,80,0,0
152027,-125,4,2,3,80,0,0
152177,-125,4,2,2,80,0,0
152477,-125,4,2,3,80,0,0
152627,-125,4,2,2,80,0,0
152927,-125,4,2,3,80,0,0
153077,-125,4,2,8,80,0,0
153677,-125,4,2,3,80,0,0
154127,-125,4,2,2,80,0,0
154427,-125,4,2,3,80,0,0
154577,-125,4,2,2,80,0,0
154877,-125,4,2,3,80,0,0
155027,-125,4,2,2,80,0,0
155177,-125,4,2,3,80,0,0
155477,-125,4,2,8,80,0,0
156077,-125,4,2,3,80,0,0
156527,-125,4,2,2,80,0,0
156827,-125,4,2,3,80,0,0
156977,-125,4,2,2,80,0,0
157127,-125,4,2,3,80,0,0
157277,-142.857142857143,4,2,2,80,0,0
157377,-142.857142857143,4,2,4,80,0,0
157677,-142.857142857143,4,2,3,80,0,0
158177,-142.857142857143,4,2,5,80,0,0
158477,-142.857142857143,4,2,3,80,0,0
159077,-142.857142857143,4,2,2,80,0,0
159227,-142.857142857143,4,2,3,80,0,0
159677,-142.857142857143,4,2,2,80,0,0
159827,-142.857142857143,4,2,3,80,0,0
160277,-142.857142857143,4,2,2,80,0,0
161177,-142.857142857143,4,2,3,80,0,0
161477,-142.857142857143,4,2,2,80,0,0
161777,-142.857142857143,4,2,3,80,0,0
161927,-142.857142857143,4,2,3,50,0,0
162077,-142.857142857143,4,2,2,80,0,0
162227,-142.857142857143,4,2,3,80,0,0
162527,-111.111111111111,4,2,3,80,0,0
163277,-142.857142857143,4,2,3,80,0,0
163877,-142.857142857143,4,2,2,80,0,0
164027,-142.857142857143,4,2,3,80,0,0
164477,-142.857142857143,4,2,2,80,0,0
164627,-142.857142857143,4,2,3,80,0,0
165077,-285.714285714286,4,2,2,80,0,0
165377,-285.714285714286,4,2,2,5,0,0
165677,-285.714285714286,4,2,2,80,0,0
165977,-142.857142857143,4,2,3,80,0,0
166277,-285.714285714286,4,2,2,80,0,0
166427,-142.857142857143,4,2,3,80,0,0
167327,-111.111111111111,4,2,3,80,0,0
167477,-111.111111111111,4,2,2,80,0,0
167627,-111.111111111111,4,2,3,80,0,0
168077,-142.857142857143,4,2,3,80,0,0
168527,-142.857142857143,4,2,2,80,0,0
168827,-142.857142857143,4,2,3,80,0,0
169727,-142.857142857143,4,2,2,80,0,0
170027,-142.857142857143,4,2,3,80,0,0
170477,-142.857142857143,4,2,2,80,0,0
170627,-142.857142857143,4,2,3,80,0,0
171077,-142.857142857143,4,2,2,80,0,0
171377,-142.857142857143,4,2,3,80,0,0
171677,-142.857142857143,4,2,2,80,0,0
171827,-142.857142857143,4,2,3,80,0,0
172277,-142.857142857143,4,2,2,80,0,0
172427,-142.857142857143,4,2,3,80,0,0
172877,-142.857142857143,4,2,3,80,0,0
173327,-142.857142857143,4,2,2,80,0,0
173627,-142.857142857143,4,2,3,80,0,0
174527,-142.857142857143,4,2,2,80,0,0
174827,-142.857142857143,4,2,3,80,0,0
175277,-142.857142857143,4,2,2,80,0,0
175427,-142.857142857143,4,2,3,80,0,0
175877,-142.857142857143,4,2,2,80,0,0
176027,-142.857142857143,4,2,3,50,0,0
176177,-142.857142857143,4,2,3,75,0,0
176327,-142.857142857143,4,2,3,80,0,0
176477,-142.857142857143,4,2,2,80,0,0
176627,-142.857142857143,4,2,3,80,0,0
177077,-142.857142857143,4,2,2,80,0,0
177227,-142.857142857143,4,2,3,80,0,0
178127,-142.857142857143,4,2,2,80,0,0
178427,-142.857142857143,4,2,3,80,0,0
179327,-142.857142857143,4,2,2,80,0,0
179627,-142.857142857143,4,2,3,80,0,0
180077,-142.857142857143,4,2,2,80,0,0
180227,-142.857142857143,4,2,3,80,0,0
180677,-142.857142857143,4,2,2,80,0,0
180977,-142.857142857143,4,2,3,80,0,0
181277,-142.857142857143,4,2,2,80,0,0
181427,-142.857142857143,4,2,3,80,0,0
181877,-142.857142857143,4,2,2,80,0,0
182027,-142.857142857143,4,2,3,80,0,0
182177,-142.857142857143,4,2,8,80,0,0
182327,-142.857142857143,4,2,3,80,0,0
182927,-142.857142857143,4,2,2,80,0,0
183227,-142.857142857143,4,2,3,80,0,0
184127,-142.857142857143,4,2,2,80,0,0
184427,-142.857142857143,4,2,3,80,0,0
184877,-142.857142857143,4,2,2,80,0,0
185027,-142.857142857143,4,2,3,80,0,0
185477,-142.857142857143,4,2,2,80,0,0
185777,-142.857142857143,4,2,3,80,0,0
186077,-142.857142857143,4,2,2,80,0,0
186227,-142.857142857143,4,2,3,80,0,0
186677,-142.857142857143,4,2,2,80,0,0
186827,-142.857142857143,4,2,3,80,0,0
187877,300,4,2,3,80,1,0
187877,-166.666666666667,4,2,3,80,0,1
188477,-166.666666666667,4,2,2,80,0,1
188627,-166.666666666667,4,2,3,80,0,1
189077,-166.666666666667,4,2,2,80,0,1
189227,-166.666666666667,4,2,3,80,0,1
189677,-166.666666666667,4,2,2,80,0,1
189827,-166.666666666667,4,2,3,80,0,1
190877,-166.666666666667,4,2,2,80,0,1
191027,-166.666666666667,4,2,3,80,0,1
191477,-166.666666666667,4,2,2,80,0,1
191627,-166.666666666667,4,2,3,80,0,1
192077,-166.666666666667,4,2,2,80,0,1
192227,-166.666666666667,4,2,3,80,0,1
192677,-166.666666666667,4,2,2,80,0,1
192827,-166.666666666667,4,2,3,80,0,1
193127,-166.666666666667,4,2,3,50,0,1
193277,-166.666666666667,4,2,2,50,0,1
193427,-166.666666666667,4,2,3,50,0,1
193577,-166.666666666667,4,2,3,80,0,1
193877,-166.666666666667,4,2,2,80,0,1
194027,-166.666666666667,4,2,3,80,0,1
194477,-166.666666666667,4,2,2,80,0,1
194627,-166.666666666667,4,2,3,80,0,1
195077,-166.666666666667,4,2,2,80,0,1
195227,-166.666666666667,4,2,3,80,0,1
195677,-166.666666666667,4,2,2,80,0,1
195827,-166.666666666667,4,2,3,80,0,1
196427,-166.666666666667,4,2,4,80,0,1
196727,-166.666666666667,4,2,3,80,0,1
196877,-166.666666666667,4,2,4,80,0,1
197027,-166.666666666667,4,2,3,80,0,1
197177,-166.666666666667,4,2,3,80,0,0
197477,-166.666666666667,4,2,7,80,0,0
197627,-166.666666666667,4,2,3,80,0,0
198077,-166.666666666667,4,2,3,80,0,1
198677,-166.666666666667,4,2,2,80,0,1
198827,-166.666666666667,4,2,3,80,0,1
198977,-166.666666666667,4,2,2,80,0,1
199127,-166.666666666667,4,2,3,80,0,1
199277,-166.666666666667,4,2,2,80,0,1
199427,-166.666666666667,4,2,3,80,0,1
199877,-166.666666666667,4,2,2,80,0,1
200027,-166.666666666667,4,2,3,80,0,1
200477,-166.666666666667,4,2,2,80,0,1
200627,-166.666666666667,4,2,3,80,0,1
201077,-166.666666666667,4,2,2,80,0,1
201227,-166.666666666667,4,2,3,80,0,1
201677,-166.666666666667,4,2,6,80,0,0
202877,-166.666666666667,4,2,3,80,0,1
203477,-166.666666666667,4,2,2,80,0,1
203627,-166.666666666667,4,2,3,80,0,1
204077,-166.666666666667,4,2,2,80,0,1
204227,-166.666666666667,4,2,3,80,0,1
204677,-166.666666666667,4,2,2,80,0,1
204827,-166.666666666667,4,2,3,50,0,1
205127,-166.666666666667,4,2,3,80,0,1
205277,-166.666666666667,4,2,2,80,0,1
205427,-166.666666666667,4,2,3,80,0,1
205877,-166.666666666667,4,2,2,80,0,1
206027,-166.666666666667,4,2,3,80,0,1
206177,-166.666666666667,4,2,8,80,0,1
206327,-166.666666666667,4,2,3,80,0,1
206477,300,4,2,3,80,1,0
206477,-166.666666666667,4,2,3,80,0,0
206777,-166.666666666667,4,2,2,80,0,0
207077,-166.666666666667,4,2,3,80,0,0
210677,-125,4,2,3,80,0,0
210977,-125,4,2,3,5,0,0
211277,-166.666666666667,4,2,3,80,0,0
215327,-166.666666666667,4,2,3,50,0,0
215477,-166.666666666667,4,2,3,80,0,0
215627,-166.666666666667,4,2,4,80,0,0
215927,-166.666666666667,4,2,2,80,0,0
216077,-166.666666666667,4,2,3,80,0,0
220277,-125,4,2,3,80,0,0
220577,-125,4,2,3,80,0,0
220877,-166.666666666667,4,2,3,80,0,0
224477,370.37037037037,4,2,0,80,1,0
224477,-125,4,2,0,80,0,0
224847,255.31914893617,4,2,0,80,1,0
224847,-125,4,2,0,80,0,0
225102,324.324324324324,4,2,0,80,1,0
225102,-125,4,2,0,80,0,0
225426,251.046025104603,4,2,0,80,1,0
225677,500,4,2,3,80,1,0
225677,-66.6666666666667,4,2,3,80,0,0
226177,-66.6666666666667,4,2,4,80,0,0
226510,-66.6666666666667,4,2,3,80,0,0
227343,-66.6666666666667,4,2,4,80,0,0
227677,-66.6666666666667,4,2,3,80,0,0
228177,-66.6666666666667,4,2,4,80,0,0
228510,-66.6666666666667,4,2,3,80,0,0
228677,-66.6666666666667,4,2,7,80,0,0
228843,-66.6666666666667,4,2,3,80,0,0
229177,-66.6666666666667,4,2,2,80,0,0
229343,-66.6666666666667,4,2,3,80,0,0
230177,-66.6666666666667,4,2,4,80,0,0
230510,-66.6666666666667,4,2,3,80,0,0
231177,-66.6666666666667,4,2,4,80,0,0
231510,-66.6666666666667,4,2,3,80,0,0
232010,-66.6666666666667,4,2,4,80,0,0
232343,-66.6666666666667,4,2,3,80,0,0
232843,-66.6666666666667,4,2,3,50,0,0
233177,-66.6666666666667,4,2,3,80,0,0
233343,-66.6666666666667,4,2,4,80,0,0
233677,-66.6666666666667,4,2,3,80,0,0
234177,-66.6666666666667,4,2,4,80,0,0
234510,-66.6666666666667,4,2,3,80,0,0
234677,-66.6666666666667,4,2,8,80,0,0
235010,-66.6666666666667,4,2,3,50,0,0
235177,-66.6666666666667,4,2,3,80,0,0
235343,-66.6666666666667,4,2,4,80,0,0
235677,-66.6666666666667,4,2,3,80,0,0
236177,-66.6666666666667,4,2,4,80,0,0
236510,333.333333333333,4,2,3,80,1,0
236510,-66.6666666666667,4,2,3,80,0,0
236676,500,4,2,3,80,1,0
236677,-66.6666666666667,4,2,2,80,0,0
236843,-66.6666666666667,4,2,3,80,0,0
237177,-66.6666666666667,4,2,7,80,0,0
237343,-66.6666666666667,4,2,3,80,0,0
237676,500,4,2,3,80,1,0
237676,-66.6666666666667,4,2,3,80,0,0
238010,-66.6666666666667,4,2,4,80,0,0
238343,-66.6666666666667,4,2,3,80,0,0
238677,-66.6666666666667,4,2,8,80,0,0
239010,-66.6666666666667,4,2,3,50,0,0
239177,-66.6666666666667,4,2,3,80,0,0
239343,-66.6666666666667,4,2,4,80,0,0
239677,-66.6666666666667,4,2,3,80,0,0
240176,-66.6666666666667,4,2,4,80,0,0
240510,-66.6666666666667,4,2,3,80,0,0
240676,-66.6666666666667,4,2,5,80,0,0
240843,-66.6666666666667,4,2,3,80,0,0
241176,-66.6666666666667,4,2,5,80,0,0
241343,-66.6666666666667,4,2,3,80,0,0
242176,-66.6666666666667,4,2,2,80,0,0
242343,-66.6666666666667,4,2,3,50,0,0
242510,-66.6666666666667,4,2,3,80,0,0
242676,-66.6666666666667,4,2,2,80,0,0
243010,-66.6666666666667,4,2,3,50,0,0
243176,-66.6666666666667,4,2,2,80,0,0
243343,-66.6666666666667,4,2,3,80,0,0
243676,-66.6666666666667,4,2,2,80,0,0
243843,-66.6666666666667,4,2,2,80,0,0
244010,-66.6666666666667,4,2,3,80,0,0
244176,-66.6666666666667,4,2,2,80,0,0
244343,-66.6666666666667,4,2,3,80,0,0
245176,-66.6666666666667,4,2,2,80,0,0
245343,-66.6666666666667,4,2,3,50,0,0
245510,-66.6666666666667,4,2,3,80,0,0
246010,-66.6666666666667,4,2,2,80,0,0
246176,-66.6666666666667,4,2,3,80,0,0
246343,-66.6666666666667,4,2,2,80,0,0
246510,-66.6666666666667,4,2,3,80,0,0
246676,-66.6666666666667,4,2,2,80,0,0
246843,-66.6666666666667,4,2,3,80,0,0
246926,-66.6666666666667,4,2,3,50,0,0
247010,-66.6666666666667,4,2,3,80,0,0
247176,-66.6666666666667,4,2,2,80,0,0
247343,-66.6666666666667,4,2,3,80,0,0
247676,-66.6666666666667,4,2,2,80,0,0
247843,-66.6666666666667,4,2,3,50,0,0
248010,-66.6666666666667,4,2,3,80,0,0
248176,-66.6666666666667,4,2,2,80,0,0
248343,-66.6666666666667,4,2,3,50,0,0
248510,-66.6666666666667,4,2,3,80,0,0
249176,-66.6666666666667,4,2,2,80,0,0
249342,-66.6666666666667,4,2,3,80,0,0
249510,-66.6666666666667,4,2,7,80,0,0
249593,-66.6666666666667,4,2,3,80,0,0
249676,-66.6666666666667,4,2,3,80,0,0
250009,-66.6666666666667,4,2,2,80,0,0
250176,-66.6666666666667,4,2,3,80,0,0
250342,-66.6666666666667,4,2,3,50,0,0
250676,-66.6666666666667,4,2,2,80,0,0
251009,-66.6666666666667,4,2,3,50,0,0
251176,-66.6666666666667,4,2,2,80,0,0
251342,-66.6666666666667,4,2,3,50,0,0
251509,-66.6666666666667,4,2,3,80,0,0
251676,-66.6666666666667,4,2,2,80,0,0
251842,-66.6666666666667,4,2,3,80,0,0
252176,-66.6666666666667,4,2,2,80,0,0
252342,-66.6666666666667,4,2,3,50,0,0
252509,-66.6666666666667,4,2,3,80,0,0
253176,-66.6666666666667,4,2,2,80,0,0
253342,-66.6666666666667,4,2,3,50,0,0
253509,-66.6666666666667,4,2,3,80,0,0
253842,-66.6666666666667,4,2,3,50,0,0
254009,-66.6666666666667,4,2,3,80,0,0
254176,-66.6666666666667,4,2,2,80,0,0
254342,-66.6666666666667,4,2,3,50,0,0
254509,-66.6666666666667,4,2,3,80,0,0
255176,-66.6666666666667,4,2,2,80,0,0
255342,-66.6666666666667,4,2,3,80,0,0
255509,-66.6666666666667,4,2,7,80,0,0
255842,-66.6666666666667,4,2,3,80,0,0
256176,-66.6666666666667,4,2,2,80,0,0
256342,-66.6666666666667,4,2,3,80,0,0
256676,-66.6666666666667,4,2,4,80,0,0
257009,-66.6666666666667,4,2,3,80,0,0
257176,-66.6666666666667,4,2,5,80,0,0
257342,-66.6666666666667,4,2,3,80,0,0
257926,-66.6666666666667,4,2,3,5,0,0
258010,-66.6666666666667,4,2,3,80,0,0
258676,-111.111111111111,4,2,3,80,0,0
259176,-111.111111111111,4,2,2,80,0,0
259342,-111.111111111111,4,2,3,80,0,0
260176,-111.111111111111,4,2,2,80,0,0
260342,-111.111111111111,4,2,3,80,0,0
260676,-111.111111111111,4,2,2,80,0,0
260842,-111.111111111111,4,2,3,80,0,0
261176,-111.111111111111,4,2,2,80,0,0
261342,-111.111111111111,4,2,3,80,0,0
261676,-111.111111111111,4,2,6,80,0,0
262009,-111.111111111111,4,2,3,80,0,0
263176,-111.111111111111,4,2,2,80,0,0
263342,-111.111111111111,4,2,3,80,0,0
264842,-111.111111111111,4,2,3,50,0,0
265176,-111.111111111111,4,2,3,80,0,0
265342,-111.111111111111,4,2,4,80,0,0
265676,-111.111111111111,4,2,3,80,0,0
267176,-111.111111111111,4,2,2,80,0,0
267342,-111.111111111111,4,2,3,80,0,0
268676,-111.111111111111,4,2,7,80,0,0
268842,-111.111111111111,4,2,3,80,0,0
269176,-111.111111111111,4,2,7,80,0,0
269342,-111.111111111111,4,2,3,80,0,0
269676,-111.111111111111,4,2,7,80,0,0
270009,-111.111111111111,4,2,3,80,0,0
271176,-111.111111111111,4,2,2,80,0,0
271342,-111.111111111111,4,2,3,80,0,0
273342,-111.111111111111,4,2,4,80,0,0
273676,-111.111111111111,4,2,3,80,0,0

[Colours]
Combo1 : 192,192,192
Combo2 : 10,130,10
Combo3 : 130,193,130
Combo4 : 128,128,128

[HitObjects]
135,44,85,38,0,P|172:36|211:33,1,76.4999976654053,6|0,0:0|0:0,0:0:0:0:
225,39,385,2,0,B|239:77|239:77|235:139,1,101.999996887207,2|0,0:0|0:0,0:0:0:0:
161,209,835,1,2,0:0:0:0:
64,180,985,1,2,0:0:0:0:
176,206,1135,1,2,0:0:0:0:
35,276,1285,6,0,P|28:301|26:329,1,50.9999984436036,8|0,0:0|0:0,0:0:0:0:
115,376,1585,2,0,P|135:361|153:343,1,50.9999984436036,2|8,0:0|0:0,0:0:0:0:
164,336,1810,1,8,0:0:0:0:
176,332,1885,1,0,0:0:0:0:
275,313,2035,1,2,0:0:0:0:
288,212,2185,1,2,0:0:0:0:
195,169,2335,1,2,0:0:0:0:
195,169,2485,38,0,P|174:174|145:189,1,50.9999984436036
277,109,2785,2,0,P|214:70|140:84,1,152.999995330811,2|2,0:0|0:0,0:0:0:0:
55,140,3385,1,0,0:0:0:0:
205,271,3535,1,2,0:0:0:0:
205,271,3610,1,2,0:0:0:0:
205,271,3685,6,0,P|255:260|306:256,1,101.999996887207,8|2,0:0|0:0,0:0:0:0:
449,194,4135,38,0,P|375:202|326:259,1,152.999995330811,8|2,0:0|0:0,0:0:0:0:
310,361,4510,1,2,0:0:0:0:
310,361,4585,1,8,0:0:0:0:
367,152,4735,1,8,0:0:0:0:
205,271,4885,6,0,P|168:279|129:282,1,76.4999976654053,6|0,0:0|0:0,0:0:0:0:
115,276,5185,2,0,B|101:238|101:238|105:176,1,101.999996887207,2|0,0:0|0:0,0:0:0:0:
95,75,5635,1,2,0:0:0:0:
11,134,5785,1,2,0:0:0:0:
1,32,5935,1,2,0:0:0:0:
198,66,6085,38,0,P|225:63|248:56,1,50.9999984436036,8|0,0:0|0:0,0:0:0:0:
359,17,6385,2,0,P|349:40|343:65,1,50.9999984436036,2|8,0:0|0:0,0:0:0:0:
347,77,6610,1,8,0:0:0:0:
352,89,6685,1,0,0:0:0:0:
386,186,6835,1,2,0:0:0:0:
483,152,6985,1,2,0:0:0:0:
490,254,7135,1,2,0:0:0:0:
490,254,7285,6,0,P|466:264|442:270,1,50.9999984436036
288,219,7585,2,0,P|350:263|368:335,1,152.999995330811,2|2,0:0|0:0,0:0:0:0:
270,322,8185,1,0,0:0:0:0:
188,201,8335,1,2,0:0:0:0:
188,201,8410,1,2,0:0:0:0:
188,201,8485,38,0,P|209:156|249:125,1,101.999996887207,8|2,0:0|0:0,0:0:0:0:
168,303,8935,6,0,P|103:266|84:193,1,152.999995330811,8|2,0:0|0:0,0:0:0:0:
91,90,9310,1,2,0:0:0:0:
91,90,9385,1,8,0:0:0:0:
65,295,9535,1,8,0:0:0:0:
289,220,9685,38,0,P|326:221|365:229,1,76.4999976654053,6|0,0:0|0:0,0:0:0:0:
377,238,9985,2,0,B|391:276|391:276|387:338,1,101.999996887207,2|0,0:0|0:0,0:0:0:0:
188,201,10435,1,8,0:0:0:0:
254,123,10585,1,2,0:0:0:0:
320,45,10735,1,2,0:0:0:0:
223,298,10885,5,8,0:0:0:0:
153,104,11035,1,2,0:0:0:0:
332,189,11185,2,0,P|382:187|433:178,1,101.999996887207,2|0,0:0|0:0,0:0:0:0:
479,87,11635,1,2,0:0:0:0:
407,16,11785,1,2,0:0:0:0:
317,61,11935,38,0,P|293:70|268:74,1,50.9999984436036,2|0,0:0|0:0,0:0:0:0:
169,46,12235,1,2,0:0:0:0:
140,145,12385,2,0,P|196:193|208:267,1,152.999995330811,2|2,0:0|0:0,0:0:0:0:
140,341,12985,1,0,0:0:0:0:
13,220,13135,1,2,0:0:0:0:
13,220,13210,1,2,0:0:0:0:
13,220,13285,6,0,P|15:170|22:119,1,101.999996887207,8|2,0:0|0:0,0:0:0:0:
180,171,13735,2,0,P|254:167|307:114,1,152.999995330811,8|2,0:0|0:0,0:0:0:0:
103,24,14185,1,8,0:0:0:0:
111,244,14335,1,2,0:0:0:0:
302,81,14485,38,0,P|265:73|226:70,1,76.4999976654053,6|0,0:0|0:0,0:0:0:0:
212,76,14785,2,0,B|198:114|198:114|202:176,1,101.999996887207,2|0,0:0|0:0,0:0:0:0:
242,268,15235,1,2,0:0:0:0:
343,259,15385,1,2,0:0:0:0:
444,250,15535,1,2,0:0:0:0:
328,86,15685,6,0,P|302:88|278:96,1,50.9999984436036,8|0,0:0|0:0,0:0:0:0:
386,168,15985,2,0,P|420:131|429:82,1,101.999996887207,2|0,0:0|0:0,0:0:0:0:
285,177,16435,1,2,0:0:0:0:
242,268,16585,1,2,0:0:0:0:
300,350,16735,1,2,0:0:0:0:
300,350,16885,38,0,P|324:357|349:360,1,50.9999984436036
490,226,17185,2,0,P|414:232|343:258,1,152.999995330811,2|2,0:0|0:0,0:0:0:0:
199,358,17785,6,0,P|161:366|123:369,1,76.4999976654053,0|2,0:0|0:0,0:0:0:0:
74,236,18085,37,8,0:0:0:0:
74,236,18185,2,0,P|92:228|111:223,1,39.6666654561361,2|8,0:0|0:0,0:0:0:0:
203,96,18385,1,2,0:0:0:0:
203,96,18485,2,0,P|210:114|215:133,1,39.6666654561361,8|2,0:0|0:0,0:0:0:0:
242,268,18685,5,8,0:0:0:0:
252,253,18985,1,0,0:0:0:0:
262,238,19285,22,6,L|266:176,1,59.4999981842042,6|0,0:0|0:0,0:0:0:0:
155,5,19585,2,0,P|112:46|100:103,1,118.999996368408,2|0,0:0|0:0,0:0:0:0:
132,249,20035,1,2,0:0:0:0:
203,96,20185,1,2,0:0:0:0:
114,252,20335,1,2,0:0:0:0:
305,88,20485,37,8,0:0:0:0:
322,85,20785,2,0,P|381:92|432:123,1,118.999996368408,2|0,0:0|0:0,0:0:0:0:
261,181,21235,1,2,0:0:0:0:
247,3,21385,1,2,0:0:0:0:
353,225,21535,1,2,0:0:0:0:
353,225,21685,5,0,0:0:0:0:
159,189,21985,2,0,P|95:194|43:210,1,118.999996368408,2|0,0:0|0:0,0:0:0:0:
217,274,22435,2,0,P|245:281|272:295,1,59.4999981842042,2|0,0:0|0:0,0:0:0:0:
203,96,22735,1,2,0:0:0:0:
203,96,22810,1,2,0:0:0:0:
203,96,22885,37,8,0:0:0:0:
115,282,23035,1,2,0:0:0:0:
261,181,23185,1,2,0:0:0:0:
43,19,23335,5,8,0:0:0:0:
305,88,23485,1,2,0:0:0:0:
159,189,23635,1,2,0:0:0:0:
407,80,23785,37,8,0:0:0:0:
247,3,23935,1,2,0:0:0:0:
362,172,24085,6,0,P|367:201|369:230,1,59.4999981842042,6|0,0:0|0:0,0:0:0:0:
211,316,24385,2,0,P|224:259|269:221,1,118.999996368408,2|0,0:0|0:0,0:0:0:0:
471,241,24835,1,2,0:0:0:0:
311,314,24985,1,2,0:0:0:0:
487,233,25135,1,2,0:0:0:0:
328,141,25285,37,8,0:0:0:0:
312,133,25585,2,0,P|253:125|200:151,1,118.999996368408,2|0,0:0|0:0,0:0:0:0:
370,231,26035,1,2,0:0:0:0:
388,60,26185,1,2,0:0:0:0:
269,221,26335,1,2,0:0:0:0:
269,221,26485,5,0,0:0:0:0:
470,240,26785,2,0,P|502:290|505:349,1,118.999996368408,2|0,0:0|0:0,0:0:0:0:
429,150,27235,2,0,P|457:143|487:141,1,59.4999981842042,2|0,0:0|0:0,0:0:0:0:
411,322,27535,1,2,0:0:0:0:
411,322,27610,1,2,0:0:0:0:
411,322,27685,38,0,L|351:318,1,59.4999981842042,8|0,0:0|0:0,0:0:0:0:
269,221,27985,1,2,0:0:0:0:
388,60,28135,2,0,L|384:120,1,59.4999981842042,8|0,0:0|0:0,0:0:0:0:
212,308,28435,1,2,0:0:0:0:
212,308,28510,1,2,0:0:0:0:
212,308,28585,1,8,0:0:0:0:
185,41,28735,1,8,0:0:0:0:
278,162,28885,6,0,P|275:192|269:221,1,59.4999981842042,6|0,0:0|0:0,0:0:0:0:
68,207,29185,2,0,P|63:148|64:89,1,118.999996368408,2|0,0:0|0:0,0:0:0:0:
286,51,29635,1,8,0:0:0:0:
168,211,29785,1,2,0:0:0:0:
185,41,29935,1,2,0:0:0:0:
111,298,30085,37,8,0:0:0:0:
269,221,30235,1,2,0:0:0:0:
126,121,30385,2,0,P|60:145|28:200,1,118.999996368408,2|0,0:0|0:0,0:0:0:0:
212,308,30835,1,2,0:0:0:0:
330,142,30985,1,2,0:0:0:0:
168,211,31135,1,2,0:0:0:0:
168,211,31285,5,0,0:0:0:0:
348,282,31435,1,2,0:0:0:0:
348,282,31510,1,2,0:0:0:0:
348,282,31585,2,0,P|407:276|466:273,1,118.999996368408,2|0,0:0|0:0,0:0:0:0:
286,360,32035,2,0,P|258:351|229:348,1,59.4999981842042,2|0,0:0|0:0,0:0:0:0:
54,243,32335,1,2,0:0:0:0:
54,243,32410,1,2,0:0:0:0:
54,243,32485,37,8,0:0:0:0:
250,269,32635,1,2,0:0:0:0:
91,335,32785,1,2,0:0:0:0:
176,85,32935,5,8,0:0:0:0:
189,348,33085,1,2,0:0:0:0:
115,164,33235,1,2,0:0:0:0:
348,282,33385,37,8,0:0:0:0:
75,330,33535,1,8,0:0:0:0:
255,146,33685,6,0,P|263:174|269:203,1,59.4999981842042,6|0,0:0|0:0,0:0:0:0:
426,342,33985,2,0,P|433:283|449:225,1,118.999996368408,2|0,0:0|0:0,0:0:0:0:
506,30,34435,1,2,0:0:0:0:
378,153,34585,1,2,0:0:0:0:
498,14,34735,1,2,0:0:0:0:
306,80,34885,37,8,0:0:0:0:
290,88,35185,2,0,P|232:77|199:29,1,118.999996368408,2|0,0:0|0:0,0:0:0:0:
406,55,35635,1,2,0:0:0:0:
278,178,35785,1,2,0:0:0:0:
478,128,35935,1,2,0:0:0:0:
478,128,36085,5,0,0:0:0:0:
421,324,36385,2,0,P|371:352|312:348,1,118.999996368408,2|0,0:0|0:0,0:0:0:0:
378,153,36835,2,0,P|388:180|391:210,1,59.4999981842042,2|0,0:0|0:0,0:0:0:0:
222,374,37135,1,2,0:0:0:0:
222,374,37210,1,2,0:0:0:0:
222,374,37285,37,8,0:0:0:0:
178,203,37435,1,2,0:0:0:0:
178,203,37510,1,2,0:0:0:0:
178,203,37585,5,8,0:0:0:0:
178,152,37660,1,8,0:0:0:0:
202,108,37735,1,8,0:0:0:0:
243,80,37810,1,8,0:0:0:0:
293,75,37885,2,0,L|331:77,1,38.2499988327027,2|2,0:0|0:0,0:0:0:0:
250,276,38035,37,8,0:0:0:0:
206,300,38110,1,8,0:0:0:0:
156,301,38185,1,2,0:0:0:0:
111,280,38260,1,2,0:0:0:0:
81,239,38335,2,0,L|83:200,1,38.2499988327027,2|2,0:0|0:0,0:0:0:0:
134,32,38485,5,12,0:0:0:0:
278,178,38635,1,2,0:0:0:0:
6,155,38785,1,2,0:0:0:0:
306,80,38935,37,8,0:0:0:0:
250,276,39085,1,2,0:0:0:0:
234,7,39235,1,2,0:0:0:0:
150,301,39385,5,8,0:0:0:0:
134,32,39535,1,2,0:0:0:0:
350,251,39685,37,8,0:0:0:0:
78,228,39835,1,2,0:0:0:0:
278,178,39985,1,2,0:0:0:0:
34,57,40135,5,8,0:0:0:0:
206,105,40285,1,2,0:0:0:0:
6,155,40435,1,2,0:0:0:0:
234,7,40585,37,8,0:0:0:0:
250,276,40735,1,2,0:0:0:0:
506,30,40885,5,6,0:0:0:0:
306,80,41035,1,10,0:0:0:0:
478,128,41185,1,2,0:0:0:0:
478,128,41260,1,2,0:0:0:0:
478,128,41335,1,10,0:0:0:0:
350,251,41485,1,2,0:0:0:0:
234,7,41635,1,10,0:0:0:0:
450,226,41785,1,2,0:0:0:0:
506,30,41935,1,10,0:0:0:0:
206,105,42085,38,0,P|179:153|180:209,2,113.333333333333,8|8|2,0:0|0:0|0:0,0:0:0:0:
406,55,42685,1,8,0:0:0:0:
421,50,42985,1,0,0:0:0:0:
450,226,43285,5,6,0:0:0:0:
278,178,43435,2,0,L|283:93,1,85,8|0,0:0|0:0,0:0:0:0:
288,76,43660,1,2,0:0:0:0:
293,59,43735,1,8,0:0:0:0:
378,153,43885,1,2,0:0:0:0:
178,203,44035,2,0,L|93:198,1,85,8|0,0:0|0:0,0:0:0:0:
76,193,44260,1,2,0:0:0:0:
59,188,44335,1,8,0:0:0:0:
50,326,44485,37,2,0:0:0:0:
206,105,44635,1,8,0:0:0:0:
250,276,44785,1,0,0:0:0:0:
250,276,44860,1,2,0:0:0:0:
250,276,44935,2,0,L|244:360,1,85,8|2,0:0|0:0,0:0:0:0:
378,153,45235,1,8,0:0:0:0:
422,324,45385,1,0,0:0:0:0:
422,324,45460,1,2,0:0:0:0:
422,324,45535,1,8,0:0:0:0:
506,30,45685,5,6,0:0:0:0:
362,145,45835,2,0,P|319:142|279:128,1,85,8|0,0:0|0:0,0:0:0:0:
268,115,46060,1,2,0:0:0:0:
257,101,46135,1,8,0:0:0:0:
450,226,46285,1,2,0:0:0:0:
250,276,46435,2,0,P|289:258|331:250,1,85,8|0,0:0|0:0,0:0:0:0:
347,255,46660,1,2,0:0:0:0:
363,262,46735,1,8,0:0:0:0:
406,55,46885,37,2,0:0:0:0:
178,203,47035,2,0,P|159:164|151:122,1,85,8|0,0:0|0:0,0:0:0:0:
157,106,47260,1,2,0:0:0:0:
164,90,47335,1,8,0:0:0:0:
278,178,47485,1,2,0:0:0:0:
282,220,47560,1,2,0:0:0:0:
269,260,47635,1,10,0:0:0:0:
241,291,47710,1,2,0:0:0:0:
203,309,47785,1,2,0:0:0:0:
161,313,47860,1,2,0:0:0:0:
121,300,47935,1,10,0:0:0:0:
90,272,48010,1,2,0:0:0:0:
72,232,48085,6,0,L|69:189,1,42.5,6|2,0:0|0:0,0:0:0:0:
184,87,48235,2,0,P|193:128|190:171,1,85,8|0,0:0|0:0,0:0:0:0:
184,187,48460,1,2,0:0:0:0:
178,203,48535,1,8,0:0:0:0:
34,57,48685,1,2,0:0:0:0:
278,178,48835,1,8,0:0:0:0:
78,228,48985,1,0,0:0:0:0:
78,228,49060,1,2,0:0:0:0:
78,228,49135,1,8,0:0:0:0:
350,251,49285,37,2,0:0:0:0:
106,129,49435,1,8,0:0:0:0:
306,80,49585,1,0,0:0:0:0:
306,80,49660,1,2,0:0:0:0:
306,80,49735,2,0,L|300:163,1,85,8|2,0:0|0:0,0:0:0:0:
150,301,50035,1,8,0:0:0:0:
206,105,50185,1,0,0:0:0:0:
206,105,50260,1,2,0:0:0:0:
206,105,50335,1,8,0:0:0:0:
222,374,50485,5,6,0:0:0:0:
350,251,50635,2,0,L|434:257,1,85,8|0,0:0|0:0,0:0:0:0:
448,267,50860,1,2,0:0:0:0:
460,278,50935,1,8,0:0:0:0:
250,276,51085,1,2,0:0:0:0:
242,260,51160,1,2,0:0:0:0:
234,244,51235,1,8,0:0:0:0:
236,201,51310,1,8,0:0:0:0:
239,158,51385,1,8,0:0:0:0:
242,115,51460,1,8,0:0:0:0:
245,73,51535,1,2,0:0:0:0:
248,31,51610,1,2,0:0:0:0:
256,15,51685,37,0,0:0:0:0:
106,130,51835,1,2,0:0:0:0:
90,122,51910,1,2,0:0:0:0:
74,114,51985,1,8,0:0:0:0:
108,76,52060,1,8,0:0:0:0:
157,65,52135,1,8,0:0:0:0:
203,85,52210,1,8,0:0:0:0:
229,128,52285,1,2,0:0:0:0:
255,171,52360,1,2,0:0:0:0:
301,191,52435,1,8,0:0:0:0:
350,180,52510,1,8,0:0:0:0:
384,142,52585,1,2,0:0:0:0:
388,91,52660,1,2,0:0:0:0:
362,48,52735,1,2,0:0:0:0:
316,28,52810,1,2,0:0:0:0:
266,39,52885,5,6,0:0:0:0:
178,203,53035,2,0,L|172:287,1,85,8|0,0:0|0:0,0:0:0:0:
171,304,53260,1,2,0:0:0:0:
169,321,53335,1,8,0:0:0:0:
61,247,53485,1,2,0:0:0:0:
278,178,53635,2,0,L|284:262,1,85,8|0,0:0|0:0,0:0:0:0:
285,279,53860,1,2,0:0:0:0:
287,296,53935,1,8,0:0:0:0:
106,130,54085,37,2,0:0:0:0:
306,80,54235,2,0,L|390:74,1,85,8|0,0:0|0:0,0:0:0:0:
407,73,54460,1,2,0:0:0:0:
424,71,54535,1,8,0:0:0:0:
450,226,54685,1,2,0:0:0:0:
205,105,54835,2,0,L|121:99,1,85,8|0,0:0|0:0,0:0:0:0:
105,97,55060,1,2,0:0:0:0:
88,96,55135,1,8,0:0:0:0:
378,153,55285,5,6,0:0:0:0:
178,203,55435,2,0,P|154:238|147:279,1,85,8|0,0:0|0:0,0:0:0:0:
151,296,55660,1,2,0:0:0:0:
154,312,55735,1,8,0:0:0:0:
205,105,55885,1,2,0:0:0:0:
250,276,56035,2,0,P|268:313|301:340,1,85,8|0,0:0|0:0,0:0:0:0:
317,345,56260,1,2,0:0:0:0:
332,351,56335,1,8,0:0:0:0:
450,226,56485,37,2,0:0:0:0:
278,178,56635,1,8,0:0:0:0:
478,128,56785,1,0,0:0:0:0:
478,128,56860,1,2,0:0:0:0:
478,128,56935,1,8,0:0:0:0:
350,251,57085,1,2,0:0:0:0:
234,7,57235,1,8,0:0:0:0:
506,30,57385,1,0,0:0:0:0:
506,30,57460,1,2,0:0:0:0:
506,30,57535,1,8,0:0:0:0:
378,153,57685,5,6,0:0:0:0:
205,105,57835,2,0,L|199:189,1,85,8|0,0:0|0:0,0:0:0:0:
197,205,58060,1,2,0:0:0:0:
196,222,58135,1,8,0:0:0:0:
306,80,58285,1,2,0:0:0:0:
134,32,58435,2,0,L|50:26,1,85,8|0,0:0|0:0,0:0:0:0:
34,24,58660,1,2,0:0:0:0:
17,23,58735,1,8,0:0:0:0:
234,7,58885,37,2,0:0:0:0:
106,130,59035,2,0,L|100:214,1,85,8|0,0:0|0:0,0:0:0:0:
98,230,59260,1,2,0:0:0:0:
97,247,59335,1,8,0:0:0:0:
205,105,59485,1,2,0:0:0:0:
350,251,59635,2,0,L|434:257,1,85,8|0,0:0|0:0,0:0:0:0:
451,258,59860,1,2,0:0:0:0:
468,260,59935,1,8,0:0:0:0:
406,55,60085,5,6,0:0:0:0:
278,177,60235,2,0,P|243:202|201:209,1,85,8|0,0:0|0:0,0:0:0:0:
184,206,60460,1,2,0:0:0:0:
167,204,60535,1,8,0:0:0:0:
34,57,60685,1,2,0:0:0:0:
61,247,60835,1,8,0:0:0:0:
205,105,60985,1,2,0:0:0:0:
222,103,61060,1,2,0:0:0:0:
239,101,61135,1,8,0:0:0:0:
288,89,61210,1,8,0:0:0:0:
334,108,61285,37,8,0:0:0:0:
360,150,61360,1,8,0:0:0:0:
356,200,61435,1,2,0:0:0:0:
388,238,61510,1,2,0:0:0:0:
438,242,61585,5,8,0:0:0:0:
476,210,61660,1,8,0:0:0:0:
480,160,61735,1,2,0:0:0:0:
448,122,61810,1,8,0:0:0:0:
399,110,61885,37,2,0:0:0:0:
352,128,61960,1,2,0:0:0:0:
326,171,62035,1,8,0:0:0:0:
300,214,62110,1,8,0:0:0:0:
253,232,62185,1,2,0:0:0:0:
204,220,62260,1,2,0:0:0:0:
172,182,62335,2,0,L|168:137,1,42.5,2|2,0:0|0:0,0:0:0:0:
165,38,62477,38,0,P|172:80|174:122,1,85,6|0,0:0|0:0,0:0:0:0:
15,350,62777,2,0,P|20:265|36:182,1,170,8|0,0:0|0:0,0:0:0:0:
80,39,63227,1,2,0:0:0:0:
215,261,63377,1,8,0:0:0:0:
45,168,63527,1,2,0:0:0:0:
54,153,63827,37,2,0:0:0:0:
138,362,63977,1,8,0:0:0:0:
188,162,64127,1,2,0:0:0:0:
188,162,64202,1,2,0:0:0:0:
188,162,64277,1,2,0:0:0:0:
37,285,64427,1,2,0:0:0:0:
287,188,64577,2,0,L|354:183,1,68,8|0,0:0|0:0,0:0:0:0:
118,67,64877,5,6,0:0:0:0:
241,293,65027,1,2,0:0:0:0:
291,40,65177,1,8,0:0:0:0:
70,175,65327,2,0,P|64:252|65:329,1,136,2|0,0:0|0:0,0:0:0:0:
126,52,65777,1,8,0:0:0:0:
237,276,65927,1,2,0:0:0:0:
282,25,66077,37,2,0:0:0:0:
66,158,66227,1,2,0:0:0:0:
132,39,66377,1,8,0:0:0:0:
233,259,66527,1,2,0:0:0:0:
233,259,66602,1,2,0:0:0:0:
233,259,66677,1,2,0:0:0:0:
398,54,66827,1,2,0:0:0:0:
183,150,66977,1,8,0:0:0:0:
412,44,67127,6,0,L|479:39,1,68,6|0,0:0|0:0,0:0:0:0:
492,241,67427,1,2,0:0:0:0:
492,241,67502,1,2,0:0:0:0:
492,241,67577,2,0,P|424:196|342:211,1,170,8|0,0:0|0:0,0:0:0:0:
229,106,68027,1,2,0:0:0:0:
426,34,68177,1,8,0:0:0:0:
324,207,68327,1,2,0:0:0:0:
307,205,68627,37,2,0:0:0:0:
504,133,68777,1,8,0:0:0:0:
464,308,68927,1,2,0:0:0:0:
464,308,69002,1,2,0:0:0:0:
464,308,69077,1,2,0:0:0:0:
352,120,69227,1,2,0:0:0:0:
212,281,69377,2,0,P|203:314|199:348,1,68,8|0,0:0|0:0,0:0:0:0:
426,214,69677,5,6,0:0:0:0:
126,172,69827,1,2,0:0:0:0:
364,294,69977,1,8,0:0:0:0:
295,59,70127,2,0,P|306:125|309:193,1,136,2|0,0:0|0:0,0:0:0:0:
102,346,70577,37,8,0:0:0:0:
84,298,70652,1,8,0:0:0:0:
81,246,70727,1,8,0:0:0:0:
94,196,70802,1,8,0:0:0:0:
122,152,70877,5,2,0:0:0:0:
163,120,70952,1,2,0:0:0:0:
179,118,71027,1,8,0:0:0:0:
326,200,71177,1,2,0:0:0:0:
342,202,71252,1,2,0:0:0:0:
358,204,71327,37,8,0:0:0:0:
403,181,71402,1,8,0:0:0:0:
425,135,71477,1,8,0:0:0:0:
417,85,71552,1,8,0:0:0:0:
380,49,71627,1,2,0:0:0:0:
241,7,71777,2,0,L|238:49,1,42.5,12|0,0:0|0:0,0:0:0:0:
226,186,71927,1,2,0:0:0:0:
242,184,72227,5,2,0:0:0:0:
455,14,72377,2,0,L|466:183,1,170,12|0,0:0|0:0,0:0:0:0:
478,320,72827,1,2,0:0:0:0:
342,202,72977,2,0,L|345:134,1,68,8|0,0:0|0:0,0:0:0:0:
223,338,73277,38,0,P|191:347|157:351,1,68,0|2,0:0|0:0,0:0:0:0:
141,345,73502,1,2,0:0:0:0:
125,338,73577,1,8,0:0:0:0:
242,184,73727,1,2,0:0:0:0:
355,375,73877,1,2,0:0:0:0:
163,247,74027,1,2,0:0:0:0:
441,219,74177,2,0,P|451:252|455:286,1,68,8|0,0:0|0:0,0:0:0:0:
207,88,74477,5,6,0:0:0:0:
472,46,74627,1,2,0:0:0:0:
277,280,74777,1,8,0:0:0:0:
100,168,74927,2,0,P|93:100|89:33,1,136,2|0,0:0|0:0,0:0:0:0:
407,124,75377,1,8,0:0:0:0:
163,247,75527,1,2,0:0:0:0:
272,10,75677,37,2,0:0:0:0:
342,202,75827,1,2,0:0:0:0:
207,88,75977,1,8,0:0:0:0:
472,46,76127,1,2,0:0:0:0:
472,46,76202,1,2,0:0:0:0:
472,46,76277,1,2,0:0:0:0:
277,280,76427,1,2,0:0:0:0:
372,28,76577,1,8,0:0:0:0:
442,219,76727,6,0,P|438:253|436:287,1,68,6|0,0:0|0:0,0:0:0:0:
250,370,77027,1,2,0:0:0:0:
250,370,77102,1,2,0:0:0:0:
250,370,77177,2,0,L|238:200,1,170,8|0,0:0|0:0,0:0:0:0:
242,184,77777,1,8,0:0:0:0:
307,106,78227,37,2,0:0:0:0:
377,298,78377,1,8,0:0:0:0:
472,46,78527,1,2,0:0:0:0:
472,46,78602,1,2,0:0:0:0:
472,46,78677,1,2,0:0:0:0:
442,220,78827,1,2,0:0:0:0:
207,88,78977,2,0,L|139:83,1,68,8|0,0:0|0:0,0:0:0:0:
110,331,79277,5,6,0:0:0:0:
342,202,79427,1,2,0:0:0:0:
122,80,79577,1,8,0:0:0:0:
359,199,79727,2,0,P|418:168|447:108,1,136,2|2,0:0|0:0,0:0:0:0:
451,92,80102,1,2,0:0:0:0:
454,75,80177,1,8,0:0:0:0:
345,96,80327,1,2,0:0:0:0:
345,96,80402,1,2,0:0:0:0:
345,96,80477,38,0,B|349:153|349:153|360:192|360:192|359:242|325:276,1,191.249994163513,12|0,0:0|0:0,0:0:0:0:
309,285,81677,5,8,0:0:0:0:
105,292,81827,1,8,0:0:0:0:
261,375,81977,1,8,0:0:0:0:
201,113,82127,2,0,L|195:28,1,85,6|0,0:0|0:0,0:0:0:0:
459,192,82427,37,8,0:0:0:0:
203,129,82577,1,2,0:0:0:0:
351,20,82727,1,2,0:0:0:0:
257,214,82877,38,0,P|210:229|160:221,1,101.999996887207,12|0,0:0|0:0,0:0:0:0:
70,172,83327,1,0,0:0:0:0:
70,172,83477,2,0,P|63:148|59:123,1,50.9999984436036,2|0,0:0|0:0,0:0:0:0:
154,13,83777,2,0,P|150:38|143:63,1,50.9999984436036,2|2,0:0|0:0,0:0:0:0:
72,274,84077,37,8,0:0:0:0:
72,274,84227,2,0,L|21:270,1,50.9999984436036,2|0,0:0|0:0,0:0:0:0:
203,129,84527,2,0,L|253:125,1,50.9999984436036,2|0,0:0|0:0,0:0:0:0:
380,285,84827,1,8,0:0:0:0:
380,285,84977,2,0,L|383:335,1,50.9999984436036,2|2,0:0|0:0,0:0:0:0:
454,95,85277,5,12,0:0:0:0:
317,205,85427,2,0,L|203:212,1,101.999996887207,2|0,0:0|0:0,0:0:0:0:
417,190,85877,2,0,P|439:200|458:218,1,50.9999984436036,2|0,0:0|0:0,0:0:0:0:
354,110,86177,2,0,P|374:95|399:88,1,50.9999984436036,2|0,0:0|0:0,0:0:0:0:
380,285,86477,37,8,0:0:0:0:
317,205,86627,1,2,0:0:0:0:
179,295,86777,2,0,L|77:287,1,101.999996887207,6|0,0:0|0:0,0:0:0:0:
59,102,87227,1,8,0:0:0:0:
154,140,87377,2,0,L|151:190,1,50.9999984436036,2|2,0:0|0:0,0:0:0:0:
30,377,87677,5,8,0:0:0:0:
194,296,87827,2,0,P|244:302|293:315,1,101.999996887207,2|0,0:0|0:0,0:0:0:0:
385,359,88277,2,0,P|434:345|467:307,1,101.999996887207,2|0,0:0|0:0,0:0:0:0:
462,205,88727,1,2,0:0:0:0:
278,112,88877,37,8,0:0:0:0:
378,258,89027,1,2,0:0:0:0:
378,258,89102,1,2,0:0:0:0:
378,258,89177,1,8,0:0:0:0:
362,54,89327,2,0,L|358:3,1,50.9999984436036,8|0,0:0|0:0,0:0:0:0:
453,103,89627,1,2,0:0:0:0:
453,103,89777,2,0,L|449:153,1,50.9999984436036,2|0,0:0|0:0,0:0:0:0:
235,210,90077,5,8,0:0:0:0:
235,210,90227,2,0,L|286:214,1,50.9999984436036,2|0,0:0|0:0,0:0:0:0:
470,302,90527,1,2,0:0:0:0:
470,302,90602,1,2,0:0:0:0:
470,302,90677,1,8,0:0:0:0:
294,316,90827,1,8,0:0:0:0:
253,283,90902,1,8,0:0:0:0:
246,232,90977,1,2,0:0:0:0:
278,191,91052,1,2,0:0:0:0:
330,185,91127,1,8,0:0:0:0:
382,178,91202,1,8,0:0:0:0:
414,138,91277,37,2,0:0:0:0:
407,86,91352,1,2,0:0:0:0:
367,54,91427,1,8,0:0:0:0:
315,46,91502,1,8,0:0:0:0:
265,65,91577,1,8,0:0:0:0:
233,106,91652,1,8,0:0:0:0:
224,158,91727,1,2,0:0:0:0:
244,207,91802,1,2,0:0:0:0:
284,240,91877,1,2,0:0:0:0:
470,302,92027,5,2,0:0:0:0:
470,302,92102,1,2,0:0:0:0:
470,302,92177,2,0,P|478:278|481:252,1,50.9999984436036,6|0,0:0|0:0,0:0:0:0:
453,103,92477,38,0,P|427:107|404:117,1,50.9999984436036,2|0,0:0|0:0,0:0:0:0:
286,214,93077,5,12,0:0:0:0:
278,112,93227,1,2,0:0:0:0:
378,258,93377,2,0,L|381:308,1,50.9999984436036,2|0,0:0|0:0,0:0:0:0:
194,170,93677,37,2,0:0:0:0:
370,156,93827,1,2,0:0:0:0:
294,316,93977,1,2,0:0:0:0:
294,316,94127,2,0,L|243:319,1,50.9999984436036,2|0,0:0|0:0,0:0:0:0:
146,351,94427,2,0,P|140:300|133:249,1,101.999996887207,2|2,0:0|0:0,0:0:0:0:
81,114,94877,5,2,0:0:0:0:
175,156,95027,1,8,0:0:0:0:
165,54,95177,1,8,0:0:0:0:
39,208,95327,1,2,0:0:0:0:
39,208,95402,1,2,0:0:0:0:
39,208,95477,2,0,L|31:258,1,50.9999984436036,8|0,0:0|0:0,0:0:0:0:
81,114,95777,2,0,P|62:96|41:81,1,50.9999984436036,2|0,0:0|0:0,0:0:0:0:
133,250,96077,37,2,0:0:0:0:
259,96,96227,1,2,0:0:0:0:
259,96,96302,1,2,0:0:0:0:
259,96,96377,1,8,0:0:0:0:
227,292,96527,1,8,0:0:0:0:
165,54,96677,1,6,0:0:0:0:
321,334,96827,1,2,0:0:0:0:
336,331,97277,5,0,0:0:0:0:
351,328,97427,1,0,0:0:0:0:
269,198,97877,37,12,0:0:0:0:
279,300,98027,1,2,0:0:0:0:
353,138,98177,2,0,L|356:87,1,50.9999984436036,2|0,0:0|0:0,0:0:0:0:
457,282,98477,5,2,0:0:0:0:
437,78,98627,1,2,0:0:0:0:
269,198,98777,1,2,0:0:0:0:
269,198,98927,2,0,L|272:249,1,50.9999984436036,2|0,0:0|0:0,0:0:0:0:
191,355,99227,2,0,P|175:307|184:258,1,101.999996887207,2|2,0:0|0:0,0:0:0:0:
259,96,99677,37,8,0:0:0:0:
279,300,99827,1,8,0:0:0:0:
91,216,99977,1,8,0:0:0:0:
358,153,100127,2,0,L|409:156,1,50.9999984436036,6|0,0:0|0:0,0:0:0:0:
165,54,100427,1,8,0:0:0:0:
284,285,100577,1,8,0:0:0:0:
343,36,100727,1,8,0:0:0:0:
175,156,100877,6,0,L|178:216,1,59.4999981842042,6|0,0:0|0:0,0:0:0:0:
383,299,101177,2,0,P|376:240|337:197,1,118.999996368408,2|0,0:0|0:0,0:0:0:0:
191,323,101627,1,2,0:0:0:0:
381,313,101777,1,2,0:0:0:0:
247,193,101927,1,2,0:0:0:0:
321,377,102077,37,8,0:0:0:0:
331,366,102377,2,0,P|390:368|449:376,1,118.999996368408,2|0,0:0|0:0,0:0:0:0:
445,221,102827,1,2,0:0:0:0:
284,285,102977,1,2,0:0:0:0:
408,129,103127,1,2,0:0:0:0:
408,129,103277,5,0,0:0:0:0:
210,100,103577,2,0,P|164:138|149:194,1,118.999996368408,2|0,0:0|0:0,0:0:0:0:
309,114,104027,2,0,P|318:87|319:57,1,59.4999981842042,2|0,0:0|0:0,0:0:0:0:
247,193,104327,1,2,0:0:0:0:
247,193,104402,1,2,0:0:0:0:
247,193,104477,37,8,0:0:0:0:
408,129,104627,1,2,0:0:0:0:
210,100,104777,1,2,0:0:0:0:
383,299,104927,1,8,0:0:0:0:
309,114,105077,1,2,0:0:0:0:
284,285,105227,1,2,0:0:0:0:
470,50,105377,1,8,0:0:0:0:
204,86,105527,1,2,0:0:0:0:
445,220,105677,6,0,P|452:249|455:279,1,59.4999981842042,6|0,0:0|0:0,0:0:0:0:
321,377,105977,2,0,P|325:317|331:258,1,118.999996368408,2|0,0:0|0:0,0:0:0:0:
496,141,106427,1,2,0:0:0:0:
482,313,106577,1,2,0:0:0:0:
499,126,106727,1,2,0:0:0:0:
320,248,106877,37,8,0:0:0:0:
309,238,107177,2,0,P|250:228|190:226,1,118.999996368408,2|0,0:0|0:0,0:0:0:0:
75,358,107627,1,2,0:0:0:0:
115,158,107777,1,2,0:0:0:0:
171,326,107927,1,2,0:0:0:0:
171,326,108077,5,0,0:0:0:0:
287,194,108377,2,0,P|291:134|292:75,1,118.999996368408,2|0,0:0|0:0,0:0:0:0:
152,1,108827,2,0,P|140:28|135:58,1,59.4999981842042,2|0,0:0|0:0,0:0:0:0:
95,258,109127,1,2,0:0:0:0:
95,258,109202,1,2,0:0:0:0:
95,258,109277,38,0,L|90:317,1,59.4999981842042,8|0,0:0|0:0,0:0:0:0:
267,294,109577,1,2,0:0:0:0:
115,158,109727,2,0,L|55:153,1,59.4999981842042,8|0,0:0|0:0,0:0:0:0:
171,326,110027,1,2,0:0:0:0:
171,326,110102,1,2,0:0:0:0:
171,326,110177,1,8,0:0:0:0:
307,94,110327,1,8,0:0:0:0:
191,226,110477,5,6,0:0:0:0:
231,26,110627,1,2,0:0:0:0:
382,161,110777,2,0,P|381:220|350:270,1,118.999996368408,2|0,0:0|0:0,0:0:0:0:
178,217,111227,1,2,0:0:0:0:
178,217,111302,1,2,0:0:0:0:
178,217,111377,1,2,0:0:0:0:
307,94,111527,1,2,0:0:0:0:
439,330,111677,37,8,0:0:0:0:
287,194,111827,1,2,0:0:0:0:
287,194,111902,1,2,0:0:0:0:
287,194,111977,2,0,P|283:253|279:312,1,118.999996368408,2|0,0:0|0:0,0:0:0:0:
459,230,112427,1,2,0:0:0:0:
459,230,112502,1,2,0:0:0:0:
459,230,112577,1,2,0:0:0:0:
403,62,112727,1,2,0:0:0:0:
403,62,112877,5,0,0:0:0:0:
363,262,113027,1,2,0:0:0:0:
211,126,113177,2,0,P|152:131|107:169,1,118.999996368408,2|0,0:0|0:0,0:0:0:0:
267,294,113627,2,0,P|273:264|274:235,1,59.4999981842042,2|0,0:0|0:0,0:0:0:0:
231,26,113927,1,2,0:0:0:0:
231,26,114002,1,2,0:0:0:0:
231,26,114077,37,8,0:0:0:0:
191,226,114227,1,2,0:0:0:0:
383,162,114377,1,2,0:0:0:0:
171,326,114527,1,8,0:0:0:0:
211,126,114677,1,2,0:0:0:0:
363,262,114827,1,2,0:0:0:0:
363,262,114902,1,2,0:0:0:0:
363,262,114977,1,8,0:0:0:0:
115,158,115127,1,8,0:0:0:0:
307,94,115277,6,0,P|312:123|314:152,1,59.4999981842042,6|0,0:0|0:0,0:0:0:0:
171,326,115577,2,0,P|119:297|60:295,1,118.999996368408,2|0,0:0|0:0,0:0:0:0:
317,167,116027,1,8,0:0:0:0:
174,312,116177,1,2,0:0:0:0:
211,126,116327,1,2,0:0:0:0:
343,362,116477,37,8,0:0:0:0:
191,226,116627,1,2,0:0:0:0:
383,162,116777,2,0,P|389:219|392:281,1,118.999996368408,2|0,0:0|0:0,0:0:0:0:
171,326,117227,1,2,0:0:0:0:
211,126,117377,1,2,0:0:0:0:
267,294,117527,1,2,0:0:0:0:
267,294,117677,5,0,0:0:0:0:
458,230,117977,2,0,P|483:176|476:118,1,118.999996368408,2|0,0:0|0:0,0:0:0:0:
307,94,118427,1,2,0:0:0:0:
363,262,118577,1,2,0:0:0:0:
499,30,118727,1,2,0:0:0:0:
499,30,118802,1,2,0:0:0:0:
499,30,118877,37,8,0:0:0:0:
383,162,119027,1,2,0:0:0:0:
383,162,119102,1,2,0:0:0:0:
383,162,119177,5,8,0:0:0:0:
342,190,119252,1,8,0:0:0:0:
292,196,119327,1,8,0:0:0:0:
246,176,119402,1,8,0:0:0:0:
216,136,119477,2,0,L|218:98,1,38.2499988327027,2|2,0:0|0:0,0:0:0:0:
403,62,119627,37,8,0:0:0:0:
406,112,119702,1,8,0:0:0:0:
410,162,119777,1,2,0:0:0:0:
413,213,119852,1,2,0:0:0:0:
417,263,119927,2,0,L|419:301,1,38.2499988327027,2|2,0:0|0:0,0:0:0:0:
261,378,120077,22,0,L|267:294,1,85,6|0,0:0|0:0,0:0:0:0:
307,94,120377,1,8,0:0:0:0:
148,154,120527,2,0,L|119:152,2,28.3333333333333,2|2|8,0:0|0:0|0:0,0:0:0:0:
225,208,120677,2,0,P|227:250|215:290,1,85,2|2,0:0|0:0,0:0:0:0:
21,371,120977,1,8,0:0:0:0:
13,184,121127,1,2,0:0:0:0:
135,326,121277,5,2,0:0:0:0:
135,326,121427,1,0,0:0:0:0:
234,115,121577,1,8,0:0:0:0:
78,254,121727,1,2,0:0:0:0:
225,208,121877,1,2,0:0:0:0:
61,251,122027,1,2,0:0:0:0:
311,169,122177,1,8,0:0:0:0:
114,42,122327,38,0,L|29:36,1,85,6|0,0:0|0:0,0:0:0:0:
107,168,122627,1,2,0:0:0:0:
284,61,122777,1,8,0:0:0:0:
320,183,122927,2,0,L|318:211,2,28.3333333333333,2|2|8,0:0|0:0|0:0,0:0:0:0:
374,105,123077,2,0,P|415:98|456:108,1,85,2|2,0:0|0:0,0:0:0:0:
507,356,123377,1,8,0:0:0:0:
414,192,123527,1,2,0:0:0:0:
414,192,123677,1,2,0:0:0:0:
212,337,123827,5,12,0:0:0:0:
280,97,123977,1,2,0:0:0:0:
306,346,124127,37,12,0:0:0:0:
374,106,124277,1,2,0:0:0:0:
400,355,124427,5,12,0:0:0:0:
468,115,124577,1,2,0:0:0:0:
266,259,124727,38,0,P|203:262|150:228,1,127.5,12|0,0:0|0:0,0:0:0:0:
146,211,125027,1,2,0:0:0:0:
223,20,125177,1,12,0:0:0:0:
41,81,125327,2,0,L|12:79,2,28.3333333333333,2|2|8,0:0|0:0|0:0,0:0:0:0:
130,104,125477,2,0,L|214:109,1,85,2|0,0:0|0:0,0:0:0:0:
424,18,125777,1,8,0:0:0:0:
231,112,125927,1,2,0:0:0:0:
415,173,126077,5,2,0:0:0:0:
415,173,126227,1,0,0:0:0:0:
206,16,126377,1,8,0:0:0:0:
330,212,126527,1,2,0:0:0:0:
440,13,126677,1,2,0:0:0:0:
236,203,126827,1,2,0:0:0:0:
500,134,126977,1,8,0:0:0:0:
338,26,127127,38,0,P|326:110|324:195,1,170,6|2,0:0|0:0,0:0:0:0:
352,357,127577,1,8,0:0:0:0:
219,201,127727,1,2,0:0:0:0:
202,199,127802,1,2,0:0:0:0:
185,197,127877,5,8,0:0:0:0:
144,228,127952,1,8,0:0:0:0:
93,229,128027,1,8,0:0:0:0:
50,200,128102,1,8,0:0:0:0:
33,151,128177,1,2,0:0:0:0:
55,104,128252,1,2,0:0:0:0:
104,87,128327,1,2,0:0:0:0:
151,109,128402,1,2,0:0:0:0:
168,157,128477,37,8,0:0:0:0:
158,207,128552,1,8,0:0:0:0:
174,255,128627,1,8,0:0:0:0:
212,288,128702,1,8,0:0:0:0:
261,298,128777,1,2,0:0:0:0:
309,282,128852,1,2,0:0:0:0:
342,244,128927,1,8,0:0:0:0:
352,195,129002,1,8,0:0:0:0:
336,147,129077,5,2,0:0:0:0:
302,184,129152,1,2,0:0:0:0:
281,229,129227,1,2,0:0:0:0:
275,278,129302,1,2,0:0:0:0:
284,327,129377,1,8,0:0:0:0:
445,204,129527,38,0,B|441:136|441:136|431:116|431:116|428:77|411:39,1,170,6|2,0:0|0:0,0:0:0:0:
201,98,129977,1,8,0:0:0:0:
321,165,130127,2,0,L|350:164,2,28.3333333333333,2|2|8,0:0|0:0|0:0,0:0:0:0:
245,220,130277,2,0,L|240:304,1,85,2|2,0:0|0:0,0:0:0:0:
461,210,130577,1,8,0:0:0:0:
359,79,130727,1,2,0:0:0:0:
423,296,130877,5,2,0:0:0:0:
423,296,131027,1,0,0:0:0:0:
493,56,131177,1,8,0:0:0:0:
305,159,131327,1,2,0:0:0:0:
477,216,131477,1,2,0:0:0:0:
289,153,131627,1,2,0:0:0:0:
506,45,131777,1,8,0:0:0:0:
331,270,131927,38,0,B|259:264|259:264|239:255|239:255|163:250,1,170,6|2,0:0|0:0,0:0:0:0:
12,371,132377,1,8,0:0:0:0:
87,194,132527,2,0,L|88:165,2,28.3333333333333,2|2|8,0:0|0:0|0:0,0:0:0:0:
78,289,132677,2,0,P|104:321|142:341,1,85,2|2,0:0|0:0,0:0:0:0:
347,273,132977,1,8,0:0:0:0:
234,358,133127,1,2,0:0:0:0:
219,174,133277,5,2,0:0:0:0:
219,174,133427,1,0,0:0:0:0:
441,283,133577,2,0,L|446:366,1,85,8|0,0:0|0:0,0:0:0:0:
313,184,133877,2,0,P|315:120|328:58,1,127.5,2|0,0:0|0:0,0:0:0:0:
340,44,134177,1,8,0:0:0:0:
162,250,134327,38,0,P|81:246|34:178,1,170,6|2,0:0|0:0,0:0:0:0:
223,9,134777,1,8,0:0:0:0:
34,23,134927,2,0,L|5:21,2,28.3333333333333,2|2|8,0:0|0:0|0:0,0:0:0:0:
106,82,135077,2,0,P|122:121|125:164,1,85,2|2,0:0|0:0,0:0:0:0:
85,360,135377,1,8,0:0:0:0:
257,260,135527,1,2,0:0:0:0:
30,228,135677,5,2,0:0:0:0:
30,228,135827,1,0,0:0:0:0:
313,184,135977,1,8,0:0:0:0:
123,266,136127,1,2,0:0:0:0:
328,177,136277,1,2,0:0:0:0:
201,336,136427,1,2,0:0:0:0:
181,88,136577,1,8,0:0:0:0:
351,270,136727,38,0,L|356:354,1,85,6|0,0:0|0:0,0:0:0:0:
467,206,137027,1,8,0:0:0:0:
427,236,137102,1,8,0:0:0:0:
377,236,137177,1,8,0:0:0:0:
336,207,137252,1,8,0:0:0:0:
320,159,137327,1,2,0:0:0:0:
335,111,137402,1,2,0:0:0:0:
375,81,137477,1,8,0:0:0:0:
424,88,137552,1,8,0:0:0:0:
454,128,137627,2,0,L|451:170,1,42.5,2|2,0:0|0:0,0:0:0:0:
257,260,137777,5,8,0:0:0:0:
206,256,137852,1,8,0:0:0:0:
155,252,137927,1,8,0:0:0:0:
104,249,138002,1,8,0:0:0:0:
53,245,138077,37,2,0:0:0:0:
43,232,138152,1,0,0:0:0:0:
32,218,138227,2,0,L|29:175,1,42.5,8|8,0:0|0:0,0:0:0:0:
63,21,138377,1,2,0:0:0:0:
63,21,138452,1,2,0:0:0:0:
63,21,138527,1,8,0:0:0:0:
187,163,138677,1,8,0:0:0:0:
233,184,138752,1,8,0:0:0:0:
283,184,138827,1,2,0:0:0:0:
329,163,138902,1,2,0:0:0:0:
375,142,138977,1,2,0:0:0:0:
425,142,139052,1,2,0:0:0:0:
471,163,139127,38,0,B|484:206|484:206|476:329,1,170,6|2,0:0|0:0,0:0:0:0:
471,347,139502,1,2,0:0:0:0:
466,363,139577,2,0,L|381:357,1,85,8|0,0:0|0:0,0:0:0:0:
233,207,139877,1,10,0:0:0:0:
249,205,139952,1,2,0:0:0:0:
266,204,140027,1,2,0:0:0:0:
283,203,140102,1,2,0:0:0:0:
300,201,140177,2,0,L|306:286,1,85,8|0,0:0|0:0,0:0:0:0:
135,375,140477,37,8,0:0:0:0:
90,283,140627,1,2,0:0:0:0:
85,266,140702,1,2,0:0:0:0:
80,249,140777,2,0,L|85:164,1,85,8|0,0:0|0:0,0:0:0:0:
171,49,141077,1,10,0:0:0:0:
172,66,141152,1,2,0:0:0:0:
173,83,141227,1,2,0:0:0:0:
175,100,141302,1,2,0:0:0:0:
177,117,141377,1,8,0:0:0:0:
218,309,141527,1,2,0:0:0:0:
268,70,141677,5,12,0:0:0:0:
172,219,141827,1,2,0:0:0:0:
354,125,141977,2,0,L|438:119,1,85,8|0,0:0|0:0,0:0:0:0:
336,262,142277,1,10,0:0:0:0:
319,260,142352,1,2,0:0:0:0:
302,259,142427,1,2,0:0:0:0:
285,257,142502,1,2,0:0:0:0:
268,256,142577,2,0,L|184:250,1,85,8|0,0:0|0:0,0:0:0:0:
435,244,142877,37,8,0:0:0:0:
401,339,143027,1,2,0:0:0:0:
384,341,143102,1,2,0:0:0:0:
367,342,143177,2,0,L|283:348,1,85,8|0,0:0|0:0,0:0:0:0:
370,167,143477,1,8,0:0:0:0:
500,321,143627,1,2,0:0:0:0:
293,232,143777,1,8,0:0:0:0:
463,65,143927,1,2,0:0:0:0:
435,244,144077,5,8,0:0:0:0:
472,50,144227,1,2,0:0:0:0:
228,155,144377,2,0,L|144:149,1,85,12|0,0:0|0:0,0:0:0:0:
60,35,144677,1,10,0:0:0:0:
58,52,144752,1,2,0:0:0:0:
57,69,144827,1,2,0:0:0:0:
55,86,144902,1,2,0:0:0:0:
54,103,144977,2,0,L|48:187,1,85,8|0,0:0|0:0,0:0:0:0:
158,343,145277,37,8,0:0:0:0:
193,249,145427,1,2,0:0:0:0:
191,232,145502,1,2,0:0:0:0:
190,215,145577,2,0,L|184:131,1,85,8|0,0:0|0:0,0:0:0:0:
258,326,145877,1,8,0:0:0:0:
184,113,146027,1,2,0:0:0:0:
93,266,146177,1,8,0:0:0:0:
328,138,146327,1,2,0:0:0:0:
28,189,146477,5,12,0:0:0:0:
293,232,146627,1,2,0:0:0:0:
310,230,146702,1,2,0:0:0:0:
327,229,146777,2,0,L|411:223,1,85,8|0,0:0|0:0,0:0:0:0:
158,343,147077,1,8,0:0:0:0:
128,172,147227,1,2,0:0:0:0:
258,326,147377,2,0,L|342:332,1,85,8|0,0:0|0:0,0:0:0:0:
360,333,147602,1,2,0:0:0:0:
377,335,147677,37,8,0:0:0:0:
493,198,147827,1,8,0:0:0:0:
477,148,147902,1,8,0:0:0:0:
431,126,147977,1,8,0:0:0:0:
382,142,148052,1,8,0:0:0:0:
360,187,148127,2,0,L|357:229,1,42.5,2|2,0:0|0:0,0:0:0:0:
474,365,148277,1,8,0:0:0:0:
472,348,148352,1,8,0:0:0:0:
470,331,148427,2,0,L|467:288,1,42.5,2|2,0:0|0:0,0:0:0:0:
440,75,148577,1,8,0:0:0:0:
389,78,148652,1,8,0:0:0:0:
338,82,148727,1,8,0:0:0:0:
287,85,148802,1,8,0:0:0:0:
236,87,148877,6,0,P|205:116|187:155,1,85,6|0,0:0|0:0,0:0:0:0:
100,328,149177,1,8,0:0:0:0:
353,224,149327,2,0,P|324:193|286:176,1,85,2|0,0:0|0:0,0:0:0:0:
113,89,149627,1,8,0:0:0:0:
216,341,149777,2,0,P|247:312|265:274,1,85,6|0,0:0|0:0,0:0:0:0:
352,101,150077,37,8,0:0:0:0:
99,204,150227,2,0,P|128:235|167:253,1,85,2|0,0:0|0:0,0:0:0:0:
340,340,150527,1,2,0:0:0:0:
340,340,150602,1,2,0:0:0:0:
340,340,150677,1,10,0:0:0:0:
255,80,150827,1,10,0:0:0:0:
246,65,151277,6,0,L|110:55,1,136,6|0,0:0|0:0,0:0:0:0:
76,181,151727,2,0,P|132:147|199:155,1,136,2|0,0:0|0:0,0:0:0:0:
255,241,152177,38,0,P|263:308|266:376,1,136,2|0,0:0|0:0,0:0:0:0:
152,245,152627,2,0,P|154:177|163:109,1,136,2|0,0:0|0:0,0:0:0:0:
358,237,153077,1,10,0:0:0:0:
105,335,153227,1,10,0:0:0:0:
89,331,153677,6,0,L|79:195,1,136,6|0,0:0|0:0,0:0:0:0:
131,107,154127,2,0,P|66:95|6:125,1,136,2|0,0:0|0:0,0:0:0:0:
181,198,154577,38,0,P|247:189|317:185,1,136,2|0,0:0|0:0,0:0:0:0:
475,148,155027,2,0,P|441:145|408:139,1,68,2|0,0:0|0:0,0:0:0:0:
185,21,155327,1,2,0:0:0:0:
185,21,155402,1,2,0:0:0:0:
185,21,155477,1,10,0:0:0:0:
230,288,155627,1,10,0:0:0:0:
245,281,156077,6,0,P|312:284|380:293,1,136,6|0,0:0|0:0,0:0:0:0:
473,253,156527,2,0,P|407:250|356:208,1,136,2|0,0:0|0:0,0:0:0:0:
451,88,156977,2,0,P|449:122|442:156,1,68,2|0,0:0|0:0,0:0:0:0:
256,211,157277,37,8,0:0:0:0:
256,211,157377,2,0,L|210:207,1,39.6666654561361,8|2,0:0|0:0,0:0:0:0:
60,125,157577,1,8,0:0:0:0:
60,125,157677,2,0,L|106:121,1,39.6666654561361,2|8,0:0|0:0,0:0:0:0:
232,63,157877,5,8,0:0:0:0:
249,59,158177,1,0,0:0:0:0:
266,55,158477,6,0,L|384:46,1,118.999996368408,6|0,0:0|0:0,0:0:0:0:
486,40,158927,1,2,0:0:0:0:
486,40,159077,2,0,P|495:68|500:97,1,59.4999981842042
463,191,159377,2,0,P|434:200|405:205,1,59.4999981842042,2|0,0:0|0:0,0:0:0:0:
213,142,159677,5,8,0:0:0:0:
331,273,159827,1,2,0:0:0:0:
310,174,160277,1,0,0:0:0:0:
308,156,160877,1,0,0:0:0:0:
443,59,161177,37,2,0:0:0:0:
391,217,161327,1,2,0:0:0:0:
225,95,161477,2,0,P|165:96|106:102,1,118.999996368408,2|0,0:0|0:0,0:0:0:0:
31,169,161927,1,8,0:0:0:0:
31,169,162002,1,8,0:0:0:0:
31,169,162077,6,0,P|27:198|28:228,1,59.4999981842042,2|0,0:0|0:0,0:0:0:0:
126,364,162377,1,8,0:0:0:0:
274,250,162527,38,0,P|220:197|146:196,1,152.999995330811,2|0,0:0|0:0,0:0:0:0:
223,337,162977,2,0,P|260:349|298:347,1,76.4999976654053,2|0,0:0|0:0,0:0:0:0:
378,285,163277,6,0,L|369:166,1,118.999996368408,6|0,0:0|0:0,0:0:0:0:
396,67,163727,1,2,0:0:0:0:
396,67,163877,2,0,P|424:57|453:55,1,59.4999981842042
499,145,164177,1,0,0:0:0:0:
298,94,164327,38,0,L|293:32,1,59.4999981842042,8|0,0:0|0:0,0:0:0:0:
272,193,164627,1,2,0:0:0:0:
272,193,165077,6,0,B|309:181|309:181|345:197|345:197|444:204,1,178.499994552612,0|2,0:0|0:0,0:0:0:0:
462,207,166052,1,2,0:0:0:0:
479,209,166127,1,2,0:0:0:0:
301,288,166277,1,2,0:0:0:0:
366,105,166427,1,2,0:0:0:0:
366,105,166502,1,2,0:0:0:0:
366,105,166577,1,2,0:0:0:0:
401,301,166727,1,2,0:0:0:0:
177,222,166877,38,0,L|117:217,1,59.4999981842042,6|0,0:0|0:0,0:0:0:0:
243,98,167177,1,8,0:0:0:0:
206,317,167327,6,0,L|129:311,1,76.4999976654053,2|0,0:0|0:0,0:0:0:0:
272,193,167627,1,2,0:0:0:0:
272,193,167702,1,2,0:0:0:0:
272,193,167777,1,8,0:0:0:0:
53,156,167927,1,8,0:0:0:0:
169,56,168077,38,0,L|162:175,1,118.999996368408,6|0,0:0|0:0,0:0:0:0:
156,275,168527,2,0,P|107:308|48:313,1,118.999996368408,2|0,0:0|0:0,0:0:0:0:
24,214,168977,1,2,0:0:0:0:
24,214,169127,1,2,0:0:0:0:
246,231,169277,6,0,L|253:350,1,118.999996368408,12|0,0:0|0:0,0:0:0:0:
156,275,169727,2,0,P|151:216|176:163,1,118.999996368408,2|0,0:0|0:0,0:0:0:0:
150,375,170177,1,8,0:0:0:0:
330,287,170327,38,0,L|389:283,1,59.4999981842042,8|0,0:0|0:0,0:0:0:0:
483,247,170627,1,2,0:0:0:0:
483,247,170777,2,0,L|486:306,1,59.4999981842042,2|0,0:0|0:0,0:0:0:0:
336,187,171077,2,0,P|338:127|348:67,1,118.999996368408,2|0,0:0|0:0,0:0:0:0:
246,231,171527,1,2,0:0:0:0:
246,231,171602,1,2,0:0:0:0:
246,231,171677,6,0,P|219:240|189:242,1,59.4999981842042,8|0,0:0|0:0,0:0:0:0:
355,56,171977,1,2,0:0:0:0:
202,141,172127,2,0,P|172:135|146:121,1,59.4999981842042,2|0,0:0|0:0,0:0:0:0:
426,143,172427,1,2,0:0:0:0:
426,143,172502,1,2,0:0:0:0:
426,143,172577,1,8,0:0:0:0:
208,41,172727,1,8,0:0:0:0:
336,187,172877,38,0,P|345:245|347:305,1,118.999996368408,6|0,0:0|0:0,0:0:0:0:
273,373,173327,2,0,P|214:368|169:331,1,118.999996368408,2|0,0:0|0:0,0:0:0:0:
132,146,173777,1,8,0:0:0:0:
251,275,173927,1,8,0:0:0:0:
128,131,174077,6,0,L|119:12,1,118.999996368408,12|0,0:0|0:0,0:0:0:0:
35,116,174527,2,0,L|26:234,1,118.999996368408,2|0,0:0|0:0,0:0:0:0:
176,344,174977,1,8,0:0:0:0:
229,175,175127,38,0,L|224:117,1,59.4999981842042,8|0,0:0|0:0,0:0:0:0:
133,71,175427,1,2,0:0:0:0:
133,71,175577,2,0,L|128:131,1,59.4999981842042,2|0,0:0|0:0,0:0:0:0:
154,244,175877,1,2,0:0:0:0:
326,206,176027,1,8,0:0:0:0:
140,238,176177,1,8,0:0:0:0:
350,321,176327,1,2,0:0:0:0:
350,321,176402,1,2,0:0:0:0:
350,321,176477,6,0,L|409:316,1,59.4999981842042,8|0,0:0|0:0,0:0:0:0:
488,93,176777,1,2,0:0:0:0:
312,212,176927,2,0,L|253:207,1,59.4999981842042,2|0,0:0|0:0,0:0:0:0:
432,15,177227,1,2,0:0:0:0:
432,15,177302,1,2,0:0:0:0:
432,15,177377,1,8,0:0:0:0:
485,247,177527,1,8,0:0:0:0:
354,71,177677,38,0,P|295:57|234:54,1,118.999996368408,6|0,0:0|0:0,0:0:0:0:
175,134,178127,2,0,P|116:146|57:147,1,118.999996368408,2|0,0:0|0:0,0:0:0:0:
12,56,178577,1,2,0:0:0:0:
12,56,178727,1,2,0:0:0:0:
237,54,178877,6,0,P|271:103|274:161,1,118.999996368408,12|0,0:0|0:0,0:0:0:0:
247,259,179327,2,0,L|129:250,1,118.999996368408,2|0,0:0|0:0,0:0:0:0:
26,241,179777,1,2,0:0:0:0:
26,241,179927,38,0,P|28:212|35:183,1,59.4999981842042,2|0,0:0|0:0,0:0:0:0:
97,52,180227,1,2,0:0:0:0:
97,52,180377,2,0,P|104:81|107:111,1,59.4999981842042,2|0,0:0|0:0,0:0:0:0:
74,316,180677,2,0,P|133:304|192:303,1,118.999996368408,2|0,0:0|0:0,0:0:0:0:
290,324,181127,1,2,0:0:0:0:
372,185,181277,6,0,L|367:125,1,59.4999981842042,8|0,0:0|0:0,0:0:0:0:
388,345,181577,1,2,0:0:0:0:
280,225,181727,2,0,L|275:165,1,59.4999981842042,2|0,0:0|0:0,0:0:0:0:
496,39,182027,1,2,0:0:0:0:
496,39,182102,1,2,0:0:0:0:
496,39,182177,1,10,0:0:0:0:
439,261,182327,1,2,0:0:0:0:
271,148,182477,38,0,L|153:139,1,118.999996368408,6|0,0:0|0:0,0:0:0:0:
205,51,182927,2,0,L|87:60,1,118.999996368408,2|0,0:0|0:0,0:0:0:0:
7,127,183377,1,2,0:0:0:0:
7,127,183527,1,2,0:0:0:0:
171,241,183677,6,0,P|225:215|255:165,1,118.999996368408,12|0,0:0|0:0,0:0:0:0:
305,77,184127,2,0,L|423:68,1,118.999996368408,2|2,0:0|0:0,0:0:0:0:
441,62,184502,1,2,0:0:0:0:
458,56,184577,1,8,0:0:0:0:
312,178,184727,38,0,P|305:207|303:236,1,59.4999981842042,8|0,0:0|0:0,0:0:0:0:
392,283,185027,1,2,0:0:0:0:
392,283,185177,2,0,P|414:263|433:240,1,59.4999981842042,2|0,0:0|0:0,0:0:0:0:
232,308,185477,2,0,L|114:299,1,118.999996368408,2|0,0:0|0:0,0:0:0:0:
59,132,185927,1,2,0:0:0:0:
59,132,186002,1,2,0:0:0:0:
59,132,186077,6,0,L|118:127,1,59.4999981842042,8|0,0:0|0:0,0:0:0:0:
322,118,186377,1,2,0:0:0:0:
178,273,186527,2,0,P|170:244|169:215,1,59.4999981842042,8|0,0:0|0:0,0:0:0:0:
256,26,186827,1,2,0:0:0:0:
256,26,186902,1,2,0:0:0:0:
256,26,186977,1,8,0:0:0:0:
303,237,187127,2,0,L|307:296,1,59.4999981842042,8|0,0:0|0:0,0:0:0:0:
59,132,187427,37,8,0:0:0:0:
299,219,187577,1,2,0:0:0:0:
36,303,187727,1,2,0:0:0:0:
208,146,187877,38,0,L|201:248,1,101.999996887207,12|0,0:0|0:0,0:0:0:0:
113,299,188327,1,0,0:0:0:0:
113,299,188477,2,0,L|62:295,1,50.9999984436036,2|0,0:0|0:0,0:0:0:0:
21,201,188777,2,0,L|72:197,1,50.9999984436036,2|2,0:0|0:0,0:0:0:0:
272,220,189077,37,8,0:0:0:0:
272,220,189227,2,0,P|290:236|305:258,1,50.9999984436036,2|0,0:0|0:0,0:0:0:0:
447,93,189527,2,0,P|436:116|431:141,1,50.9999984436036,2|0,0:0|0:0,0:0:0:0:
419,317,189827,1,8,0:0:0:0:
419,317,189977,2,0,P|396:328|371:333,1,50.9999984436036,2|2,0:0|0:0,0:0:0:0:
170,214,190277,5,12,0:0:0:0:
329,135,190427,2,0,L|336:236,1,101.999996887207,2|0,0:0|0:0,0:0:0:0:
211,355,190877,2,0,L|215:305,1,50.9999984436036,2|8,0:0|0:0,0:0:0:0:
337,251,191177,2,0,L|341:301,1,50.9999984436036,2|2,0:0|0:0,0:0:0:0:
125,123,191477,37,8,0:0:0:0:
170,214,191627,1,2,0:0:0:0:
327,119,191777,2,0,L|428:111,1,101.999996887207,6|0,0:0|0:0,0:0:0:0:
182,39,192227,1,8,0:0:0:0:
227,130,192377,2,0,L|231:180,1,50.9999984436036,2|2,0:0|0:0,0:0:0:0:
87,354,192677,5,8,0:0:0:0:
26,180,192827,2,0,P|28:129|36:78,1,101.999996887207,2|8,0:0|0:0,0:0:0:0:
43,68,193202,1,8,0:0:0:0:
50,57,193277,1,8,0:0:0:0:
135,15,193427,2,0,P|138:40|140:65,1,50.9999984436036,8|0,0:0|0:0,0:0:0:0:
123,229,193727,1,2,0:0:0:0:
224,53,193877,37,8,0:0:0:0:
301,214,194027,1,2,0:0:0:0:
301,214,194102,1,2,0:0:0:0:
301,214,194177,1,8,0:0:0:0:
134,127,194327,2,0,L|184:131,1,50.9999984436036,8|0,0:0|0:0,0:0:0:0:
336,111,194627,1,2,0:0:0:0:
336,111,194777,2,0,L|286:115,1,50.9999984436036,2|0,0:0|0:0,0:0:0:0:
475,56,195077,5,8,0:0:0:0:
475,56,195227,2,0,L|424:52,1,50.9999984436036,2|0,0:0|0:0,0:0:0:0:
221,33,195527,1,2,0:0:0:0:
221,33,195602,1,2,0:0:0:0:
221,33,195677,1,8,0:0:0:0:
318,199,195827,1,8,0:0:0:0:
359,169,195902,1,8,0:0:0:0:
409,168,195977,1,2,0:0:0:0:
450,197,196052,1,2,0:0:0:0:
466,244,196127,1,8,0:0:0:0:
451,293,196202,1,8,0:0:0:0:
411,323,196277,37,2,0:0:0:0:
360,323,196352,1,2,0:0:0:0:
320,295,196427,1,8,0:0:0:0:
301,247,196502,1,8,0:0:0:0:
292,196,196577,1,8,0:0:0:0:
295,145,196652,1,8,0:0:0:0:
307,94,196727,1,2,0:0:0:0:
331,49,196802,1,2,0:0:0:0:
362,7,196877,1,2,0:0:0:0:
174,68,197027,5,2,0:0:0:0:
174,68,197102,1,2,0:0:0:0:
174,68,197177,2,0,P|151:57|126:52,1,50.9999984436036,6|0,0:0|0:0,0:0:0:0:
19,194,197477,38,0,P|42:184|67:179,1,50.9999984436036,2|0,0:0|0:0,0:0:0:0:
216,216,198077,5,12,0:0:0:0:
225,317,198227,1,2,0:0:0:0:
299,158,198377,2,0,L|295:108,1,50.9999984436036,2|0,0:0|0:0,0:0:0:0:
133,274,198677,37,2,0:0:0:0:
207,115,198827,1,2,0:0:0:0:
41,231,198977,1,2,0:0:0:0:
41,231,199127,2,0,L|45:281,1,50.9999984436036,2|0,0:0|0:0,0:0:0:0:
115,362,199427,2,0,P|164:351|215:346,1,101.999996887207,2|0,0:0|0:0,0:0:0:0:
326,254,199877,5,2,0:0:0:0:
317,355,200027,1,8,0:0:0:0:
225,245,200177,1,8,0:0:0:0:
427,263,200327,1,2,0:0:0:0:
427,263,200402,1,2,0:0:0:0:
427,263,200477,2,0,L|423:313,1,50.9999984436036,8|0,0:0|0:0,0:0:0:0:
381,122,200777,2,0,L|385:172,1,50.9999984436036,2|0,0:0|0:0,0:0:0:0:
317,355,201077,37,2,0:0:0:0:
284,163,201227,1,2,0:0:0:0:
284,163,201302,1,2,0:0:0:0:
284,163,201377,1,8,0:0:0:0:
215,345,201527,1,8,0:0:0:0:
486,181,201677,1,6,0:0:0:0:
183,154,201827,1,2,0:0:0:0:
167,152,202277,5,0,0:0:0:0:
151,150,202427,1,0,0:0:0:0:
284,163,202877,37,12,0:0:0:0:
225,245,203027,1,2,0:0:0:0:
374,269,203177,2,0,P|350:258|326:254,1,50.9999984436036,2|0,0:0|0:0,0:0:0:0:
23,227,203477,5,2,0:0:0:0:
183,154,203627,1,2,0:0:0:0:
166,327,203777,1,2,0:0:0:0:
166,327,203927,2,0,P|142:338|118:342,1,50.9999984436036,2|0,0:0|0:0,0:0:0:0:
225,245,204227,2,0,P|257:283|268:333,1,101.999996887207,2|0,0:0|0:0,0:0:0:0:
124,236,204677,37,2,0:0:0:0:
284,163,204827,1,8,0:0:0:0:
284,163,204977,1,8,0:0:0:0:
141,63,205127,1,2,0:0:0:0:
385,172,205277,2,0,L|381:223,1,50.9999984436036,8|0,0:0|0:0,0:0:0:0:
242,72,205577,2,0,L|238:21,1,50.9999984436036,2|0,0:0|0:0,0:0:0:0:
124,236,205877,5,2,0:0:0:0:
343,81,206027,1,2,0:0:0:0:
343,81,206102,1,2,0:0:0:0:
343,81,206177,1,10,0:0:0:0:
82,145,206327,1,2,0:0:0:0:
267,336,206477,2,0,L|317:331,1,50.9999984436036,6|0,0:0|0:0,0:0:0:0:
492,181,206777,2,0,L|390:172,1,101.999996887207,2|0,0:0|0:0,0:0:0:0:
436,94,210677,38,0,B|329:101|329:101|315:111|315:111|291:113|291:113|259:135|206:140,1,238,6|0,0:0|0:0,0:0:0:0:
193,139,211277,6,0,P|207:189|211:239,1,101.999996887207,6|0,0:0|0:0,0:0:0:0:
193,139,215327,37,8,0:0:0:0:
193,139,215402,1,8,0:0:0:0:
193,139,215477,1,8,0:0:0:0:
318,115,215627,1,8,0:0:0:0:
235,301,215777,2,0,L|184:297,1,50.9999984436036,2|0,0:0|0:0,0:0:0:0:
68,163,216077,6,0,P|69:112|81:62,1,101.999996887207,6|0,0:0|0:0,0:0:0:0:
193,139,220277,38,0,B|253:132|253:132|277:135|277:135|297:118|297:118|354:96|429:106,1,238,6|0,0:0|0:0,0:0:0:0:
434,110,220877,6,0,P|455:156|461:206,1,101.999996887207,6|0,0:0|0:0,0:0:0:0:
141,36,224477,6,0,L|39:28,1,102,2|0,0:0|0:0,0:0:0:0:
24,28,224847,6,0,L|16:129,1,102,2|0,0:0|0:0,0:0:0:0:
82,191,225102,38,0,L|74:292,1,102,2|0,0:0|0:0,0:0:0:0:
86,304,225426,6,0,L|213:312,1,127.5,2|0,0:0|0:0,0:0:0:0:
293,333,225677,22,0,L|377:325,1,85.0000032424928,6|0,0:0|0:0,0:0:0:0:
286,152,226010,1,8,0:0:0:0:
486,188,226177,1,2,0:0:0:0:
381,114,226343,1,8,0:0:0:0:
506,182,226510,1,2,0:0:0:0:
272,254,226677,38,0,L|102:242,1,170,8|0,0:0|0:0,0:0:0:0:
367,216,227177,1,8,0:0:0:0:
281,131,227343,1,8,0:0:0:0:
476,76,227510,1,8,0:0:0:0:
276,110,227677,6,0,L|191:103,1,85,6|0,0:0|0:0,0:0:0:0:
395,12,228010,1,8,0:0:0:0:
433,201,228177,1,2,0:0:0:0:
490,58,228343,1,8,0:0:0:0:
290,20,228510,1,2,0:0:0:0:
290,20,228593,1,0,0:0:0:0:
290,20,228677,37,8,0:0:0:0:
191,190,228843,1,2,0:0:0:0:
381,114,229010,1,2,0:0:0:0:
145,29,229177,1,8,0:0:0:0:
286,152,229343,1,2,0:0:0:0:
110,126,229510,1,2,0:0:0:0:
292,50,229677,6,0,L|299:135,1,85,6|0,0:0|0:0,0:0:0:0:
246,376,230010,1,8,0:0:0:0:
181,230,230177,1,2,0:0:0:0:
86,360,230343,1,8,0:0:0:0:
160,223,230510,1,2,0:0:0:0:
331,338,230677,38,0,L|501:326,1,170,8|0,0:0|0:0,0:0:0:0:
256,284,231177,1,2,0:0:0:0:
276,100,231343,1,8,0:0:0:0:
320,198,231510,1,2,0:0:0:0:
191,138,231677,6,0,L|184:53,1,85,6|0,0:0|0:0,0:0:0:0:
266,192,232010,1,8,0:0:0:0:
106,176,232177,2,0,L|100:91,1,85
351,154,232510,1,2,0:0:0:0:
351,154,232593,1,2,0:0:0:0:
351,154,232677,37,8,0:0:0:0:
246,376,232843,1,8,0:0:0:0:
203,373,232926,1,8,0:0:0:0:
161,370,233009,1,8,0:0:0:0:
118,367,233093,1,8,0:0:0:0:
76,364,233176,1,8,0:0:0:0:
256,284,233343,1,8,0:0:0:0:
119,219,233510,1,2,0:0:0:0:
269,15,233677,6,0,L|276:100,1,85,6|0,0:0|0:0,0:0:0:0:
234,279,234010,1,8,0:0:0:0:
160,109,234177,1,2,0:0:0:0:
310,193,234343,1,8,0:0:0:0:
141,214,234510,1,2,0:0:0:0:
331,189,234677,38,0,L|415:183,1,85,10|0,0:0|0:0,0:0:0:0:
485,304,235010,1,8,0:0:0:0:
485,304,235093,1,8,0:0:0:0:
485,304,235177,1,8,0:0:0:0:
493,119,235343,1,8,0:0:0:0:
395,218,235510,1,2,0:0:0:0:
191,164,235677,6,0,L|185:251,1,85,6|0,0:0|0:0,0:0:0:0:
273,64,236010,1,8,0:0:0:0:
304,202,236177,1,2,0:0:0:0:
152,142,236343,1,8,0:0:0:0:
80,292,236510,2,0,L|76:334,2,42.5000016212464,2|2|2,0:0|0:0|0:0,0:0:0:0:
78,208,236677,38,0,L|72:123,1,85,8|2,0:0|0:0,0:0:0:0:
61,14,237010,1,2,0:0:0:0:
185,248,237177,2,0,L|190:163,1,85,8|2,0:0|0:0,0:0:0:0:
195,53,237510,1,2,0:0:0:0:
285,302,237677,6,0,L|302:218,1,85,6|0,0:0|0:0,0:0:0:0:
329,112,238010,1,8,0:0:0:0:
281,323,238177,1,2,0:0:0:0:
436,198,238343,1,8,0:0:0:0:
479,333,238510,1,2,0:0:0:0:
204,215,238677,38,0,L|289:209,1,85,10|0,0:0|0:0,0:0:0:0:
443,172,239010,1,8,0:0:0:0:
443,172,239093,1,8,0:0:0:0:
443,172,239177,1,8,0:0:0:0:
412,17,239343,1,8,0:0:0:0:
300,121,239510,1,2,0:0:0:0:
108,77,239677,6,0,L|23:71,1,85,6|0,0:0|0:0,0:0:0:0:
263,26,240010,1,8,0:0:0:0:
126,168,240176,1,2,0:0:0:0:
286,216,240343,1,8,0:0:0:0:
159,36,240510,1,2,0:0:0:0:
159,36,240593,1,2,0:0:0:0:
159,36,240676,38,0,L|153:121,1,85,8|0,0:0|0:0,0:0:0:0:
38,292,241010,1,2,0:0:0:0:
241,170,241176,1,8,0:0:0:0:
287,352,241343,1,2,0:0:0:0:
282,81,241510,1,8,0:0:0:0:
119,258,241676,6,0,L|204:264,1,85,6|0,0:0|0:0,0:0:0:0:
413,276,242010,1,8,0:0:0:0:
456,116,242176,2,0,L|371:122,1,85,2|8,0:0|0:0,0:0:0:0:
162,134,242510,1,2,0:0:0:0:
482,200,242676,38,0,L|470:30,1,170,8|8,0:0|0:0,0:0:0:0:
465,23,243093,1,8,0:0:0:0:
460,16,243176,2,0,L|465:100,1,85,2|0,0:0|0:0,0:0:0:0:
281,270,243510,6,0,L|286:185,1,85,2|0,0:0|0:0,0:0:0:0:
361,36,243843,2,0,L|366:120,1,85,2|0,0:0|0:0,0:0:0:0:
374,19,244176,2,0,L|379:103,1,85,2|0,0:0|0:0,0:0:0:0:
151,36,244510,1,2,0:0:0:0:
151,36,244593,1,2,0:0:0:0:
151,36,244676,37,12,0:0:0:0:
174,218,244843,1,2,0:0:0:0:
272,77,245010,1,2,0:0:0:0:
32,139,245176,1,2,0:0:0:0:
186,189,245343,1,8,0:0:0:0:
22,34,245510,1,2,0:0:0:0:
3,290,245676,6,0,L|88:284,1,85,6|0,0:0|0:0,0:0:0:0:
190,127,246010,2,0,L|153:204,1,85,2|0,0:0|0:0,0:0:0:0:
237,370,246343,2,0,L|189:299,1,85,2|0,0:0|0:0,0:0:0:0:
391,204,246676,38,0,L|307:211,1,85,8|0,0:0|0:0,0:0:0:0:
299,215,246926,1,8,0:0:0:0:
291,219,247010,1,2,0:0:0:0:
424,370,247176,2,0,L|508:376,1,85,2|0,0:0|0:0,0:0:0:0:
476,168,247510,1,2,0:0:0:0:
331,331,247676,5,2,0:0:0:0:
331,331,247843,1,8,0:0:0:0:
365,139,248010,1,2,0:0:0:0:
481,280,248176,1,2,0:0:0:0:
481,280,248343,1,8,0:0:0:0:
236,229,248510,1,2,0:0:0:0:
236,229,248593,1,2,0:0:0:0:
236,229,248676,37,8,0:0:0:0:
305,32,248842,1,2,0:0:0:0:
171,159,249010,1,2,0:0:0:0:
422,198,249176,1,8,0:0:0:0:
225,89,249343,1,2,0:0:0:0:
178,298,249510,1,2,0:0:0:0:
178,298,249593,1,0,0:0:0:0:
178,298,249676,6,0,L|184:383,1,85,6|0,0:0|0:0,0:0:0:0:
364,163,250010,2,0,L|358:248,1,85,2|0,0:0|0:0,0:0:0:0:
237,176,250343,1,8,0:0:0:0:
237,176,250510,1,2,0:0:0:0:
420,72,250676,38,0,L|250:60,1,170,8|8,0:0|0:0,0:0:0:0:
242,62,251093,1,8,0:0:0:0:
233,64,251176,2,0,L|227:149,1,85,0|8,0:0|0:0,0:0:0:0:
11,10,251510,6,0,L|17:95,1,85,2|0,0:0|0:0,0:0:0:0:
89,260,251843,2,0,L|4:266,1,85,2|0,0:0|0:0,0:0:0:0:
189,239,252176,2,0,L|104:245,1,85,2|8,0:0|0:0,0:0:0:0:
289,218,252510,1,2,0:0:0:0:
78,338,252676,38,0,L|66:168,1,170,12|2,0:0|0:0,0:0:0:0:
204,74,253176,1,0,0:0:0:0:
94,21,253343,2,0,L|9:15,1,85,8|2,0:0|0:0,0:0:0:0:
185,192,253676,5,6,0:0:0:0:
214,55,253843,1,8,0:0:0:0:
57,148,254010,1,2,0:0:0:0:
225,285,254176,2,0,L|310:279,1,85,0|8,0:0|0:0,0:0:0:0:
493,221,254510,1,2,0:0:0:0:
493,221,254593,1,2,0:0:0:0:
493,221,254676,38,0,L|499:306,1,85,12|0,0:0|0:0,0:0:0:0:
267,95,255010,1,8,0:0:0:0:
409,34,255176,2,0,L|403:119,1,85,2|0,0:0|0:0,0:0:0:0:
344,269,255510,6,0,L|174:257,1,170,2|0,0:0|0:0,0:0:0:0:
421,206,256010,1,8,0:0:0:0:
267,95,256176,2,0,L|261:10,1,85,2|0,0:0|0:0,0:0:0:0:
285,263,256510,1,8,0:0:0:0:
158,145,256676,37,2,0:0:0:0:
379,110,256843,1,8,0:0:0:0:
285,358,257010,1,2,0:0:0:0:
285,358,257092,1,2,0:0:0:0:
285,358,257176,2,0,L|200:352,1,85,8|0,0:0|0:0,0:0:0:0:
20,245,257510,1,2,0:0:0:0:
20,245,257593,1,2,0:0:0:0:
20,245,257676,22,0,P|83:234|147:229,1,127.5,6|0,0:0|0:0,0:0:0:0:
167,234,258010,1,2,0:0:0:0:
285,263,258676,38,0,P|358:198|450:230,1,203.999993774414,12|0,0:0|0:0,0:0:0:0:
486,354,259509,2,0,P|435:357|387:340,1,101.999996887207,6|0,0:0|0:0,0:0:0:0:
350,169,260010,1,8,0:0:0:0:
454,125,260176,2,0,P|460:149|463:174,1,50.9999984436036,2|0,0:0|0:0,0:0:0:0:
277,84,260510,1,2,0:0:0:0:
277,84,260593,1,2,0:0:0:0:
277,84,260676,38,0,P|257:99|240:118,1,50.9999984436036,8|2,0:0|0:0,0:0:0:0:
237,292,261010,1,8,0:0:0:0:
87,136,261176,2,0,P|112:139|136:147,1,50.9999984436036,8|2,0:0|0:0,0:0:0:0:
245,318,261510,1,8,0:0:0:0:
19,374,261676,37,6,0:0:0:0:
3,283,262010,1,2,0:0:0:0:
56,207,262343,1,2,0:0:0:0:
182,322,262676,22,0,P|185:220|204:118,1,203.999993774414,12|0,0:0|0:0,0:0:0:0:
64,60,263510,2,0,P|107:35|158:39,1,101.999996887207,6|0,0:0|0:0,0:0:0:0:
385,121,264010,2,0,P|342:96|292:100,1,101.999996887207,8|0,0:0|0:0,0:0:0:0:
153,211,264510,1,2,0:0:0:0:
153,211,264593,1,2,0:0:0:0:
153,211,264676,37,8,0:0:0:0:
327,238,264843,1,8,0:0:0:0:
285,247,264927,1,8,0:0:0:0:
248,267,265009,1,8,0:0:0:0:
219,300,265093,1,8,0:0:0:0:
201,338,265176,1,8,0:0:0:0:
417,247,265343,1,8,0:0:0:0:
280,134,265510,1,2,0:0:0:0:
364,321,265676,21,6,0:0:0:0:
455,330,266009,1,2,0:0:0:0:
280,359,266676,38,0,P|180:342|78:339,1,203.999993774414,12|0,0:0|0:0,0:0:0:0:
151,226,267510,2,0,P|100:230|52:247,1,101.999996887207,6|0,0:0|0:0,0:0:0:0:
344,278,268010,2,0,P|293:273|245:256,1,101.999996887207,8|0,0:0|0:0,0:0:0:0:
309,113,268510,1,2,0:0:0:0:
309,113,268593,1,2,0:0:0:0:
309,113,268676,38,0,P|315:137|318:163,1,50.9999984436036,8|2,0:0|0:0,0:0:0:0:
76,135,269010,1,8,0:0:0:0:
267,30,269176,2,0,P|291:24|316:21,1,50.9999984436036,8|2,0:0|0:0,0:0:0:0:
216,250,269510,1,8,0:0:0:0:
104,46,269676,37,2,0:0:0:0:
76,135,270010,1,2,0:0:0:0:
48,224,270343,1,2,0:0:0:0:
174,360,270676,22,0,P|171:250|155:158,1,203.999993774414,12|0,0:0|0:0,0:0:0:0:
174,30,271509,2,0,P|123:31|77:52,1,101.999996887207,6|0,0:0|0:0,0:0:0:0:
260,104,272009,2,0,P|310:105|361:111,1,101.999996887207,8|0,0:0|0:0,0:0:0:0:
219,281,272509,1,2,0:0:0:0:
219,281,272592,1,2,0:0:0:0:
219,281,272676,37,8,0:0:0:0:
491,208,272843,1,8,0:0:0:0:
237,96,273009,1,8,0:0:0:0:
450,333,273176,1,8,0:0:0:0:
471,109,273342,1,8,0:0:0:0:
351,242,273509,1,2,0:0:0:0:
451,10,273676,5,6,0:0:0:0:
256,192,274009,12,2,281676,0:0:0:0:
