osu file format v14

[General]
AudioFilename: audio.mp3
AudioLeadIn: 0
PreviewTime: 92177
Countdown: 0
SampleSet: Drum
StackLeniency: 0.7
Mode: 0
LetterboxInBreaks: 0
WidescreenStoryboard: 1

[Editor]
DistanceSpacing: 1
BeatDivisor: 4
GridSize: 16
TimelineZoom: 1.9

[Metadata]
Title:731
TitleUnicode:731
Artist:Belmont
ArtistUnicode:Belmont
Creator:AsaBen
Version:Selfish Pretense
Source:
Tags:Between You & Me EP Pop Punk American Rock Chicago English
BeatmapID:2420321
BeatmapSetID:1159959

[Difficulty]
HPDrainRate:5
CircleSize:4.2
OverallDifficulty:9
ApproachRate:9.4
SliderMultiplier:1.4
SliderTickRate:1

[Events]
//Background and Video events
0,0,"BG+1920x1080.jpg",0,0
//Break Periods
2,64387,67314
//Storyboard Layer 0 (Background)
//Storyboard Layer 1 (Fail)
//Storyboard Layer 2 (Pass)
//Storyboard Layer 3 (Foreground)
//Storyboard Layer 4 (Overlay)
//Storyboard Sound Samples

[TimingPoints]
188,333.333333333333,3,3,1,80,1,0
3187,-100,4,3,1,50,0,0
3854,-66.6666666666667,4,3,1,75,0,0
3937,-66.6666666666667,4,3,1,5,0,0
4187,-66.6666666666667,4,3,1,80,0,0
5521,-66.6666666666667,4,3,1,50,0,0
6187,-66.6666666666667,4,3,1,80,0,0
8187,-100,4,3,1,80,0,0
12187,-66.6666666666667,4,3,1,80,0,0
13521,-66.6666666666667,4,3,1,50,0,0
14187,-66.6666666666667,4,3,1,80,0,0
16187,-100,4,3,1,80,0,0
20187,-66.6666666666667,4,3,1,80,0,0
24187,-100,4,3,1,80,0,0
28187,-66.6666666666667,4,3,1,80,0,0
29521,-66.6666666666667,4,3,1,50,0,0
30187,-66.6666666666667,4,3,1,80,0,0
32187,-133.333333333333,4,3,1,80,0,0
33187,-117.647058823529,4,3,1,80,0,0
36187,-66.6666666666667,4,3,1,80,0,1
40187,-133.333333333333,4,3,1,80,0,0
42187,-100,4,3,1,80,0,0
43187,-133.333333333333,4,3,1,50,0,0
43854,-100,4,3,1,80,0,0
44187,-66.6666666666667,4,3,1,80,0,1
48187,-100,4,3,1,80,0,0
49187,-133.333333333333,4,3,1,80,0,0
50187,-100,4,3,1,80,0,0
52187,-66.6666666666667,4,3,1,80,0,1
56187,-100,4,3,1,80,0,0
60187,-66.6666666666667,4,3,1,80,0,1
64187,-66.6666666666667,4,3,1,80,0,0
67854,-66.6666666666667,4,3,1,40,0,0
67937,-66.6666666666667,4,3,1,42,0,0
68021,-66.6666666666667,4,3,1,44,0,0
68104,-66.6666666666667,4,3,1,46,0,0
68187,-133.333333333333,4,3,1,50,0,0
70187,-153.846153846154,4,3,1,50,0,0
75854,-153.846153846154,4,3,1,40,0,0
75937,-153.846153846154,4,3,1,42,0,0
76021,-153.846153846154,4,3,1,44,0,0
76104,-153.846153846154,4,3,1,46,0,0
76187,-133.333333333333,4,3,1,50,0,0
78187,-153.846153846154,4,3,1,50,0,0
80437,-153.846153846154,4,3,1,5,0,0
80521,-200,4,3,1,50,0,0
81187,-133.333333333333,4,3,1,70,0,0
82187,-200,4,3,1,50,0,0
83187,-133.333333333333,4,3,1,70,0,0
84187,-200,4,3,1,50,0,0
85187,-133.333333333333,4,3,1,70,0,0
86187,-200,4,3,1,50,0,0
87187,-100,4,3,1,75,0,0
88187,-200,4,3,1,50,0,0
89187,-133.333333333333,4,3,1,60,0,0
90187,-200,4,3,1,50,0,0
91187,-133.333333333333,4,3,1,77,0,0
92187,-100,4,3,1,25,0,0
92521,-100,4,3,1,35,0,0
92854,-100,4,3,1,45,0,0
93187,-100,4,3,1,55,0,0
93521,-100,4,3,1,65,0,0
93854,-100,4,3,1,75,0,0
94187,-100,4,3,1,80,0,0
94521,-100,4,3,1,80,0,0
94854,-100,4,3,1,80,0,0
96187,-57.1428571428571,4,3,1,80,0,1
97354,-100,4,3,1,80,0,1
98187,-57.1428571428571,4,3,1,80,0,1
99354,-100,4,3,1,80,0,1
100187,-100,4,3,1,80,0,0
104187,-57.1428571428571,4,3,1,80,0,1
105354,-100,4,3,1,80,0,1
106187,-57.1428571428571,4,3,1,80,0,1
107354,-100,4,3,1,80,0,1
108187,-100,4,3,1,80,0,0
112187,-100,4,3,1,80,0,0
140187,-66.6666666666667,4,3,1,80,0,1
144187,-66.6666666666667,4,3,1,80,0,0

[Colours]
Combo1 : 193,170,170
Combo2 : 255,138,138
Combo3 : 138,197,255
Combo4 : 207,186,216

[HitObjects]
152,93,3187,5,8,0:0:0:0:
103,187,3354,1,0,0:0:0:0:
103,187,3437,1,0,0:0:0:0:
103,187,3521,1,0,0:0:0:0:
46,97,3687,1,0,0:0:0:0:
161,259,3854,6,0,B|164:286|164:286|158:293|158:293|149:317,1,52.5000020027161,2|0,2:0|2:0,0:0:0:0:
170,252,4187,5,6,0:0:0:0:
249,370,4354,1,2,0:0:0:0:
339,168,4521,1,2,0:0:0:0:
339,168,4687,2,0,B|264:161|264:161|225:127|225:127|226:123|226:123|147:112,1,210.000008010865,2|0,0:0|0:0,0:0:0:0:
281,29,5187,5,10,0:0:0:0:
246,285,5354,1,0,0:0:0:0:
349,249,5521,6,0,P|352:277|353:301,3,52.5000020027161,2|0|0|0,2:0|2:0|2:0|2:0,2:0:0:0:
432,170,5854,2,0,P|429:198|427:222,3,52.5000020027161,2|0|0|0,2:0|2:0|2:0|2:0,2:0:0:0:
512,217,6187,5,6,0:0:0:0:
367,90,6354,1,2,0:0:0:0:
363,333,6521,1,2,0:0:0:0:
363,333,6687,2,0,B|287:317|287:317|237:344|237:344|237:347|237:347|144:300,1,210.000008010865,2|0,0:0|0:0,0:0:0:0:
16,204,7187,5,10,0:0:0:0:
13,214,7521,1,2,0:0:0:0:
44,118,7687,1,0,0:0:0:0:
44,118,7771,1,0,0:0:0:0:
44,118,7854,1,10,0:0:0:0:
152,170,8021,1,0,0:0:0:0:
249,23,8187,6,0,B|272:86|272:86|276:83|276:83|254:170,1,140,6|0,0:0|0:0,0:0:0:0:
230,230,8687,1,0,0:0:0:0:
227,240,9021,1,0,0:0:0:0:
25,369,9187,6,0,B|78:360|78:360|98:349|98:349|122:351|122:351|172:342,1,140,14|0,1:0|0:0,0:0:0:0:
254,328,9687,1,0,0:0:0:0:
266,327,10021,1,0,0:0:0:0:
461,103,10187,6,0,B|450:160|450:160|456:182|456:182|442:257,1,140,6|0,0:0|0:0,0:0:0:0:
425,325,10687,1,0,0:0:0:0:
423,338,11021,1,0,0:0:0:0:
420,351,11104,1,0,0:0:0:0:
417,364,11187,5,8,0:0:0:0:
407,333,11271,1,8,0:0:0:0:
397,302,11354,1,8,0:0:0:0:
387,271,11437,1,8,0:0:0:0:
350,248,11521,5,0,0:0:0:0:
354,234,11604,1,0,0:0:0:0:
358,220,11687,1,0,0:0:0:0:
362,206,11771,1,0,0:0:0:0:
386,181,11854,5,8,0:0:0:0:
391,174,12187,5,6,0:0:0:0:
295,77,12354,1,2,0:0:0:0:
490,32,12521,1,2,0:0:0:0:
490,32,12687,2,0,B|465:103|465:103|460:100|460:100|486:153|486:153|489:152|489:152|483:222,1,210.000008010865,2|0,0:0|0:0,0:0:0:0:
326,325,13187,5,10,0:0:0:0:
291,69,13354,1,8,0:0:0:0:
246,153,13521,6,0,P|243:181|241:205,3,52.5000020027161,2|0|0|0,2:0|2:0|2:0|2:0,2:0:0:0:
163,74,13854,2,0,P|166:102|167:126,3,52.5000020027161,2|0|0|0,2:0|2:0|2:0|2:0,2:0:0:0:
84,10,14187,5,6,0:0:0:0:
3,156,14354,1,2,0:0:0:0:
133,214,14521,1,2,0:0:0:0:
133,214,14687,2,0,B|144:241|144:241|131:315,1,105.000004005432,10|0,0:0|0:0,0:0:0:0:
28,367,15021,2,0,L|46:317,1,52.5000020027161
218,284,15187,5,10,0:0:0:0:
224,309,15271,1,8,0:0:0:0:
230,334,15354,1,8,0:0:0:0:
236,359,15437,1,8,0:0:0:0:
243,384,15521,1,2,0:0:0:0:
315,310,15687,1,0,0:0:0:0:
417,345,15854,1,2,0:0:0:0:
302,213,16021,1,0,0:0:0:0:
302,213,16187,6,0,B|330:162|330:162|328:164|328:164|280:74|280:74|311:21,1,210,6|4,0:0|2:0,0:0:0:0:
444,187,17187,2,0,B|467:257|467:257|444:289|444:289|435:291|435:291|404:327|404:327|419:287,1,210,6|4,1:0|2:0,0:0:0:0:
248,339,18187,2,0,B|188:325|188:325|171:280|171:280|172:273|172:273|157:232|157:232|190:189,1,210,6|4,0:0|2:0,0:0:0:0:
321,87,19187,5,10,0:0:0:0:
237,32,19354,1,0,0:0:0:0:
237,32,19437,1,0,0:0:0:0:
237,32,19521,1,0,0:0:0:0:
230,127,19687,1,0,0:0:0:0:
464,33,19854,5,8,0:0:0:0:
474,29,20187,6,0,B|497:75|497:75|488:127,1,105.000004005432,6|0,0:0|0:0,0:0:0:0:
200,136,20521,2,0,B|228:93|228:93|278:74,1,105.000004005432,6|0,1:0|0:0,0:0:0:0:
441,305,20854,2,0,B|389:301|389:301|348:267,1,105.000004005432,6|0,1:0|0:0,0:0:0:0:
480,138,21187,1,10,0:0:0:0:
512,355,21354,1,0,0:0:0:0:
342,184,21521,2,0,B|271:204|271:204|270:200|270:200|228:250|228:250|236:250|236:250|153:269,1,210.000008010865,6|0,0:0|0:0,0:0:0:0:
166,268,22187,6,0,B|143:222|143:222|151:169,1,105.000004005432,6|0,0:0|0:0,0:0:0:0:
279,42,22521,1,2,0:0:0:0:
39,156,22687,2,0,B|38:94|38:94|77:67|77:67|84:66|84:66|120:41|120:41|170:63,1,210,4|0,1:0|0:0,0:0:0:0:
41,279,23187,5,10,0:0:0:0:
37,289,23521,1,0,0:0:0:0:
119,365,23687,1,0,0:0:0:0:
119,349,23771,1,0,0:0:0:0:
118,333,23854,1,8,0:0:0:0:
210,373,24021,1,0,0:0:0:0:
134,237,24187,6,0,B|185:265|185:265|183:263|183:263|273:215|273:215|326:246,1,210,6|4,0:0|2:0,0:0:0:0:
390,298,25021,1,0,0:0:0:0:
385,314,25104,1,0,0:0:0:0:
379,330,25187,5,10,0:0:0:0:
395,123,25354,1,8,0:0:0:0:
401,133,25687,1,6,2:0:0:0:
410,145,26021,1,2,0:0:0:0:
417,13,26187,6,0,B|355:26|355:26|335:42|335:42|277:57,1,140,6|0,1:0|0:0,0:0:0:0:
159,13,26687,1,8,0:0:0:0:
149,15,27021,1,0,0:0:0:0:
139,18,27104,1,0,0:0:0:0:
129,21,27187,5,8,0:0:0:0:
162,33,27271,1,8,0:0:0:0:
194,45,27354,1,8,0:0:0:0:
226,57,27437,1,8,0:0:0:0:
262,69,27521,2,0,L|267:103,3,35,2|0|0|0,0:0|0:0|0:0|0:0,0:0:0:0:
192,163,27854,2,0,L|186:197,3,35,2|0|0|0,0:0|0:0|0:0|0:0,0:0:0:0:
74,262,28187,6,0,B|65:208|65:208|68:207|68:207|88:158,2,105.000004005432,6|2|2,0:0|0:0|0:0,0:0:0:0:
270,373,28687,2,0,B|278:344|278:344|258:271,1,105.000004005432,2|0,0:3|0:3,0:0:0:0:
190,205,29021,1,0,0:0:0:0:
164,320,29187,5,10,0:0:0:0:
425,292,29354,1,8,0:0:0:0:
317,267,29521,6,0,P|320:240|322:214,3,52.5000020027161,2|0|0|0,2:0|2:0|2:0|2:0,2:0:0:0:
401,187,29854,2,0,P|398:161|396:135,3,52.5000020027161,2|0|0|0,2:0|2:0|2:0|2:0,2:0:0:0:
493,50,30187,6,0,B|517:93|517:93|512:161,2,105.000004005432,6|2|2,0:0|0:0|0:0,0:0:0:0:
361,15,30687,2,0,B|311:39|311:39|286:82,1,105.000004005432,2|0,0:0|0:0,0:0:0:0:
304,170,31021,1,0,0:0:0:0:
139,13,31187,5,10,0:0:0:0:
220,30,31354,1,0,0:0:0:0:
216,39,31687,1,0,0:0:0:0:
212,48,31770,1,0,0:0:0:0:
208,58,31853,5,10,0:0:0:0:
59,42,32021,1,0,0:0:0:0:
187,149,32187,6,0,B|129:111|129:111|107:251,1,210.000008010865,6|0,0:0|0:0,0:0:0:0:
48,331,33187,6,0,B|95:386|171:339|158:335|145:332|225:283|286:338,1,238.00000453949,10|0,0:0|2:0,0:0:0:0:
345,379,34021,1,0,0:0:0:0:
345,379,34104,1,0,0:0:0:0:
345,379,34187,2,0,P|360:322|402:281,2,119.000002269745,2|2|2,2:0|2:0|2:0,2:0:0:0:
272,230,35021,1,0,0:0:0:0:
253,231,35104,1,0,0:0:0:0:
241,245,35187,5,10,0:0:0:0:
263,285,35271,1,8,0:0:0:0:
304,301,35354,1,8,0:0:0:0:
347,290,35437,1,8,0:0:0:0:
374,255,35521,5,2,0:0:0:0:
393,241,35604,1,0,0:0:0:0:
416,237,35687,1,0,0:0:0:0:
438,240,35771,1,0,0:0:0:0:
459,252,35854,5,2,0:0:0:0:
459,263,35937,1,0,0:0:0:0:
459,274,36021,1,0,0:0:0:0:
459,285,36104,1,0,0:0:0:0:
475,306,36187,5,12,0:0:0:0:
507,188,36354,1,0,0:0:0:0:
348,111,36521,5,8,0:0:0:0:
398,245,36688,1,0,0:0:0:0:
432,69,36854,5,8,0:0:0:0:
275,166,37021,1,0,0:0:0:0:
275,166,37104,1,0,0:0:0:0:
275,166,37187,5,8,0:0:0:0:
319,284,37354,1,0,0:0:0:0:
129,304,37521,5,10,0:0:0:0:
230,248,37688,1,0,0:0:0:0:
41,189,37855,5,10,0:0:0:0:
138,219,38022,1,0,0:0:0:0:
138,219,38104,1,0,0:0:0:0:
138,219,38188,5,10,0:0:0:0:
0,274,38355,1,0,0:0:0:0:
0,87,38521,5,10,0:0:0:0:
43,200,38688,1,0,0:0:0:0:
153,27,38854,5,10,0:0:0:0:
110,140,39021,1,0,0:0:0:0:
110,140,39104,1,0,0:0:0:0:
110,140,39187,5,10,0:0:0:0:
0,76,39354,1,0,0:0:0:0:
74,23,39521,5,8,0:0:0:0:
164,210,39687,1,2,0:0:0:0:
220,121,39854,5,8,0:0:0:0:
216,293,40021,1,0,0:0:0:0:
216,293,40187,6,0,B|253:324|298:298|292:293|288:287|334:269|373:289,1,157.500006008148,6|0,1:0|0:0,0:0:0:0:
489,354,41021,1,0,0:0:0:0:
489,354,41187,2,0,P|495:314|491:288,1,52.5000020027161,8|0,0:0|0:0,0:0:0:0:
436,254,41521,6,0,P|429:208|437:150,1,105.000004005432,2|0,2:0|2:0,2:0:0:0:
446,144,42187,2,0,B|451:120|443:104|443:104|379:102|342:140,1,140,2|2,0:2|0:0,0:0:0:0:
345,141,42854,1,2,0:0:0:0:
341,148,43187,2,0,L|336:195,3,26.2500010013581,10|0|0|0,0:0|0:0|0:0|0:0,0:0:0:0:
275,111,43521,2,0,L|270:64,3,26.2500010013581,2|0|0|0,0:0|0:0|0:0|0:0,0:0:0:0:
227,191,43854,1,10,0:0:0:0:
108,55,44021,1,0,0:0:0:0:
108,55,44104,1,0,0:0:0:0:
107,55,44187,6,0,P|74:94|69:145,1,105.000004005432,14|0,0:0|0:0,0:0:0:0:
265,281,44521,2,0,P|260:229|226:190,1,105.000004005432,10|0,0:0|0:0,0:0:0:0:
110,364,44854,5,10,0:0:0:0:
31,224,45021,1,0,0:0:0:0:
31,224,45104,1,0,0:0:0:0:
31,224,45187,5,10,0:0:0:0:
0,340,45354,1,0,0:0:0:0:
189,261,45521,5,10,0:0:0:0:
188,356,45687,1,0,0:0:0:0:
293,213,45854,5,10,0:0:0:0:
273,306,46020,1,0,0:0:0:0:
213,113,46187,5,10,0:0:0:0:
388,173,46354,1,0,0:0:0:0:
473,49,46521,5,10,0:0:0:0:
445,263,46687,1,0,0:0:0:0:
348,85,46854,5,10,0:0:0:0:
350,281,47021,1,0,0:0:0:0:
350,281,47104,1,0,0:0:0:0:
350,281,47187,5,2,0:0:0:0:
348,296,47271,1,0,0:0:0:0:
346,311,47354,1,0,0:0:0:0:
345,326,47437,1,0,0:0:0:0:
344,341,47521,6,0,P|312:354|267:365,1,52.5000020027161
233,299,47687,2,0,P|201:286|156:275,1,52.5000020027161,2|0,0:0|0:0,0:0:0:0:
151,362,47854,2,0,P|119:375|74:386,1,52.5000020027161
98,304,48021,2,0,P|66:291|21:280,1,52.5000020027161
6,384,48187,6,0,B|34:333|34:333|32:335|32:335|-16:245|-16:245|15:192,1,210,4|0,1:0|2:0,0:0:0:0:
9,180,48854,1,2,2:0:0:0:
110,145,49021,1,2,2:0:0:0:
76,72,49187,6,0,B|87:74|87:74|87:93|73:120|73:120|71:135|91:172,1,105.000004005432,10|0,0:0|2:0,0:0:0:0:
81,238,49687,1,4,2:0:0:0:
170,227,49854,1,4,2:0:0:0:
93,236,50021,1,0,2:0:0:0:
224,152,50187,6,0,P|268:146|309:159,1,70,6|0,1:0|2:0,0:0:0:0:
435,101,50521,2,0,P|400:95|366:101,1,70,2|0,0:0|2:0,0:0:0:0:
348,219,50854,1,2,0:0:0:0:
299,11,51021,1,0,0:0:0:0:
299,11,51104,1,0,0:0:0:0:
299,11,51187,2,0,P|296:53|289:92,2,70,14|0|2,0:0|0:0|0:0,0:0:0:0:
205,106,51687,2,0,P|199:71|197:36,1,70,8|2,0:0|2:0,0:0:0:0:
55,320,52187,6,0,P|105:330|193:322,1,105.000004005432,14|0,0:0|0:0,0:0:0:0:
300,197,52521,5,8,0:0:0:0:
236,370,52687,1,0,0:0:0:0:
419,299,52854,5,8,0:0:0:0:
209,286,53021,1,0,0:0:0:0:
209,286,53104,1,0,0:0:0:0:
209,286,53187,5,8,0:0:0:0:
376,375,53354,1,0,0:0:0:0:
459,211,53521,5,10,0:0:0:0:
512,372,53687,1,0,0:0:0:0:
386,160,53854,5,10,0:0:0:0:
341,292,54020,1,0,0:0:0:0:
341,292,54104,1,0,0:0:0:0:
341,292,54187,5,10,0:0:0:0:
238,219,54354,1,0,0:0:0:0:
56,210,54521,5,10,0:0:0:0:
159,137,54688,1,0,0:0:0:0:
353,130,54854,5,10,0:0:0:0:
250,57,55021,1,0,0:0:0:0:
41,73,55187,5,10,0:0:0:0:
144,0,55354,1,0,0:0:0:0:
86,221,55521,5,10,0:0:0:0:
148,111,55688,1,0,0:0:0:0:
206,332,55854,5,10,0:0:0:0:
193,206,56021,1,0,0:0:0:0:
193,206,56187,6,0,P|248:190|331:191,1,140,6|2,1:0|0:0,0:0:0:0:
416,208,56687,1,0,0:0:0:0:
423,216,57021,2,0,P|421:233|422:250,1,35
464,151,57187,2,0,P|469:112|460:61,1,70,10|0,0:0|0:0,0:0:0:0:
380,31,57521,1,10,0:0:0:0:
375,47,57604,1,8,0:0:0:0:
372,62,57687,1,8,0:0:0:0:
369,79,57771,1,8,0:0:0:0:
365,96,57854,2,0,P|357:62|344:24,1,70,2|0,0:0|0:0,0:0:0:0:
272,122,58187,6,0,P|270:172|287:281,1,140,2|2,0:0|0:0,0:0:0:0:
324,345,58687,1,2,0:0:0:0:
333,344,59021,1,0,0:0:0:0:
343,341,59104,1,0,0:0:0:0:
353,338,59187,5,10,0:0:0:0:
320,326,59271,1,8,0:0:0:0:
288,314,59354,1,8,0:0:0:0:
256,302,59437,1,8,0:0:0:0:
220,290,59521,2,0,L|215:256,3,35
140,340,59854,2,0,L|134:374,3,35,2|0|0|0,0:0|0:0|0:0|0:0,0:0:0:0:
36,284,60187,6,0,P|42:214|52:173,1,105.000004005432,6|0,0:0|0:0,0:0:0:0:
199,34,60521,5,10,0:0:0:0:
270,198,60687,1,2,0:0:0:0:
270,198,60771,1,0,0:0:0:0:
270,198,60854,5,8,0:0:0:0:
130,141,61021,1,0,0:0:0:0:
303,24,61187,5,10,0:0:0:0:
357,137,61354,1,0,0:0:0:0:
452,48,61521,5,10,0:0:0:0:
440,185,61687,1,2,0:0:0:0:
337,122,61854,5,8,0:0:0:0:
376,242,62021,1,0,0:0:0:0:
240,328,62187,5,10,0:0:0:0:
279,208,62354,1,0,0:0:0:0:
336,352,62521,5,10,0:0:0:0:
193,248,62687,1,2,0:0:0:0:
177,384,62854,5,8,0:0:0:0:
119,216,63020,1,0,0:0:0:0:
0,359,63187,5,10,0:0:0:0:
48,188,63353,1,0,0:0:0:0:
48,188,63437,1,0,0:0:0:0:
48,188,63521,5,8,0:0:0:0:
40,286,63687,1,0,0:0:0:0:
124,119,63854,5,8,0:0:0:0:
124,119,63937,1,0,0:0:0:0:
124,119,64021,1,0,0:0:0:0:
124,119,64104,1,0,0:0:0:0:
124,119,64187,1,4,0:2:0:0:
247,148,67854,5,0,2:0:0:0:
252,157,67937,1,0,2:0:0:0:
257,166,68021,1,0,2:0:0:0:
262,175,68104,1,0,2:0:0:0:
266,181,68187,6,0,B|338:172|369:97|357:65|357:65|361:63|361:63|354:44|336:32|336:32|299:84|322:128|322:128|352:158|376:158|376:158|375:164|375:164|422:146|413:142|403:138|449:114|489:141|489:141|476:141|458:144,1,525.000020027161,2|0,2:0|2:0,2:0:0:0:
473,224,70187,2,0,B|462:267|470:290|470:290|472:286|472:286|473:304|485:330|485:330|461:308|415:301,1,181.999991668702,0|0,2:0|2:0,2:0:0:0:
330,250,71187,2,0,P|298:273|313:244,2,90.9999958343508,2|2|2,2:0|2:0|2:0,2:0:0:0:
181,329,72187,1,4,0:2:0:0:
250,231,75854,5,0,2:0:0:0:
245,240,75937,1,0,2:0:0:0:
240,249,76021,1,0,2:0:0:0:
235,258,76104,1,0,2:0:0:0:
231,264,76187,6,0,B|159:255|128:180|140:148|140:148|136:146|136:146|143:127|161:115|161:115|198:167|175:211|175:211|145:241|126:248|126:248|127:243|127:243|89:293|119:337|119:337|136:314|122:283,1,525.000020027161,2|0,2:0|2:0,2:0:0:0:
54,204,78187,2,0,B|27:192|19:160|19:160|21:165|21:165|33:112|33:112|37:162|70:188,1,181.999991668702,2|0,2:0|2:0,2:0:0:0:
119,111,79187,2,0,P|132:77|125:18,2,90.9999958343508,2|2|2,2:0|2:0|2:0,2:0:0:0:
212,75,80187,6,0,P|243:73|289:81,1,68.2499968757631
287,91,80521,2,8,L|280:119,3,17.5
349,50,80854,2,8,L|344:33,3,17.5
416,90,81187,5,10,0:0:0:0:
459,191,81354,2,0,P|486:194|515:189,2,52.5000020027161,0|0|0,2:0|0:0|2:0,2:0:0:0:
369,176,81854,2,0,P|336:178|305:185,1,52.5000020027161,0|0,0:0|2:0,2:0:0:0:
256,237,82187,6,8,L|253:262,3,17.5
330,262,82521,2,8,L|333:287,3,17.5
410,249,82854,2,8,L|407:274,3,17.5
488,282,83187,5,8,0:0:0:0:
383,330,83354,2,0,P|388:361|400:387,2,52.5000020027161,0|0|0,2:0|0:0|2:0,0:0:0:0:
265,375,83854,2,0,P|265:339|257:315,1,52.5000020027161,0|0,0:0|2:0,0:0:0:0:
185,297,84187,6,8,L|182:322,3,17.5
248,236,84521,2,8,L|251:261,3,17.5,10|8|8|8,0:0|0:0|0:0|0:0,0:0:0:0:
175,177,84854,2,8,L|172:202,3,17.5,10|8|8|8,0:0|0:0|0:0|0:0,0:0:0:0:
239,123,85187,5,10,0:0:0:0:
110,65,85354,2,0,P|108:33|114:1,2,52.5000020027161,0|2|0,2:0|0:0|2:0,0:0:0:0:
31,162,85854,2,0,P|36:188|36:214,1,52.5000020027161,2|0,0:0|2:0,0:0:0:0:
150,325,86187,6,8,L|147:350,3,17.5,10|8|8|8,0:0|0:0|0:0|0:0,0:0:0:0:
134,220,86521,2,8,L|113:204,3,17.5,10|8|8|8,0:0|0:0|0:0|0:0,0:0:0:0:
239,262,86854,2,8,L|262:252,3,17.5,10|8|8|8,0:0|0:0|0:0|0:0,0:0:0:0:
306,338,87187,5,10,0:0:0:0:
319,354,87271,2,0,P|382:345|440:333,1,105,8|2,0:0|2:0,0:0:0:0:
355,246,87687,1,8,0:0:0:0:
347,226,87771,1,8,0:0:0:0:
339,206,87854,2,0,P|351:173|360:139,1,70,2|0,0:0|0:0,0:0:0:0:
438,69,88187,6,8,L|435:94,3,17.5,12|8|8|8,2:0|0:0|0:0|0:0,0:0:0:0:
364,38,88521,2,8,L|343:22,3,17.5,10|8|8|8,0:0|0:0|0:0|0:0,0:0:0:0:
292,81,88854,2,8,L|275:87,3,17.5
210,35,89187,5,8,0:0:0:0:
103,149,89354,2,0,P|94:122|95:87,2,52.5000020027161,0|0|0,2:0|0:0|2:0,0:0:0:0:
221,215,89854,2,0,P|228:184|227:151,1,52.5000020027161,0|0,0:0|2:0,0:0:0:0:
139,247,90187,6,8,L|136:222,3,17.5
202,308,90521,2,8,L|205:283,3,17.5
129,367,90854,2,8,L|126:342,3,17.5
258,376,91187,5,8,0:0:0:0:
95,244,91354,2,0,P|62:242|25:246,2,52.5000020027161,0|0|0,2:0|0:0|2:0,0:0:0:0:
296,308,91854,2,0,P|329:310|358:305,1,52.5000020027161,0|0,0:0|2:0,0:0:0:0:
465,150,92187,5,8,0:0:0:0:
464,164,92271,1,8,0:0:0:0:
463,177,92354,1,8,0:0:0:0:
462,190,92437,1,8,0:0:0:0:
461,204,92521,1,10,0:0:0:0:
460,217,92604,1,8,0:0:0:0:
459,230,92687,1,8,0:0:0:0:
458,244,92771,1,8,0:0:0:0:
457,257,92854,1,10,0:0:0:0:
456,270,92937,1,8,0:0:0:0:
455,284,93021,1,8,0:0:0:0:
455,297,93104,1,8,0:0:0:0:
454,310,93187,1,10,0:0:0:0:
453,324,93271,1,8,0:0:0:0:
452,337,93354,1,8,0:0:0:0:
452,350,93437,1,8,0:0:0:0:
452,364,93521,5,10,0:0:0:0:
432,356,93604,1,8,0:0:0:0:
412,348,93687,1,8,0:0:0:0:
392,340,93771,1,8,0:0:0:0:
376,317,93854,5,10,0:0:0:0:
349,326,93937,1,8,0:0:0:0:
322,335,94021,1,8,0:0:0:0:
295,344,94104,1,8,0:0:0:0:
270,373,94187,5,10,0:0:0:0:
231,372,94271,1,8,0:0:0:0:
192,371,94354,1,8,0:0:0:0:
153,370,94437,1,8,0:0:0:0:
109,383,94521,5,10,0:0:0:0:
120,332,94604,1,8,0:0:0:0:
131,281,94687,1,8,0:0:0:0:
143,229,94771,1,8,0:0:0:0:
107,186,94854,5,10,0:0:0:0:
99,127,94937,1,8,0:0:0:0:
91,67,95021,1,8,0:0:0:0:
83,8,95104,1,8,0:0:0:0:
73,18,95187,5,10,0:0:0:0:
325,62,95354,1,0,0:0:0:0:
94,195,95521,5,10,0:0:0:0:
338,59,95687,1,0,0:0:0:0:
210,84,95854,5,10,0:0:0:0:
351,58,96021,1,0,0:0:0:0:
363,341,96187,6,0,B|387:303|387:303|364:255|364:255|360:250|360:250|340:210|340:210|307:198,1,183.750001752377,4|0,0:0|0:0,0:0:0:0:
193,292,96521,2,0,B|170:238|170:238|216:253|216:253|219:260|303:291,1,183.750001752377,4|0,1:0|0:0,0:0:0:0:
448,374,96854,2,0,B|483:304|483:304|487:307|487:307|468:269|468:269|466:269|466:269|441:219,1,183.750001752377,4|0,1:0|0:0,0:0:0:0:
297,117,97187,5,10,0:0:0:0:
148,361,97354,2,0,B|128:331|79:341|85:347|90:353|31:358|6:315,1,140,4|0,0:0|0:0,0:0:0:0:
16,322,98021,1,0,0:0:0:0:
155,62,98187,6,0,B|209:86|209:86|223:143|223:143|222:150|222:150|234:210,1,183.750001752377,4|0,0:0|0:0,0:0:0:0:
92,287,98521,2,0,B|68:261|68:261|80:218|80:218|81:212|81:212|97:161|97:161|139:147,1,183.750001752377,4|0,1:0|0:0,0:0:0:0:
308,168,98854,2,0,B|322:237|322:237|321:249|321:249|330:304|330:304|298:271,1,183.750001752377,4|0,1:0|0:0,0:0:0:0:
241,110,99187,5,0,0:0:0:0:
460,3,99354,2,0,P|469:65|456:147,1,140,4|0,0:0|0:0,0:0:0:0:
452,147,100021,1,0,0:0:0:0:
512,327,100187,6,0,B|480:285|412:303|412:303|418:305|418:305|379:356|379:356|385:358|385:358|316:383|282:328,1,280,4|2,1:0|2:0,0:0:0:0:
254,166,101187,2,0,B|245:135|282:99|282:99|302:160|339:181|339:181|341:179|341:179|361:232|314:300,1,280,4|2,1:0|2:0,0:0:0:0:
153,311,102187,2,0,B|107:344|72:292|88:255|124:232|124:232|122:236|122:236|160:223|206:225|236:280,1,280,4|2,1:0|2:0,0:0:0:0:
220,359,103021,5,2,0:0:0:0:
120,117,103187,1,8,0:0:0:0:
38,207,103354,1,2,0:0:0:0:
34,227,103437,1,0,0:0:0:0:
30,247,103521,1,0,0:0:0:0:
33,122,103687,1,0,0:0:0:0:
136,293,103854,1,10,0:0:0:0:
203,53,104021,1,0,0:0:0:0:
61,24,104187,6,0,B|105:30|105:30|127:78|127:78|128:84|128:84|146:125|146:125|134:158,1,183.750001752377,4|0,0:0|0:0,0:0:0:0:
52,249,104521,2,0,B|-2:272|-2:272|13:226|13:226|20:222|51:138,1,183.750001752377,6|0,1:0|0:0,0:0:0:0:
207,59,104854,2,0,B|240:129|240:129|244:126|244:126|225:167|225:167|222:169|222:169|203:219,1,183.750001752377,4|0,1:0|0:0,0:0:0:0:
108,363,105187,5,8,0:0:0:0:
386,220,105354,2,0,B|416:240|406:289|400:283|394:278|389:337|432:362,1,140,4|0,0:0|0:0,0:0:0:0:
425,351,106021,1,0,0:0:0:0:
217,148,106187,6,0,B|258:105|258:105|316:111|316:111|322:115|322:115|383:124,1,183.750001752377,4|0,0:0|0:0,0:0:0:0:
484,227,106521,2,0,B|461:254|461:254|417:248|417:248|411:248|411:248|358:239|358:239|338:199,1,183.750001752377,4|0,1:0|0:0,0:0:0:0:
374,36,106854,2,0,B|443:46|443:46|454:51|454:51|509:61|509:61|467:80,1,183.750001752377,4|0,1:0|0:0,0:0:0:0:
307,82,107187,5,8,0:0:0:0:
412,325,107354,2,0,P|350:316|265:319,1,140,4|0,0:0|0:0,0:0:0:0:
266,327,108021,1,0,0:0:0:0:
24,154,108187,6,0,B|-12:161|11:100|72:121|99:171|99:171|104:170|104:170|94:204|111:239|111:239|147:261|203:248,1,280,4|2,1:0|2:0,0:0:0:0:
205,76,109187,2,0,B|223:39|260:35|260:35|265:76|296:102|296:102|290:101|290:101|273:174|182:168,1,280,4|2,1:0|2:0,0:0:0:0:
396,53,110187,5,10,0:0:0:0:
403,60,110271,1,8,0:0:0:0:
409,68,110354,2,0,P|406:85|401:101,1,35,8|8,0:0|0:0,0:0:0:0:
469,164,110521,2,0,P|454:173|440:181,1,35,10|8,0:0|0:0,0:0:0:0:
431,276,110687,2,0,P|414:273|398:268,1,35
241,217,110854,5,2,0:0:0:0:
270,198,110937,1,0,0:0:0:0:
304,194,111021,2,0,P|321:193|338:197,1,35
440,273,111187,1,10,0:0:0:0:
454,327,111271,1,8,0:0:0:0:
469,380,111354,5,0,0:0:0:0:
472,369,111437,1,0,0:0:0:0:
474,359,111521,1,2,0:0:0:0:
476,349,111604,1,0,0:0:0:0:
478,338,111687,1,0,0:0:0:0:
480,328,111771,1,0,0:0:0:0:
483,317,111854,5,10,0:0:0:0:
203,354,112021,1,0,0:0:0:0:
267,179,112187,5,0,0:0:0:0:
263,161,112271,1,0,0:0:0:0:
259,143,112354,1,0,0:0:0:0:
254,128,113187,5,0,0:0:0:0:
250,110,113271,1,0,0:0:0:0:
246,92,113354,2,0,B|238:140|238:140|212:170|212:170|208:169|208:169|213:216,2,140
114,36,114187,5,8,0:0:0:0:
96,40,114271,1,0,0:0:0:0:
78,44,114354,1,0,0:0:0:0:
63,49,115187,5,0,0:0:0:0:
45,53,115271,1,0,0:0:0:0:
27,57,115354,2,0,B|49:78|49:78|167:60,2,140,0|8|0,0:0|0:0|0:0,0:0:0:0:
36,206,116187,5,0,0:0:0:0:
40,224,116271,1,0,0:0:0:0:
44,242,116354,1,0,0:0:0:0:
49,257,117187,5,8,0:0:0:0:
53,275,117271,1,0,0:0:0:0:
57,293,117354,2,0,B|78:271|78:271|86:191|86:191|70:166,2,140
261,350,118187,5,0,0:0:0:0:
279,346,118271,1,0,0:0:0:0:
297,342,118354,1,0,0:0:0:0:
312,337,119187,5,0,0:0:0:0:
330,333,119271,1,0,0:0:0:0:
346,328,119354,1,0,0:0:0:0:
312,224,119521,1,8,0:0:0:0:
420,250,119687,5,0,0:0:0:0:
438,254,119771,1,0,0:0:0:0:
454,259,119854,1,0,0:0:0:0:
389,141,120021,1,0,0:0:0:0:
235,206,120187,5,0,0:0:0:0:
217,202,120271,1,0,0:0:0:0:
199,198,120354,1,0,0:0:0:0:
184,193,121187,5,0,0:0:0:0:
166,189,121271,1,0,0:0:0:0:
148,185,121354,2,0,B|170:164|170:164|241:159|241:159|273:119,2,140
90,48,122187,5,8,0:0:0:0:
72,52,122271,1,0,0:0:0:0:
54,56,122354,1,0,0:0:0:0:
39,61,123187,5,0,0:0:0:0:
21,65,123271,1,0,0:0:0:0:
3,69,123354,2,0,B|61:108|61:108|132:93,2,140,0|8|0,0:0|0:0|0:0,0:0:0:0:
218,79,124187,5,0,0:0:0:0:
222,97,124271,1,0,0:0:0:0:
226,115,124354,1,0,0:0:0:0:
231,130,125187,5,0,0:0:0:0:
235,148,125271,1,0,0:0:0:0:
239,166,125354,2,0,B|263:136|263:136|242:21,2,140
136,245,126187,5,8,0:0:0:0:
72,326,126354,1,0,0:0:0:0:
72,326,126437,1,0,0:0:0:0:
72,326,126521,1,0,0:0:0:0:
47,228,126687,1,0,0:0:0:0:
161,332,126854,5,8,0:0:0:0:
199,139,127021,1,0,0:0:0:0:
320,304,127187,5,10,0:0:0:0:
363,218,127354,1,0,0:0:0:0:
358,201,127437,1,0,0:0:0:0:
353,184,127521,1,2,0:0:0:0:
456,251,127687,5,0,0:0:0:0:
453,268,127771,1,0,0:0:0:0:
450,285,127854,1,10,0:0:0:0:
512,174,128021,1,0,0:0:0:0:
411,73,128187,5,2,0:0:0:0:
414,90,128271,1,0,0:0:0:0:
417,107,128354,1,0,0:0:0:0:
332,94,128521,2,0,L|194:69,1,140,6|6,2:0|2:0,0:0:0:0:
194,69,129187,5,2,0:0:0:0:
189,51,129271,1,0,0:0:0:0:
184,33,129354,2,0,B|148:92|148:92|166:163,2,140
117,221,130187,5,10,0:0:0:0:
114,238,130271,1,0,0:0:0:0:
111,255,130354,1,0,0:0:0:0:
196,242,130521,2,0,L|333:217,1,140,6|6,2:2|2:0,2:0:0:0:
333,217,131187,5,2,0:0:0:0:
337,199,131271,1,0,0:0:0:0:
339,181,131354,2,0,B|360:203|360:203|365:274|365:274|405:306,2,140
122,294,132187,5,10,0:0:0:0:
118,312,132271,1,0,0:0:0:0:
114,330,132354,1,0,0:0:0:0:
109,345,133187,5,10,0:0:0:0:
105,363,133271,1,0,0:0:0:0:
101,381,133354,2,0,B|77:351|77:351|98:236,2,140
223,119,134187,5,2,0:0:0:0:
219,101,134271,1,0,0:0:0:0:
215,83,134354,1,0,0:0:0:0:
210,68,135187,5,10,0:0:0:0:
206,50,135271,1,8,0:0:0:0:
201,33,135354,5,0,0:0:0:0:
196,46,135437,1,0,0:0:0:0:
191,59,135521,1,0,0:0:0:0:
186,72,135604,1,0,0:0:0:0:
182,85,135687,1,8,0:0:0:0:
102,140,135854,2,0,P|98:165|101:201,1,35
163,229,136021,2,0,P|167:254|164:290,1,35
77,353,136187,5,10,0:0:0:0:
98,350,136271,1,0,0:0:0:0:
118,347,136354,1,0,0:0:0:0:
225,315,136521,1,10,0:0:0:0:
246,318,136854,1,10,0:0:0:0:
266,321,137187,5,10,0:0:0:0:
287,324,137271,1,0,0:0:0:0:
307,327,137354,1,0,0:0:0:0:
395,267,137521,2,0,L|386:195,1,70,10|0,0:0|0:0,0:0:0:0:
487,313,137854,2,0,L|478:382,1,70,10|0,0:0|0:0,0:0:0:0:
473,210,138187,5,10,0:0:0:0:
470,189,138271,1,0,0:0:0:0:
467,169,138354,1,0,0:0:0:0:
478,62,138521,1,10,0:0:0:0:
457,65,138854,1,10,0:0:0:0:
437,68,139187,5,10,0:0:0:0:
416,71,139271,1,0,0:0:0:0:
395,75,139354,1,0,0:0:0:0:
279,74,139521,2,0,L|270:2,1,70,10|0,0:0|0:0,0:0:0:0:
166,75,139854,2,0,L|157:144,1,70,10|0,0:0|0:0,0:0:0:0:
74,14,140187,5,14,0:0:0:0:
1,220,140354,1,0,0:0:0:0:
162,67,140521,5,0,0:0:0:0:
185,278,140687,1,0,0:0:0:0:
82,146,140854,5,8,0:0:0:0:
26,358,141021,1,0,0:0:0:0:
26,358,141104,1,0,0:0:0:0:
26,358,141187,5,14,0:0:0:0:
128,216,141354,1,0,0:0:0:0:
218,372,141521,5,8,0:0:0:0:
184,146,141687,1,0,0:0:0:0:
288,301,141854,5,8,0:0:0:0:
81,294,142021,1,0,0:0:0:0:
81,294,142104,1,0,0:0:0:0:
81,294,142187,5,14,1:0:0:0:
270,169,142354,1,0,0:0:0:0:
321,378,142521,5,8,0:0:0:0:
185,278,142687,1,0,0:0:0:0:
412,157,142854,5,8,0:0:0:0:
288,301,143021,1,0,0:0:0:0:
505,162,143187,5,10,0:0:0:0:
501,125,143271,1,8,0:0:0:0:
476,97,143354,1,8,0:0:0:0:
444,78,143437,1,8,0:0:0:0:
407,72,143521,1,8,0:0:0:0:
371,79,143604,1,8,0:0:0:0:
342,97,143687,1,8,0:0:0:0:
311,118,143771,1,8,0:0:0:0:
275,124,143854,1,8,0:0:0:0:
239,116,143937,1,8,0:0:0:0:
209,93,144021,1,8,0:0:0:0:
193,60,144104,1,8,0:0:0:0:
196,23,144187,5,10,0:0:0:0:
