osu file format v14

[General]
AudioFilename: audio.mp3
AudioLeadIn: 0
PreviewTime: 92177
Countdown: 0
SampleSet: Drum
StackLeniency: 0.7
Mode: 0
LetterboxInBreaks: 0
WidescreenStoryboard: 1

[Editor]
DistanceSpacing: 1.1
BeatDivisor: 4
GridSize: 16
TimelineZoom: 1.4

[Metadata]
Title:731
TitleUnicode:731
Artist:Belmont
ArtistUnicode:Belmont
Creator:AsaBen
Version:Normal
Source:
Tags:Between You & Me EP Pop Punk American Rock Chicago English
BeatmapID:2472790
BeatmapSetID:1159959

[Difficulty]
HPDrainRate:3
CircleSize:3.6
OverallDifficulty:4.5
ApproachRate:5.5
SliderMultiplier:0.8
SliderTickRate:1

[Events]
//Background and Video events
0,0,"BG+1920x1080.jpg",0,0
//Break Periods
2,64387,67062
2,72387,75062
//Storyboard Layer 0 (Background)
//Storyboard Layer 1 (Fail)
//Storyboard Layer 2 (Pass)
//Storyboard Layer 3 (Foreground)
//Storyboard Layer 4 (Overlay)
//Storyboard Sound Samples

[TimingPoints]
188,333.333333333333,3,3,1,80,1,0
3187,-100,4,3,1,50,0,0
4187,-100,4,3,1,80,0,0
36187,-86.9565217391304,4,3,1,80,0,1
40187,-100,4,3,1,80,0,0
44187,-86.9565217391304,4,3,1,80,0,1
48187,-100,4,3,1,80,0,0
52187,-86.9565217391304,4,3,1,80,0,1
56187,-100,4,3,1,80,0,0
60187,-86.9565217391304,4,3,1,80,0,1
64187,-86.9565217391304,4,3,1,80,0,0
68187,-117.647058823529,4,3,1,50,0,0
80187,-100,4,3,1,50,0,0
93187,-100,4,3,1,75,0,0
94187,-86.9565217391304,4,3,1,80,0,0
96187,-86.9565217391304,4,3,1,80,0,1
100187,-100,4,3,1,80,0,0
104187,-86.9565217391304,4,3,1,80,0,1
108187,-100,4,3,1,80,0,0
140187,-86.9565217391304,4,3,1,80,0,1
144187,-86.9565217391304,4,3,1,80,0,0

[Colours]
Combo1 : 193,170,170
Combo2 : 255,138,138
Combo3 : 138,197,255
Combo4 : 207,186,216

[HitObjects]
116,324,3187,6,0,P|77:330|38:322,2,80,8|0|2,0:0|0:0|2:0,0:0:0:0:
161,257,4187,6,0,B|202:263|202:263|211:270|211:270|245:276,1,80,6|2,0:0|0:0,0:0:0:0:
276,285,4687,1,2,0:0:0:0:
331,342,5021,2,0,P|342:319|356:304,1,40,0|10,0:0|0:0,0:0:0:0:
388,289,5354,1,0,0:0:0:0:
350,218,5687,2,0,L|344:116,1,80,0|0,2:0|2:0,0:0:0:0:
338,98,6187,6,0,B|293:104|293:104|283:111|283:111|248:118,1,80,6|2,0:0|0:0,0:0:0:0:
225,133,6687,1,2,0:0:0:0:
145,138,7021,2,0,L|130:100,1,40,0|10,0:0|0:0,0:0:0:0:
10,108,7687,2,0,L|14:68,2,40,0|10|0,0:0|0:0|0:0,0:0:0:0:
10,148,8187,6,0,P|-9:214|22:292,2,120,6|0|14,0:0|0:0|1:0,0:0:0:0:
110,214,9687,1,0,0:0:0:0:
187,235,10021,1,0,0:0:0:0:
217,262,10187,6,0,P|228:203|209:147,2,120,6|0|8,0:0|0:0|0:0,0:0:0:0:
170,327,11521,2,0,P|210:340|248:336,1,80,0|8,0:0|0:0,0:0:0:0:
272,260,12187,6,0,B|317:252|317:252|328:245|328:245|365:238,1,80,6|2,0:0|0:0,0:0:0:0:
388,247,12687,1,2,0:0:0:0:
425,317,13021,2,0,L|487:346,1,40,0|10,0:0|0:0,0:0:0:0:
501,338,13354,1,8,0:0:0:0:
482,261,13687,2,0,L|497:155,1,80,0|0,2:0|2:0,0:0:0:0:
490,141,14187,6,0,B|453:132|453:132|443:123|443:123|397:115,1,80,6|2,0:0|0:0,0:0:0:0:
379,98,14687,1,10,0:0:0:0:
305,65,15021,1,0,0:0:0:0:
289,101,15187,2,0,L|262:198,2,80,10|2|2,0:0|0:0|0:0,0:0:0:0:
217,63,16187,2,0,P|151:44|73:75,2,120,6|4|6,0:0|2:0|1:0,0:0:0:0:
151,163,17687,1,4,2:0:0:0:
102,269,18187,6,0,P|160:280|217:262,2,120,6|4|10,0:0|2:0|0:0,0:0:0:0:
72,242,19354,1,0,0:0:0:0:
44,213,19521,2,0,P|26:245|30:311,1,80,0|8,0:0|0:0,0:0:0:0:
96,317,20187,6,0,B|97:344|97:344|54:385,2,80,6|6|6,0:0|1:0|1:0,0:0:0:0:
137,248,21187,1,10,0:0:0:0:
154,169,21521,2,0,B|138:146|138:146|149:95,1,80,6|0,0:0|0:0,0:0:0:0:
134,16,22187,6,0,B|99:18|99:18|84:24|84:24|38:27,2,80,6|2|0,0:0|0:0|0:0,0:0:0:0:
211,37,23187,1,10,0:0:0:0:
329,59,23687,2,0,L|318:20,2,40,0|8|0,0:0|0:0|0:0,0:0:0:0:
305,91,24187,6,0,P|286:157|317:235,2,120,6|4|10,0:0|2:0|0:0,0:0:0:0:
342,104,25354,1,8,0:0:0:0:
405,157,25687,1,6,2:0:0:0:
473,198,26021,1,2,0:0:0:0:
512,206,26187,2,0,P|523:147|504:91,2,120,6|8|8,1:0|0:0|0:0,0:0:0:0:
450,258,27521,1,2,0:0:0:0:
380,297,27854,1,2,0:0:0:0:
301,283,28187,6,0,B|268:275|268:275|259:267|259:267|219:259,1,80,6|2,0:0|0:0,0:0:0:0:
185,268,28687,1,2,0:3:0:0:
107,293,29021,2,0,L|81:255,1,40,0|10,0:0|0:0,0:0:0:0:
51,239,29354,1,8,0:0:0:0:
97,174,29687,2,0,P|101:127|76:88,1,80,0|0,2:0|2:0,0:0:0:0:
76,59,30187,6,0,B|115:65|115:65|116:64|116:64|170:75,1,80,6|2,0:0|0:0,0:0:0:0:
194,76,30687,1,2,0:0:0:0:
235,7,31021,1,0,0:0:0:0:
272,22,31187,2,0,L|323:43,1,40,10|0,0:0|0:0,0:0:0:0:
322,75,31521,2,0,P|317:123|292:147,1,80,0|8,0:0|0:0,0:0:0:0:
260,163,32021,1,0,0:0:0:0:
235,194,32187,6,0,B|288:245|353:200|353:200|414:157|479:210,2,240,6|10|2,0:0|0:0|2:0,0:0:0:0:
67,365,35187,1,10,0:0:0:0:
11,307,35521,1,2,0:0:0:0:
68,251,35854,1,2,0:0:0:0:
51,173,36187,6,0,L|32:62,1,92.0000017547608,12|8,0:0|0:0,0:0:0:0:
116,35,36854,1,8,0:0:0:0:
152,63,37021,1,0,0:0:0:0:
191,88,37187,2,0,L|302:107,1,92.0000017547608,8|10,0:0|0:0,0:0:0:0:
372,118,37854,1,10,0:0:0:0:
461,139,38187,6,0,P|481:174|497:226,2,92.0000017547608,10|10|10,0:0|0:0|0:0,0:0:0:0:
414,136,39021,1,0,0:0:0:0:
369,149,39187,2,0,P|364:194|368:240,1,92.0000017547608,10|8,0:0|0:0,0:0:0:0:
420,316,39854,1,8,0:0:0:0:
347,350,40187,6,0,P|234:367|115:334,2,240,6|8|2,1:0|0:0|0:2,0:0:0:0:
402,292,42521,1,2,0:0:0:0:
410,132,43187,2,0,P|459:131|499:139,2,80,10|2|10,0:0|0:0|0:0,0:0:0:0:
329,177,44187,6,0,L|218:196,1,92.0000017547608,14|10,0:0|0:0,0:0:0:0:
157,147,44854,1,10,0:0:0:0:
113,162,45021,1,0,0:0:0:0:
71,180,45187,2,0,L|55:89,1,92.0000017547608,10|10,0:0|0:0,0:0:0:0:
120,24,45854,1,10,0:0:0:0:
207,51,46187,6,0,P|259:54|313:40,2,92.0000017547608,10|10|10,0:0|0:0|0:0,0:0:0:0:
162,38,47021,1,0,0:0:0:0:
118,26,47187,1,2,0:0:0:0:
39,74,47521,1,0,0:0:0:0:
105,137,47854,1,0,0:0:0:0:
171,83,48187,6,0,B|207:109|193:159|193:159|180:175|174:203|174:203|213:222|213:222|227:254|205:291,2,240,4|10|6,1:0|0:0|1:0,0:0:0:0:
220,20,50521,2,0,P|259:21|314:38,1,80,2|2,0:0|0:0,0:0:0:0:
338,28,51021,1,0,0:0:0:0:
377,19,51187,2,0,L|385:156,1,120,14|8,0:0|0:0,0:0:0:0:
468,248,52187,6,0,L|349:226,1,92.0000017547608,14|8,0:0|0:0,0:0:0:0:
286,244,52854,1,8,0:0:0:0:
248,271,53021,1,0,0:0:0:0:
209,295,53187,2,0,L|116:275,1,92.0000017547608,8|10,0:0|0:0,0:0:0:0:
32,244,53854,1,10,0:0:0:0:
14,201,54021,1,0,0:0:0:0:
2,157,54187,6,0,P|-1:105|9:54,2,92.0000017547608,10|10|10,0:0|0:0|0:0,0:0:0:0:
91,172,55187,2,0,P|136:161|182:163,1,92.0000017547608,10|10,0:0|0:0,0:0:0:0:
269,193,55854,1,10,0:0:0:0:
315,258,56187,6,0,P|411:230|341:158,2,240,6|10|2,1:0|0:0|0:0,0:0:0:0:
234,256,58521,1,2,0:0:0:0:
96,337,59187,1,10,0:0:0:0:
34,285,59521,1,0,0:0:0:0:
60,209,59854,1,2,0:0:0:0:
148,234,60187,6,0,L|137:120,1,92.0000017547608,6|10,0:0|0:0,0:0:0:0:
116,102,60687,1,2,0:0:0:0:
92,62,60854,1,8,0:0:0:0:
176,24,61187,2,0,L|299:32,1,92.0000017547608,10|10,0:0|0:0,0:0:0:0:
359,33,61854,1,8,0:0:0:0:
433,86,62187,6,0,P|480:66|514:20,2,92.0000017547608,10|10|8,0:0|0:0|0:0,0:0:0:0:
346,119,63187,1,10,0:0:0:0:
263,159,63521,1,8,0:0:0:0:
220,240,63854,1,8,0:0:0:0:
221,286,64021,1,0,0:0:0:0:
222,331,64187,1,4,0:2:0:0:
236,133,68187,6,0,B|296:89|390:100|365:130|340:159|459:197|515:128|509:32|434:-3|369:32,2,408.000007781983,2|0|4,2:0|2:0|0:2,0:0:0:0:
218,81,76187,6,0,B|209:146|138:197|29:179|-39:116|2:12|55:-5|110:4|131:75,2,408.000007781983,2|2|0,2:0|2:0|0:0,0:0:0:0:
0,177,81187,6,0,P|-3:129|18:80,2,80,10|0|0,0:0|0:0|0:0,0:0:0:0:
28,252,82187,1,8,0:0:0:0:
162,340,82854,1,8,0:0:0:0:
217,282,83187,2,0,P|239:239|240:186,2,80,8|0|0,0:0|0:0|0:0,0:0:0:0:
162,340,84187,1,8,0:0:0:0:
65,345,84521,6,0,P|81:308|109:281,1,80,10|10,0:0|0:0,0:0:0:0:
180,243,85187,2,0,P|218:232|257:236,2,80,10|2|2,0:0|0:0|0:0,0:0:0:0:
110,202,86187,2,0,P|99:163|76:131,2,80,10|10|10,0:0|0:0|0:0,0:0:0:0:
120,281,87187,1,10,0:0:0:0:
209,200,87687,1,8,0:0:0:0:
319,153,88187,6,0,P|322:201|301:250,2,80,12|10|8,2:0|0:0|0:0,0:0:0:0:
295,76,89187,2,0,P|226:38|149:52,1,160,8|0,0:0|0:0,0:0:0:0:
101,116,90187,2,0,P|60:89|7:83,2,80,8|8|8,0:0|0:0|0:0,0:0:0:0:
158,171,91187,2,0,P|110:234|113:312,1,160,8|0,0:0|0:0,0:0:0:0:
182,352,92187,5,8,0:0:0:0:
210,277,92521,2,0,P|250:262|301:270,1,80,10|10,0:0|0:0,0:0:0:0:
355,304,93187,2,0,P|395:291|431:253,1,80,10|10,0:0|0:0,0:0:0:0:
430,187,93854,1,10,0:0:0:0:
421,95,94187,1,10,0:0:0:0:
346,40,94521,2,0,P|296:29|250:44,1,92.0000017547608,10|10,0:0|0:0,0:0:0:0:
257,131,95187,6,0,L|267:186,1,46.0000008773804,10|0,0:0|0:0,0:0:0:0:
245,218,95521,2,0,L|199:209,1,46.0000008773804,10|0,0:0|0:0,0:0:0:0:
154,199,95854,1,10,0:0:0:0:
176,110,96187,6,0,B|137:109|137:109|122:105|122:105|84:104,2,92.0000017547608,4|4|4,0:0|1:0|1:0,0:0:0:0:
267,122,97187,1,10,0:0:0:0:
312,128,97354,2,0,L|323:237,1,92.0000017547608,4|0,0:0|0:0,0:0:0:0:
369,298,98021,1,0,0:0:0:0:
388,339,98187,6,0,B|427:338|427:338|442:334|442:334|479:333,2,92.0000017547608,4|4|4,0:0|1:0|1:0,0:0:0:0:
296,330,99187,1,0,0:0:0:0:
261,360,99354,2,0,L|151:349,1,92.0000017547608,4|0,0:0|0:0,0:0:0:0:
78,337,100021,1,0,0:0:0:0:
45,314,100187,6,0,B|17:229|80:207|69:200|59:195|141:180|97:57,2,240,4|4|4,1:0|1:0|1:0,0:0:0:0:
208,197,103021,1,2,0:0:0:0:
235,168,103187,2,0,P|274:157|349:164,2,80,8|0|10,0:0|0:0|0:0,0:0:0:0:
166,230,104187,6,0,B|127:222|127:222|113:215|113:215|76:208,2,92.0000017547608,4|6|4,0:0|1:0|1:0,0:0:0:0:
253,256,105187,1,8,0:0:0:0:
278,294,105354,2,0,L|375:282,1,92.0000017547608,4|0,0:0|0:0,0:0:0:0:
451,241,106021,1,0,0:0:0:0:
490,265,106187,6,0,B|497:303|497:303|504:317|504:317|511:354,2,92.0000017547608,4|4|4,0:0|1:0|1:0,0:0:0:0:
502,173,107187,1,8,0:0:0:0:
472,138,107354,2,0,L|484:41,1,92.0000017547608,4|0,0:0|0:0,0:0:0:0:
403,1,108021,1,0,0:0:0:0:
368,21,108187,6,0,P|252:-1|138:33,2,240,4|4|10,1:0|1:0|0:0,0:0:0:0:
405,93,110521,2,0,P|416:129|396:182,1,80,10|2,0:0|0:0,0:0:0:0:
330,194,111187,1,10,0:0:0:0:
271,248,111521,1,2,0:0:0:0:
311,317,111854,2,0,P|323:335|346:356,1,40,10|0,0:0|0:0,0:0:0:0:
379,357,112187,5,0,0:0:0:0:
379,357,112354,1,0,0:0:0:0:
189,343,113187,1,0,0:0:0:0:
213,311,113354,2,0,L|320:301,2,80,0|0|0,0:0|0:0|0:0,0:0:0:0:
184,282,114187,6,0,L|116:290,1,40,8|0,0:0|0:0,0:0:0:0:
119,88,115187,1,0,0:0:0:0:
95,56,115354,2,0,L|-12:46,2,80,0|8|0,0:0|0:0|0:0,0:0:0:0:
122,27,116187,6,0,L|190:35,1,40,0|0,0:0|0:0,0:0:0:0:
335,131,117187,1,8,0:0:0:0:
359,99,117354,2,0,L|466:89,2,80,0|0|0,0:0|0:0|0:0,0:0:0:0:
336,66,118187,6,0,L|268:74,1,40,0|0,0:0|0:0,0:0:0:0:
135,190,119187,2,0,B|132:227|132:227|128:242|128:242|126:269,2,80,0|8|0,0:0|0:0|0:0,0:0:0:0:
186,128,120187,5,0,0:0:0:0:
186,128,120354,1,0,0:0:0:0:
314,237,121187,1,0,0:0:0:0:
346,261,121354,2,0,L|356:368,2,80,0|0|0,0:0|0:0|0:0,0:0:0:0:
372,231,122187,6,0,L|364:163,1,40,8|0,0:0|0:0,0:0:0:0:
185,106,123187,1,0,0:0:0:0:
153,82,123354,2,0,L|143:-25,2,80,0|8|0,0:0|0:0|0:0,0:0:0:0:
123,108,124187,6,0,L|126:150,1,40,0|0,0:0|0:0,0:0:0:0:
269,287,125187,1,0,0:0:0:0:
245,319,125354,2,0,L|138:329,2,80,0|0|0,0:0|0:0|0:0,0:0:0:0:
272,347,126187,6,0,L|363:343,2,80,8|0|8,0:0|0:0|0:0,0:0:0:0:
191,350,127187,1,10,0:0:0:0:
110,354,127521,1,2,0:0:0:0:
30,357,127854,1,10,0:0:0:0:
67,286,128187,6,0,B|45:247|45:247|48:211,2,80,2|6|6,0:0|2:0|2:0,0:0:0:0:
142,311,129187,2,0,B|186:310|186:310|215:290,2,80,2|0|0,0:0|0:0|0:0,0:0:0:0:
139,230,130187,2,0,L|126:150,2,80,10|6|6,0:0|2:2|2:0,0:0:0:0:
199,282,131187,2,0,L|186:361,2,80,2|0|0,0:0|0:0|0:0,0:0:0:0:
217,203,132187,6,0,B|307:185|307:185|351:154|351:154|463:132,2,240,10|10|2,0:0|0:0|0:0,0:0:0:0:
437,298,135187,2,0,L|455:218,2,80,10|0|0,0:0|0:0|0:0,0:0:0:0:
396,296,136021,1,0,0:0:0:0:
357,304,136187,6,0,L|351:399,2,80,10|10|10,0:0|0:0|0:0,0:0:0:0:
290,259,137187,2,0,L|284:164,2,80,10|10|10,0:0|0:0|0:0,0:0:0:0:
218,295,138187,2,0,L|212:390,2,80,10|10|10,0:0|0:0|0:0,0:0:0:0:
146,258,139187,2,0,L|140:163,2,80,10|10|10,0:0|0:0|0:0,0:0:0:0:
75,317,140187,6,0,P|55:275|56:230,1,92.0000017547608,14|0,0:0|0:0,0:0:0:0:
63,138,140854,1,8,0:0:0:0:
88,99,141021,1,0,0:0:0:0:
123,69,141187,2,0,P|164:49|209:50,1,92.0000017547608,14|8,0:0|0:0,0:0:0:0:
302,57,141854,1,8,0:0:0:0:
314,101,142021,1,0,0:0:0:0:
332,143,142187,2,0,P|373:162|418:161,1,92.0000017547608,14|8,1:0|0:0,0:0:0:0:
511,155,142854,1,8,0:0:0:0:
463,76,143187,5,10,0:0:0:0:
370,70,143521,1,8,0:0:0:0:
300,130,143854,1,8,0:0:0:0:
312,174,144021,1,8,0:0:0:0:
320,219,144187,1,10,0:0:0:0:
