osu file format v14

[General]
AudioFilename: audio.mp3
AudioLeadIn: 0
PreviewTime: 92177
Countdown: 0
SampleSet: Drum
StackLeniency: 0.7
Mode: 0
LetterboxInBreaks: 0
WidescreenStoryboard: 1

[Editor]
DistanceSpacing: 1
BeatDivisor: 4
GridSize: 16
TimelineZoom: 1.4

[Metadata]
Title:731
TitleUnicode:731
Artist:Belmont
ArtistUnicode:Belmont
Creator:AsaBen
Version:Hard
Source:
Tags:Between You & Me EP Pop Punk American Rock Chicago English
BeatmapID:2453233
BeatmapSetID:1159959

[Difficulty]
HPDrainRate:4
CircleSize:3.8
OverallDifficulty:7
ApproachRate:7.5
SliderMultiplier:1
SliderTickRate:1

[Events]
//Background and Video events
0,0,"BG+1920x1080.jpg",0,0
//Break Periods
2,64387,67362
//Storyboard Layer 0 (Background)
//Storyboard Layer 1 (Fail)
//Storyboard Layer 2 (Pass)
//Storyboard Layer 3 (Foreground)
//Storyboard Layer 4 (Overlay)
//Storyboard Sound Samples

[TimingPoints]
188,333.333333333333,3,3,1,80,1,0
3187,-100,4,3,1,50,0,0
4187,-100,4,3,1,80,0,0
20187,-86.9565217391304,4,3,1,80,0,0
24187,-100,4,3,1,80,0,0
36187,-86.9565217391304,4,3,1,80,0,1
40187,-100,4,3,1,80,0,0
44187,-86.9565217391304,4,3,1,80,0,1
48187,-100,4,3,1,80,0,0
52187,-86.9565217391304,4,3,1,80,0,1
56187,-100,4,3,1,80,0,0
60187,-86.9565217391304,4,3,1,80,0,1
64187,-66.6666666666667,4,3,1,80,0,0
68187,-117.647058823529,4,3,1,50,0,0
80187,-117.647058823529,4,3,1,50,0,0
81187,-105.263157894737,4,3,1,50,0,0
81854,-117.647058823529,4,3,1,50,0,0
83187,-105.263157894737,4,3,1,50,0,0
83854,-117.647058823529,4,3,1,50,0,0
85187,-105.263157894737,4,3,1,50,0,0
85854,-117.647058823529,4,3,1,50,0,0
89187,-105.263157894737,4,3,1,50,0,0
89854,-117.647058823529,4,3,1,50,0,0
91187,-105.263157894737,4,3,1,50,0,0
91854,-117.647058823529,4,3,1,50,0,0
93187,-100,4,3,1,75,0,0
94187,-86.9565217391304,4,3,1,80,0,0
96187,-86.9565217391304,4,3,1,80,0,1
100187,-100,4,3,1,80,0,0
104187,-86.9565217391304,4,3,1,80,0,1
108187,-100,4,3,1,80,0,0
140187,-80,4,3,1,80,0,1
144187,-66.6666666666667,4,3,1,80,0,0

[Colours]
Combo1 : 193,170,170
Combo2 : 255,138,138
Combo3 : 138,197,255
Combo4 : 207,186,216

[HitObjects]
54,134,3187,6,0,L|106:124,1,50,8|0,0:0|0:0,0:0:0:0:
127,132,3437,1,0,0:0:0:0:
151,136,3521,2,0,L|200:128,2,50,0|0|2,0:0|0:0|2:0,0:0:0:0:
35,231,4187,6,0,B|28:278|28:278|22:288|22:288|15:345,1,100,6|2,0:0|0:0,0:0:0:0:
92,333,4687,2,0,B|143:320|143:320|196:348,1,100,2|0,0:0|0:0,0:0:0:0:
262,360,5187,1,10,0:0:0:0:
262,360,5354,2,0,L|372:374,2,100,0|0|0,0:0|2:0|2:0,0:0:0:0:
221,296,6187,6,0,B|225:255|225:255|231:245|231:245|238:198,1,100,6|2,0:0|0:0,0:0:0:0:
207,130,6687,2,0,B|194:79|194:79|222:26,1,100,2|0,0:0|0:0,0:0:0:0:
282,2,7187,1,10,0:0:0:0:
496,68,7687,2,0,L|507:21,2,25,0|0|10,0:0|0:0|0:0,0:0:0:0:
475,140,8021,1,0,0:0:0:0:
451,210,8187,6,0,B|430:272|430:272|439:304|439:304|416:373,1,150,6|0,0:0|0:0,0:0:0:0:
331,240,9021,1,0,0:0:0:0:
331,240,9187,6,0,B|263:200|263:200|198:228,1,150,14|0,1:0|0:0,0:0:0:0:
59,182,10021,1,0,0:0:0:0:
59,182,10187,6,0,B|33:228|33:228|67:334,1,150,6|0,0:0|0:0,0:0:0:0:
212,307,11021,1,0,0:0:0:0:
220,316,11104,1,0,0:0:0:0:
228,325,11187,2,0,L|221:371,3,25,8|8|8|8,0:0|0:0|0:0|0:0,0:0:0:0:
306,357,11521,2,0,L|313:403,3,25,0|0|0|0,0:0|0:0|0:0|0:0,0:0:0:0:
390,359,11854,1,8,0:0:0:0:
498,255,12187,6,0,B|451:262|451:262|440:268|440:268|384:275,1,100,6|2,0:0|0:0,0:0:0:0:
396,198,12687,2,0,B|409:147|409:147|381:94,1,100,2|0,0:0|0:0,0:0:0:0:
319,133,13187,1,10,0:0:0:0:
319,133,13354,2,0,L|305:243,2,100,8|0|0,0:0|2:0|2:0,0:0:0:0:
339,60,14187,6,0,B|298:55|298:55|288:49|288:49|241:42,1,100,6|2,0:0|0:0,0:0:0:0:
173,74,14687,2,0,B|122:87|122:87|69:59,1,100,10|0,0:0|0:0,0:0:0:0:
11,34,15187,2,0,P|7:52|5:76,3,25,10|8|8|8,0:0|0:0|0:0|0:0,0:0:0:0:
35,128,15521,2,0,L|39:177,1,50,2|0,0:0|0:0,0:0:0:0:
109,204,15854,2,0,L|104:253,1,50,2|0,0:0|0:0,0:0:0:0:
92,327,16187,6,0,B|146:349|146:349|145:354|145:354|200:328|200:328|237:340,1,150,6|4,0:0|2:0,0:0:0:0:
449,341,17187,2,0,B|463:307|463:307|426:232|426:232|396:228,1,150,6|4,1:0|2:0,0:0:0:0:
171,238,18187,2,0,B|131:243|131:243|170:118,1,150,6|4,0:0|2:0,0:0:0:0:
302,0,19187,5,10,0:0:0:0:
342,63,19354,1,0,0:0:0:0:
349,72,19437,1,0,0:0:0:0:
357,81,19521,2,0,L|428:63,2,50,0|0|8,0:0|0:0|0:0,0:0:0:0:
246,182,20187,6,0,B|208:207|208:207|177:203|177:203|172:201|172:201|122:193,1,115.000002193451,6|6,0:0|1:0,0:0:0:0:
98,27,20854,1,6,1:0:0:0:
12,176,21187,2,0,L|18:233,1,57.5000010967255,10|0,0:0|0:0,0:0:0:0:
43,316,21521,2,0,B|81:341|81:341|111:337|111:337|117:335|117:335|167:327,1,115.000002193451,6|0,0:0|0:0,0:0:0:0:
223,173,22187,6,0,B|262:163|262:163|244:243,1,115.000002193451,6|2,0:0|0:0,0:0:0:0:
227,320,22687,1,4,1:0:0:0:
338,188,23021,1,0,0:0:0:0:
324,272,23187,2,0,B|374:264|374:264|381:265|381:265|439:255,1,115.000002193451,10|0,0:0|0:0,0:0:0:0:
509,321,23687,1,0,0:0:0:0:
509,321,23771,1,0,0:0:0:0:
509,321,23854,2,0,L|516:263,1,57.5000010967255,8|0,0:0|0:0,0:0:0:0:
497,191,24187,6,0,B|449:156|449:156|446:160|446:160|438:99|438:99|409:74,1,150,6|4,0:0|2:0,0:0:0:0:
285,16,25021,1,0,0:0:0:0:
280,25,25104,1,0,0:0:0:0:
275,34,25187,2,0,L|266:83,1,50,10|8,0:0|0:0,0:0:0:0:
216,225,25687,1,6,2:0:0:0:
113,115,26021,1,2,0:0:0:0:
113,115,26187,2,0,B|73:110|73:110|112:235,1,150,6|8,1:0|0:0,0:0:0:0:
222,308,27021,1,0,0:0:0:0:
230,317,27104,1,0,0:0:0:0:
238,326,27187,6,0,L|231:372,3,25,8|8|8|8,0:0|0:0|0:0|0:0,0:0:0:0:
316,358,27521,2,0,L|323:404,3,25,2|0|0|0,0:0|0:0|0:0|0:0,0:0:0:0:
400,360,27854,2,0,L|418:386,3,25,2|0|0|0,0:0|0:0|0:0|0:0,0:0:0:0:
473,325,28187,6,0,B|466:278|466:278|460:267|460:267|453:211,1,100,6|2,0:0|0:0,0:0:0:0:
476,155,28687,2,0,B|489:104|489:104|461:51,1,100,2|0,0:3|0:0,0:0:0:0:
400,39,29187,1,10,0:0:0:0:
400,39,29354,2,0,L|281:25,2,100,8|0|0,0:0|2:0|2:0,0:0:0:0:
400,114,30187,6,0,B|393:161|393:161|372:196|372:196|360:278,1,150,6|2,0:0|0:0,0:0:0:0:
274,379,31021,1,0,0:0:0:0:
274,379,31187,2,0,L|258:315,1,50,10|0,0:0|0:0,0:0:0:0:
225,184,31687,1,0,0:0:0:0:
221,174,31771,1,0,0:0:0:0:
217,164,31854,2,0,L|186:210,1,50,10|0,0:0|0:0,0:0:0:0:
132,254,32187,6,0,B|91:200|91:200|114:123|114:123|81:61,1,200,6|0,0:0|0:0,0:0:0:0:
217,164,33187,2,0,P|324:172|388:104,1,200,10|0,0:0|2:0,0:0:0:0:
501,15,34187,2,0,P|491:71|500:122,2,100,2|2|2,2:0|2:0|2:0,0:0:0:0:
425,15,35021,1,0,0:0:0:0:
417,24,35104,1,0,0:0:0:0:
409,33,35187,6,0,L|416:79,3,25,10|8|8|8,0:0|0:0|0:0|0:0,0:0:0:0:
331,65,35521,2,0,L|324:111,3,25,2|0|0|0,0:0|0:0|0:0|0:0,0:0:0:0:
247,67,35854,2,0,L|229:93,3,25,2|0|0|0,0:0|0:0|0:0|0:0,0:0:0:0:
153,83,36187,6,0,L|166:157,1,57.5000010967255,12|0,0:0|0:0,0:0:0:0:
109,207,36521,2,0,L|96:281,1,57.5000010967255,8|0,0:0|0:0,0:0:0:0:
78,347,36854,1,8,0:0:0:0:
162,326,37021,1,0,0:0:0:0:
174,323,37104,1,0,0:0:0:0:
185,320,37187,2,0,P|216:323|257:346,1,57.5000010967255,8|0,0:0|0:0,0:0:0:0:
322,360,37521,6,0,P|348:349|377:346,1,57.5000010967255,10|0,0:0|0:0,0:0:0:0:
462,359,37854,1,10,0:0:0:0:
492,278,38021,1,0,0:0:0:0:
493,266,38104,1,0,0:0:0:0:
494,254,38187,2,0,L|469:201,1,57.5000010967255,10|0,0:0|0:0,0:0:0:0:
385,179,38521,2,0,L|409:126,1,57.5000010967255,10|0,0:0|0:0,0:0:0:0:
455,53,38854,5,10,0:0:0:0:
378,13,39021,1,0,0:0:0:0:
366,10,39104,1,0,0:0:0:0:
355,7,39187,2,0,P|324:10|283:33,1,57.5000010967255,10|0,0:0|0:0,0:0:0:0:
240,83,39521,2,0,P|211:80|184:69,1,57.5000010967255,8|2,0:0|0:0,0:0:0:0:
112,22,39854,1,8,0:0:0:0:
57,88,40021,1,0,0:0:0:0:
92,153,40187,6,0,B|145:200|135:272|72:316|72:316|14:280|44:214,1,300,6|8,1:0|0:0,0:0:0:0:
42,213,41354,1,0,0:0:0:0:
162,183,42187,5,2,0:2:0:0:
207,272,42521,2,0,P|256:288|316:260,1,100,2|2,0:0|0:0,0:0:0:0:
356,203,43187,2,0,P|405:187|465:215,2,100,10|2|10,0:0|0:0|0:0,0:0:0:0:
327,273,44021,1,0,0:0:0:0:
323,282,44104,1,0,0:0:0:0:
319,291,44187,6,0,L|264:272,1,57.5000010967255,14|0,0:0|0:0,0:0:0:0:
196,218,44521,2,0,L|141:236,1,57.5000010967255,10|0,0:0|0:0,0:0:0:0:
61,269,44854,1,10,0:0:0:0:
35,186,45021,1,0,0:0:0:0:
31,175,45104,1,0,0:0:0:0:
27,163,45187,2,0,P|52:151|80:147,1,57.5000010967255,10|0,0:0|0:0,0:0:0:0:
167,135,45521,6,0,P|179:109|183:81,1,57.5000010967255,10|0,0:0|0:0,0:0:0:0:
251,27,45854,2,0,P|254:55|267:80,1,57.5000010967255,10|0,0:0|0:0,0:0:0:0:
349,108,46187,2,0,L|332:174,1,57.5000010967255,10|0,0:0|0:0,0:0:0:0:
416,191,46521,2,0,L|433:257,1,57.5000010967255,10|0,0:0|0:0,0:0:0:0:
457,328,46854,1,10,0:0:0:0:
373,304,47021,1,0,0:0:0:0:
365,313,47104,1,0,0:0:0:0:
357,322,47187,6,0,L|365:365,3,28.7500005483627,2|0|0|0,0:0|0:0|0:0|0:0,0:0:0:0:
283,349,47521,2,0,L|274:401,3,28.7500005483627,0|0|2|0,0:0|0:0|0:0|0:0,0:0:0:0:
203,355,47854,2,0,L|183:384,3,28.7500005483627,0|0|0|0,0:0|0:0|0:0|0:0,0:0:0:0:
131,322,48187,6,0,B|108:243|108:243|108:235|108:235|95:189|95:189|121:123,1,200,4|2,1:0|2:0,0:0:0:0:
248,204,49187,2,0,B|232:207|232:207|227:180|201:162|201:162|166:187|132:182|132:182|136:152|115:128,1,200,10|4,0:0|2:0,0:0:0:0:
18,17,50187,2,0,P|3:65|0:127,2,100,6|2|2,1:0|0:0|0:0,0:0:0:0:
122,125,51187,2,0,P|137:173|140:235,2,100,14|2|2,0:0|0:0|2:0,0:0:0:0:
256,16,52187,1,14,0:0:0:0:
425,49,52521,6,0,L|438:123,1,57.5000010967255,8|0,0:0|0:0,0:0:0:0:
452,190,52854,1,8,0:0:0:0:
393,253,53021,1,0,0:0:0:0:
388,262,53104,1,0,0:0:0:0:
383,271,53187,2,0,L|370:345,1,57.5000010967255,8|0,0:0|0:0,0:0:0:0:
293,364,53521,6,0,P|275:343|249:330,1,57.5000010967255,10|0,0:0|0:0,0:0:0:0:
165,348,53854,1,10,0:0:0:0:
78,351,54021,1,0,0:0:0:0:
66,354,54104,1,0,0:0:0:0:
55,357,54187,6,0,P|24:354|-17:331,1,57.5000010967255,10|0,0:0|0:0,0:0:0:0:
52,274,54521,2,0,P|32:249|19:204,1,57.5000010967255,10|0,0:0|0:0,0:0:0:0:
106,206,54854,2,0,P|109:175|132:133,1,57.5000010967255,10|0,0:0|0:0,0:0:0:0:
195,191,55187,6,0,P|207:216|212:244,1,57.5000010967255,10|0,0:0|0:0,0:0:0:0:
206,105,55520,2,0,P|233:114|256:131,1,57.5000010967255,10|0,0:0|0:0,0:0:0:0:
161,36,55854,2,0,P|186:23|215:18,1,57.5000010967255,10|0,0:0|0:0,0:0:0:0:
49,105,56187,6,0,P|39:154|54:201,2,100,6|2|0,1:0|0:0|0:0,0:0:0:0:
146,216,57187,2,0,P|156:265|148:315,2,100,10|10|2,0:0|0:0|0:0,0:0:0:0:
131,67,58187,1,2,0:0:0:0:
131,67,58521,2,0,P|126:92|130:126,1,50,2|2,0:0|0:0,0:0:0:0:
235,11,59021,1,0,0:0:0:0:
243,20,59104,1,0,0:0:0:0:
251,29,59187,6,0,L|240:74,3,25,10|8|8|8,0:0|0:0|0:0|0:0,0:0:0:0:
325,56,59521,2,0,L|333:104,3,25,0|0|0|0,0:0|0:0|0:0|0:0,0:0:0:0:
405,62,59854,2,0,L|422:92,3,25,2|0|0|0,0:0|0:0|0:0|0:0,0:0:0:0:
487,49,60187,5,6,0:0:0:0:
491,221,60521,6,0,L|435:210,1,57.5000010967255,10|2,0:0|0:0,0:0:0:0:
412,218,60771,1,0,0:0:0:0:
387,223,60855,2,0,L|306:211,1,57.5000010967255,8|0,0:0|0:0,0:0:0:0:
270,152,61187,2,0,L|189:164,1,57.5000010967255,10|0,0:0|0:0,0:0:0:0:
158,92,61521,2,0,P|138:116|125:161,1,57.5000010967255,10|2,0:0|0:0,0:0:0:0:
41,133,61854,2,0,P|44:161|55:188,1,57.5000010967255,8|0,0:0|0:0,0:0:0:0:
132,226,62187,6,0,P|129:257|106:298,1,57.5000010967255,10|0,0:0|0:0,0:0:0:0:
184,337,62521,2,0,P|159:356|114:369,1,57.5000010967255,10|2,0:0|0:0,0:0:0:0:
51,342,62854,2,0,P|27:321|5:280,1,57.5000010967255,8|0,0:0|0:0,0:0:0:0:
21,213,63187,1,10,0:0:0:0:
89,159,63354,1,0,0:0:0:0:
97,150,63437,1,0,0:0:0:0:
105,141,63521,2,0,P|113:99|112:59,1,57.5000010967255,8|0,0:0|0:0,0:0:0:0:
63,21,63854,2,0,L|100:10,3,28.7500005483627,8|0|0|0,0:0|0:0|0:0|0:0,0:0:0:0:
141,2,64187,5,4,0:2:0:0:
131,231,68187,6,0,P|38:253|126:325,2,255.000004863739,2|0|0,2:0|0:0|2:0,0:0:0:0:
210,171,71187,6,0,P|115:126|130:230,1,255.000004863739,2|4,2:0|0:2,0:0:0:0:
210,271,76187,2,0,B|237:228|304:239|331:270|316:288|301:301|340:333|403:343|430:303,2,255.000004863739,2|0|2,2:0|0:0|2:0,0:0:0:0:
172,355,79187,1,2,2:0:0:0:
172,355,80187,6,0,P|165:299|152:266,2,85.0000016212464,0|8|8,0:0|0:0|0:0,0:0:0:0:
294,281,81187,2,0,L|311:182,1,94.9999974632264,10|0,0:0|0:0,0:0:0:0:
304,59,81854,1,0,0:0:0:0:
409,130,82187,6,0,P|457:132|503:126,2,85.0000016212464,8|8|8,0:0|0:0|0:0,0:0:0:0:
288,206,83187,2,0,L|192:189,1,94.9999974632264,8|0,0:0|0:0,0:0:0:0:
85,124,83854,1,0,0:0:0:0:
129,243,84187,6,0,P|128:289|135:343,2,85.0000016212464,8|10|10,0:0|0:0|0:0,0:0:0:0:
233,145,85187,2,0,B|246:129|246:129|226:42,1,94.9999974632264,10|2,0:0|0:0,0:0:0:0:
114,3,85854,1,2,0:0:0:0:
64,120,86187,6,0,P|45:83|31:38,2,85.0000016212464,10|10|10,0:0|0:0|0:0,0:0:0:0:
156,208,87187,2,0,L|147:240,1,21.2500004053116,10|8,0:0|0:0,0:0:0:0:
54,356,87687,1,8,0:0:0:0:
51,347,87771,1,8,0:0:0:0:
49,338,87854,1,2,0:0:0:0:
169,295,88187,6,0,P|158:337|151:378,2,85.0000016212464,12|10|8,2:0|0:0|0:0,0:0:0:0:
303,246,89187,2,0,L|290:144,1,94.9999974632264,8|0,0:0|0:0,0:0:0:0:
256,29,89854,1,0,0:0:0:0:
371,83,90187,6,0,P|414:84|457:79,2,85.0000016212464,8|8|8,0:0|0:0|0:0,0:0:0:0:
252,162,91187,2,0,B|236:175|236:175|154:160,1,94.9999974632264,8|0,0:0|0:0,0:0:0:0:
53,95,91854,1,0,0:0:0:0:
18,217,92187,6,0,L|4:274,1,42.5000008106232,8|8,0:0|0:0,0:0:0:0:
84,264,92521,2,0,L|95:321,1,42.5000008106232,10|8,0:0|0:0,0:0:0:0:
163,277,92854,2,0,L|197:324,1,42.5000008106232,10|8,0:0|0:0,0:0:0:0:
273,339,93187,6,0,P|276:313|271:280,1,50,10|8,0:0|0:0,0:0:0:0:
352,244,93521,2,0,P|335:223|308:203,1,50,10|8,0:0|0:0,0:0:0:0:
339,121,93854,2,0,P|313:118|280:123,1,50,10|8,0:0|0:0,0:0:0:0:
195,164,94187,6,0,L|215:86,1,57.5000010967255,10|8,0:0|0:0,0:0:0:0:
110,141,94521,2,0,L|124:196,1,57.5000010967255,10|8,0:0|0:0,0:0:0:0:
31,242,94854,2,0,L|51:164,1,57.5000010967255,10|8,0:0|0:0,0:0:0:0:
25,102,95187,5,10,0:0:0:0:
97,54,95354,1,0,0:0:0:0:
179,80,95521,2,0,P|195:103|202:131,1,57.5000010967255,10|0,0:0|0:0,0:0:0:0:
269,186,95854,2,0,P|276:158|292:134,1,57.5000010967255,10|0,0:0|0:0,0:0:0:0:
347,68,96187,6,0,B|374:91|374:91|387:175,2,115.000002193451,4|4|4,0:0|1:0|1:0,0:0:0:0:
186,4,97187,1,10,0:0:0:0:
124,65,97354,2,0,B|111:128|111:128|146:183,1,115.000002193451,4|0,0:0|0:0,0:0:0:0:
245,306,98021,1,0,0:0:0:0:
172,260,98187,6,0,B|128:267|128:267|103:260|103:260|34:275,2,115.000002193451,4|4|4,0:0|1:0|1:0,0:0:0:0:
320,347,99187,1,0,0:0:0:0:
382,286,99354,2,0,B|395:223|395:223|360:168,1,115.000002193451,4|0,0:0|0:0,0:0:0:0:
241,62,100021,1,0,0:0:0:0:
202,126,100187,6,0,B|121:73|68:64|11:116|16:187|85:213|126:183,2,300,4|4|4,1:0|1:0|1:0,0:0:0:0:
390,77,102854,2,0,P|387:101|383:126,1,50,2|2,2:0|0:0,0:0:0:0:
342,189,103187,1,8,0:0:0:0:
400,236,103354,1,2,0:0:0:0:
405,243,103437,1,0,0:0:0:0:
411,251,103521,2,0,P|410:283|401:323,1,50,0|0,0:0|0:0,0:0:0:0:
350,350,103854,2,0,P|325:353|300:353,1,50,10|0,0:0|0:0,0:0:0:0:
215,368,104187,6,0,B|187:344|187:344|186:298|186:298|174:260,2,115.000002193451,4|6|4,0:0|1:0|1:0,0:0:0:0:
251,199,105187,1,8,0:0:0:0:
170,168,105354,2,0,B|157:105|157:105|192:50,1,115.000002193451,4|0,0:0|0:0,0:0:0:0:
332,151,106021,1,0,0:0:0:0:
368,228,106187,6,0,B|411:220|411:220|436:227|436:227|505:212,2,115.000002193451,4|4|4,0:0|1:0|1:0,0:0:0:0:
197,257,107187,1,8,0:0:0:0:
166,338,107354,2,0,B|103:351|103:351|48:316,1,115.000002193451,4|0,0:0|0:0,0:0:0:0:
5,159,108021,1,0,0:0:0:0:
42,94,108187,6,0,B|63:43|119:31|174:49|163:62|154:73|214:97|278:79|302:25,1,300,4|4,1:0|1:0,0:0:0:0:
446,15,109521,2,0,P|455:68|444:116,1,100,0|2,0:0|2:0,0:0:0:0:
328,206,110187,5,10,0:0:0:0:
325,220,110271,1,8,0:0:0:0:
322,234,110354,1,8,0:0:0:0:
319,248,110437,1,8,0:0:0:0:
317,262,110521,1,10,0:0:0:0:
315,276,110604,1,8,0:0:0:0:
312,290,110687,6,0,L|315:335,3,25,0|0|2|0,0:0|0:0|0:0|0:0,0:0:0:0:
243,343,111021,2,0,L|240:388,3,25,0|0|10|8,0:0|0:0|0:0|0:0,0:0:0:0:
164,340,111354,5,0,0:0:0:0:
162,330,111437,1,0,0:0:0:0:
160,320,111521,2,0,L|158:295,3,25,2|0|0|0,0:0|0:0|0:0|0:0,0:0:0:0:
154,221,111854,5,10,0:0:0:0:
89,259,112021,1,0,0:0:0:0:
28,215,112187,6,0,L|28:178,2,25,0|0|0,0:0|0:0|0:0,0:0:0:0:
30,112,113187,2,0,L|30:75,2,25,0|0|0,0:0|0:0|0:0,0:0:0:0:
147,18,113687,2,0,L|129:117,1,100,0|0,0:0|0:0,0:0:0:0:
155,186,114187,6,0,L|190:176,2,25,8|0|0,0:0|0:0|0:0,0:0:0:0:
254,157,115187,2,0,L|289:147,2,25,0|0|0,0:0|0:0|0:0,0:0:0:0:
352,43,115687,2,0,B|408:29|408:29|462:61,1,100,8|0,0:0|0:0,0:0:0:0:
463,123,116187,6,0,L|456:159,2,25,0|0|0,0:0|0:0|0:0,0:0:0:0:
447,225,117187,2,0,L|440:261,2,25,8|0|0,0:0|0:0|0:0,0:0:0:0:
370,354,117687,2,0,B|343:339|343:339|333:254,1,100,0|0,0:0|0:0,0:0:0:0:
296,205,118187,6,0,L|265:226,2,25,0|0|0,0:0|0:0|0:0,0:0:0:0:
213,266,119187,2,0,L|182:287,2,25,0|0|0,0:0|0:0|0:0,0:0:0:0:
148,305,119521,1,8,0:0:0:0:
79,275,119687,1,0,0:0:0:0:
70,269,119771,1,0,0:0:0:0:
62,262,119854,2,0,P|64:230|75:191,1,50,0|0,0:0|0:0,0:0:0:0:
100,144,120187,6,0,L|136:137,2,25,0|0|0,0:0|0:0|0:0,0:0:0:0:
202,128,121187,2,0,L|238:121,2,25,0|0|0,0:0|0:0|0:0,0:0:0:0:
332,53,121687,2,0,L|317:151,1,100,0|0,0:0|0:0,0:0:0:0:
309,226,122187,6,0,L|345:232,2,25,8|0|0,0:0|0:0|0:0,0:0:0:0:
411,242,123187,2,0,L|447:248,2,25,0|0|0,0:0|0:0|0:0,0:0:0:0:
497,364,123687,2,0,B|443:376|443:376|384:344,1,100,8|0,0:0|0:0,0:0:0:0:
346,305,124187,6,0,L|339:268,2,25,0|0|0,0:0|0:0|0:0,0:0:0:0:
330,203,125187,2,0,L|323:166,2,25,0|0|0,0:0|0:0|0:0,0:0:0:0:
360,55,125687,2,0,L|243:47,1,100,0|0,0:0|0:0,0:0:0:0:
185,42,126187,6,0,L|170:113,1,50,8|0,0:0|0:0,0:0:0:0:
112,134,126521,2,0,L|122:182,1,50,0|0,0:0|0:0,0:0:0:0:
110,257,126854,2,0,L|41:252,2,50,8|0|10,0:0|0:0|0:0,0:0:0:0:
181,281,127354,2,0,L|211:284,2,25,0|0|2,0:0|0:0|0:0,0:0:0:0:
254,265,127687,2,0,L|284:262,2,25,0|0|10,0:0|0:0|0:0,0:0:0:0:
324,291,128021,1,0,0:0:0:0:
398,290,128187,6,0,L|396:330,1,25,2|0,0:0|0:0,0:0:0:0:
395,340,128354,1,0,0:0:0:0:
499,112,129187,2,0,L|497:152,1,25,2|0,0:0|0:0,0:0:0:0:
497,162,129354,1,0,0:0:0:0:
413,106,129687,2,0,L|316:128,1,100,0|0,0:0|0:0,0:0:0:0:
254,172,130187,6,0,L|230:164,1,25,10|0,0:0|0:0,0:0:0:0:
206,155,130354,1,0,0:0:0:0:
119,13,131187,6,0,L|124:37,1,25,2|0,0:0|0:0,0:0:0:0:
128,63,131354,1,0,0:0:0:0:
50,126,131687,2,0,B|29:173|29:173|39:220,1,100,0|0,0:0|0:0,0:0:0:0:
87,277,132187,6,0,L|110:284,1,25,10|0,0:0|0:0,0:0:0:0:
135,291,132354,1,0,0:0:0:0:
229,136,133187,6,0,L|236:159,1,25,10|0,0:0|0:0,0:0:0:0:
243,184,133354,1,0,0:0:0:0:
311,257,133687,2,0,L|333:154,1,100,0|0,0:0|0:0,0:0:0:0:
382,103,134187,6,0,L|378:75,1,25,2|0,0:0|0:0,0:0:0:0:
374,53,134354,1,0,0:0:0:0:
496,270,135187,2,0,L|488:241,1,25,10|8,0:0|0:0,0:0:0:0:
483,221,135354,1,0,0:0:0:0:
418,182,135521,2,0,P|392:191|353:199,1,50,0|8,0:0|0:0,0:0:0:0:
301,227,135854,2,0,L|292:266,3,25,0|0|0|0,0:0|0:0|0:0|0:0,0:0:0:0:
275,265,136187,6,0,L|267:166,2,100,10|10|10,0:0|0:0|0:0,0:0:0:0:
177,243,137187,2,0,B|174:283|174:283|166:300|166:300|163:345,2,100,10|10|10,0:0|0:0|0:0,0:0:0:0:
231,159,138187,6,0,L|330:151,2,100,10|10|10,0:0|0:0|0:0,0:0:0:0:
180,245,139187,2,0,B|140:242|140:242|123:234|123:234|78:231,2,100,10|10|10,0:0|0:0|0:0,0:0:0:0:
326,362,140187,6,0,B|320:314|320:314|323:293|323:293|312:229,1,125,14|0,0:0|0:0,0:0:0:0:
293,146,140687,1,0,0:0:0:0:
375,100,140854,2,0,P|356:76|309:63,1,62.5,8|0,0:0|0:0,0:0:0:0:
233,72,141187,6,0,P|202:122|213:198,1,125,14|8,0:0|0:0,0:0:0:0:
269,255,141687,1,0,0:0:0:0:
176,272,141854,2,0,P|156:292|139:333,1,62.5,8|0,0:0|0:0,0:0:0:0:
64,376,142187,6,0,P|66:308|46:245,1,125,14|8,1:0|0:0,0:0:0:0:
2,172,142687,1,0,0:0:0:0:
40,86,142854,2,0,P|71:92|102:83,1,62.5,8|0,0:0|0:0,0:0:0:0:
187,28,143187,5,10,0:0:0:0:
198,27,143270,1,8,0:0:0:0:
209,26,143354,1,8,0:0:0:0:
220,26,143437,1,8,0:0:0:0:
231,26,143521,2,0,L|225:57,3,31.25,8|8|8|8,0:0|0:0|0:0|0:0,0:0:0:0:
255,92,143854,2,0,L|261:126,3,31.25,8|8|8|8,0:0|0:0|0:0|0:0,0:0:0:0:
234,172,144187,5,10,0:0:0:0:
