osu file format v14

[General]
AudioFilename: audio.mp3
AudioLeadIn: 0
PreviewTime: 28398
Countdown: 0
SampleSet: Normal
StackLeniency: 0.2
Mode: 1
LetterboxInBreaks: 0
WidescreenStoryboard: 1

[Editor]
DistanceSpacing: 0.1
BeatDivisor: 4
GridSize: 32
TimelineZoom: 2.3

[Metadata]
Title:Samba de Janeiro
TitleUnicode:Samba de Janeiro
Artist:Bellini
ArtistUnicode:Bellini
Creator:Genjuro
Version:Normal
Source:
Tags:electronic portuguese latin house pop brazil brasil vulkin hirok eae fácil difícil
BeatmapID:2145941
BeatmapSetID:1022395

[Difficulty]
HPDrainRate:6
CircleSize:2
OverallDifficulty:4
ApproachRate:9
SliderMultiplier:1.4
SliderTickRate:1

[Events]
//Background and Video events
0,0,"bg.jpg",0,-25
//Break Periods
//Storyboard Layer 0 (Background)
//Storyboard Layer 1 (Fail)
//Storyboard Layer 2 (Pass)
//Storyboard Layer 3 (Foreground)
//Storyboard Layer 4 (Overlay)
//Storyboard Sound Samples

[TimingPoints]
923,451.127819548872,4,1,0,50,1,0
15359,451.127819548872,4,1,0,50,1,8
15372,451.127819548872,4,1,0,60,1,0
15372,-100,4,1,0,60,0,0
28454,-100,4,1,0,40,0,0
29808,-100,4,1,0,80,0,1
44244,-100,4,1,0,80,0,0
44695,-100,4,1,0,60,0,0
46048,451.127819548872,4,1,0,80,1,1
58679,-100,4,1,0,60,0,0
60032,-100,4,1,0,70,0,0
60484,-100,4,1,0,50,0,0
67702,-100,4,1,0,70,0,0
94769,451.127819548872,4,1,0,70,1,8
94770,451.127819548872,6,1,0,60,1,0
97476,-100,6,1,0,80,0,0
97927,-100,6,1,0,40,0,0
99281,451.127819548872,4,1,0,80,1,1
113717,-100,4,1,0,80,0,0
114168,-100,4,1,0,60,0,0
115521,451.127819548872,4,1,0,60,1,8
115522,451.127819548872,4,1,0,80,1,1
117777,-100,4,1,0,75,0,1
121386,-100,4,1,0,65,0,1
123191,-100,4,1,0,60,0,1
124995,-100,4,1,0,55,0,1
126800,-100,4,1,0,50,0,1
128153,-100,4,1,0,40,0,1
129958,-100,4,1,0,40,0,0
130409,-100,4,1,0,60,0,0
131762,451.127819548872,4,1,0,60,1,8
131763,451.127819548872,4,1,0,80,1,1
146199,-100,4,1,0,80,0,0
146650,-100,4,1,0,60,0,0
148003,451.127819548872,4,1,0,80,1,1
162439,-100,4,1,0,60,0,0
164243,-100,4,1,0,80,0,0

[HitObjects]
256,192,922,5,4,0:0:0:0:
256,192,1599,1,2,0:0:0:0:
256,192,1825,1,0,0:0:0:0:
256,192,2276,1,8,0:0:0:0:
256,192,2727,1,0,0:0:0:0:
256,192,3629,1,0,0:0:0:0:
256,192,3855,1,0,0:0:0:0:
256,192,4080,1,8,0:0:0:0:
256,192,4532,1,0,0:0:0:0:
256,192,5208,1,8,0:0:0:0:
256,192,5434,1,0,0:0:0:0:
256,192,5885,1,8,0:0:0:0:
256,192,6336,1,0,0:0:0:0:
256,192,6787,1,8,0:0:0:0:
256,192,7013,1,8,0:0:0:0:
256,192,7238,1,0,0:0:0:0:
256,192,7689,1,8,0:0:0:0:
256,192,8141,1,0,0:0:0:0:
256,192,8817,1,2,0:0:0:0:
256,192,9043,1,0,0:0:0:0:
256,192,9494,1,8,0:0:0:0:
256,192,9945,1,0,0:0:0:0:
256,192,10847,1,0,0:0:0:0:
256,192,11073,1,0,0:0:0:0:
256,192,11298,1,8,0:0:0:0:
256,192,11750,1,0,0:0:0:0:
256,192,12426,1,8,0:0:0:0:
256,192,12652,1,0,0:0:0:0:
256,192,13103,1,8,0:0:0:0:
256,192,13554,1,0,0:0:0:0:
256,192,13780,1,0,0:0:0:0:
256,192,14005,1,8,0:0:0:0:
256,192,14231,1,0,0:0:0:0:
256,192,14682,1,0,0:0:0:0:
256,192,14907,1,8,0:0:0:0:
256,192,15372,1,6,0:0:0:0:
256,192,17176,1,6,0:0:0:0:
256,192,18981,1,6,0:0:0:0:
256,192,19883,1,6,0:0:0:0:
256,192,20785,1,6,0:0:0:0:
256,192,21236,1,6,0:0:0:0:
256,192,21687,1,6,0:0:0:0:
256,192,22590,1,6,0:0:0:0:
256,192,23041,1,6,0:0:0:0:
256,192,23492,1,6,0:0:0:0:
256,192,24394,1,6,0:0:0:0:
256,192,24845,1,6,0:0:0:0:
256,192,25296,1,6,0:0:0:0:
256,192,25747,1,6,0:0:0:0:
256,192,26199,1,8,0:0:0:0:
256,192,26424,1,8,0:0:0:0:
256,192,26650,1,8,0:0:0:0:
256,192,27101,1,8,0:0:0:0:
256,192,27326,1,8,0:0:0:0:
256,192,27552,1,8,0:0:0:0:
256,192,27778,1,0,0:0:0:0:
256,192,28003,1,12,0:0:0:0:
256,192,29808,1,12,0:0:0:0:
256,192,30259,1,0,0:0:0:0:
256,192,30484,1,8,0:0:0:0:
256,192,30710,1,0,0:0:0:0:
256,192,31387,1,8,0:0:0:0:
256,192,31612,1,0,0:0:0:0:
256,192,32063,1,0,0:0:0:0:
256,192,32289,1,0,0:0:0:0:
256,192,32514,1,8,0:0:0:0:
256,192,32965,1,0,0:0:0:0:
256,192,33417,1,8,0:0:0:0:
256,192,33868,1,0,0:0:0:0:
256,192,34093,1,8,0:0:0:0:
256,192,34319,1,8,0:0:0:0:
256,192,34996,1,8,0:0:0:0:
256,192,35221,1,0,0:0:0:0:
256,192,35672,1,0,0:0:0:0:
256,192,36123,1,8,0:0:0:0:
256,192,36349,1,0,0:0:0:0:
256,192,36575,1,8,0:0:0:0:
256,192,37026,1,0,0:0:0:0:
256,192,37928,1,8,0:0:0:0:
256,192,38605,1,8,0:0:0:0:
256,192,38830,1,0,0:0:0:0:
256,192,39281,1,8,0:0:0:0:
256,192,39732,1,8,0:0:0:0:
256,192,40184,1,0,0:0:0:0:
256,192,40635,1,8,0:0:0:0:
256,192,41086,1,0,0:0:0:0:
256,192,41311,1,8,0:0:0:0:
256,192,41537,1,8,0:0:0:0:
256,192,41988,1,0,0:0:0:0:
256,192,42439,1,8,0:0:0:0:
256,192,43341,1,8,0:0:0:0:
256,192,44244,1,4,0:0:0:0:
256,192,46048,1,12,0:0:0:0:
256,192,46499,1,0,0:0:0:0:
256,192,46724,1,0,0:0:0:0:
256,192,46950,1,8,0:0:0:0:
256,192,47175,1,0,0:0:0:0:
256,192,47626,1,8,0:0:0:0:
256,192,47852,1,0,0:0:0:0:
256,192,48303,1,0,0:0:0:0:
256,192,48529,1,0,0:0:0:0:
256,192,48754,1,8,0:0:0:0:
256,192,49205,1,0,0:0:0:0:
256,192,49657,1,8,0:0:0:0:
256,192,50108,1,0,0:0:0:0:
256,192,50333,1,8,0:0:0:0:
256,192,50559,1,8,0:0:0:0:
256,192,50784,1,0,0:0:0:0:
256,192,51235,1,8,0:0:0:0:
256,192,51461,1,0,0:0:0:0:
256,192,51912,1,0,0:0:0:0:
256,192,52363,1,8,0:0:0:0:
256,192,52589,1,0,0:0:0:0:
256,192,52814,1,8,0:0:0:0:
256,192,53266,1,0,0:0:0:0:
256,192,54168,1,8,0:0:0:0:
256,192,54619,1,0,0:0:0:0:
256,192,54844,1,8,0:0:0:0:
256,192,55070,1,0,0:0:0:0:
256,192,55521,1,8,0:0:0:0:
256,192,55972,1,8,0:0:0:0:
256,192,56423,1,0,0:0:0:0:
256,192,56875,1,8,0:0:0:0:
256,192,57326,1,0,0:0:0:0:
256,192,57551,1,8,0:0:0:0:
256,192,57777,1,8,0:0:0:0:
256,192,58228,1,8,0:0:0:0:
256,192,58679,1,4,0:0:0:0:
256,192,60032,1,12,0:0:0:0:
256,192,60484,1,0,0:0:0:0:
256,192,60709,1,8,0:0:0:0:
256,192,61047,1,0,0:0:0:0:
256,192,61386,1,8,0:0:0:0:
256,192,61611,1,8,0:0:0:0:
256,192,61950,1,0,0:0:0:0:
256,192,62288,1,8,0:0:0:0:
256,192,62514,1,8,0:0:0:0:
256,192,62739,1,0,0:0:0:0:
256,192,63190,1,8,0:0:0:0:
256,192,63641,1,8,0:0:0:0:
256,192,64093,1,0,0:0:0:0:
256,192,64318,1,8,0:0:0:0:
256,192,64657,1,0,0:0:0:0:
256,192,64995,1,8,0:0:0:0:
256,192,65220,1,0,0:0:0:0:
256,192,65559,1,8,0:0:0:0:
256,192,65897,1,0,0:0:0:0:
256,192,66123,1,8,0:0:0:0:
256,192,66348,1,0,0:0:0:0:
256,192,66799,1,0,0:0:0:0:
256,192,67025,1,0,0:0:0:0:
256,192,67251,1,8,0:0:0:0:
256,192,67702,1,4,0:0:0:0:
256,192,68604,1,0,0:0:0:0:
256,192,68829,1,0,0:0:0:0:
256,192,69055,1,8,0:0:0:0:
256,192,69506,1,0,0:0:0:0:
256,192,69732,1,0,0:0:0:0:
256,192,69957,1,8,0:0:0:0:
256,192,70183,1,8,0:0:0:0:
256,192,70408,1,0,0:0:0:0:
256,192,70860,1,0,0:0:0:0:
256,192,71311,1,8,0:0:0:0:
256,192,72213,1,8,0:0:0:0:
256,192,72438,1,8,0:0:0:0:
256,192,72664,1,0,0:0:0:0:
256,192,73115,1,8,0:0:0:0:
256,192,73341,1,8,0:0:0:0:
256,192,73566,1,0,0:0:0:0:
256,192,73792,1,0,0:0:0:0:
256,192,74017,1,8,0:0:0:0:
256,192,74469,1,8,0:0:0:0:
256,192,74920,1,0,0:0:0:0:
256,192,75822,1,0,0:0:0:0:
256,192,76047,1,0,0:0:0:0:
256,192,76273,1,8,0:0:0:0:
256,192,76724,1,0,0:0:0:0:
256,192,76950,1,0,0:0:0:0:
256,192,77175,1,8,0:0:0:0:
256,192,77401,1,8,0:0:0:0:
256,192,77626,1,0,0:0:0:0:
256,192,78078,1,0,0:0:0:0:
256,192,78529,1,8,0:0:0:0:
256,192,79431,1,8,0:0:0:0:
256,192,79657,1,8,0:0:0:0:
256,192,79882,1,0,0:0:0:0:
256,192,80333,1,8,0:0:0:0:
256,192,80559,1,8,0:0:0:0:
256,192,80784,1,0,0:0:0:0:
256,192,81010,1,0,0:0:0:0:
256,192,81235,1,8,0:0:0:0:
256,192,81687,1,8,0:0:0:0:
256,192,82138,1,4,0:0:0:0:
256,192,83040,1,0,0:0:0:0:
256,192,83266,1,0,0:0:0:0:
256,192,83491,1,8,0:0:0:0:
256,192,83942,1,0,0:0:0:0:
256,192,84168,1,0,0:0:0:0:
256,192,84393,1,8,0:0:0:0:
256,192,84619,1,8,0:0:0:0:
256,192,84844,1,0,0:0:0:0:
256,192,85296,1,8,0:0:0:0:
256,192,85521,1,0,0:0:0:0:
256,192,85747,1,8,0:0:0:0:
256,192,86198,1,0,0:0:0:0:
256,192,86649,1,8,0:0:0:0:
256,192,86875,1,8,0:0:0:0:
256,192,87100,1,0,0:0:0:0:
256,192,87551,1,8,0:0:0:0:
256,192,87777,1,8,0:0:0:0:
256,192,88002,1,0,0:0:0:0:
256,192,88228,1,0,0:0:0:0:
256,192,88454,1,8,0:0:0:0:
256,192,88905,1,0,0:0:0:0:
256,192,89130,1,8,0:0:0:0:
256,192,89356,1,0,0:0:0:0:
256,192,90258,1,0,0:0:0:0:
256,192,90484,1,0,0:0:0:0:
256,192,90709,1,8,0:0:0:0:
256,192,91160,1,0,0:0:0:0:
256,192,91386,1,0,0:0:0:0:
256,192,91611,1,8,0:0:0:0:
256,192,91837,1,8,0:0:0:0:
256,192,92063,1,0,0:0:0:0:
256,192,92514,1,8,0:0:0:0:
256,192,92739,1,0,0:0:0:0:
256,192,92965,1,8,0:0:0:0:
256,192,93416,1,0,0:0:0:0:
256,192,93867,1,8,0:0:0:0:
256,192,94093,1,8,0:0:0:0:
256,192,94318,1,0,0:0:0:0:
256,192,94770,1,12,0:0:0:0:
256,192,95446,1,0,0:0:0:0:
256,192,95672,1,8,0:0:0:0:
256,192,96348,1,0,0:0:0:0:
256,192,96574,1,8,0:0:0:0:
256,192,97025,1,0,0:0:0:0:
256,192,97476,1,12,0:0:0:0:
256,192,97702,1,12,0:0:0:0:
256,192,99281,1,12,0:0:0:0:
256,192,99732,1,0,0:0:0:0:
256,192,99957,1,8,0:0:0:0:
256,192,100183,1,0,0:0:0:0:
256,192,100859,1,8,0:0:0:0:
256,192,101085,1,0,0:0:0:0:
256,192,101536,1,0,0:0:0:0:
256,192,101762,1,0,0:0:0:0:
256,192,101987,1,8,0:0:0:0:
256,192,102438,1,0,0:0:0:0:
256,192,102890,1,8,0:0:0:0:
256,192,103341,1,0,0:0:0:0:
256,192,103566,1,8,0:0:0:0:
256,192,103792,1,8,0:0:0:0:
256,192,104468,1,8,0:0:0:0:
256,192,104694,1,0,0:0:0:0:
256,192,105145,1,0,0:0:0:0:
256,192,105596,1,8,0:0:0:0:
256,192,105822,1,0,0:0:0:0:
256,192,106047,1,8,0:0:0:0:
256,192,106499,1,0,0:0:0:0:
256,192,107401,1,8,0:0:0:0:
256,192,108077,1,8,0:0:0:0:
256,192,108303,1,0,0:0:0:0:
256,192,108754,1,8,0:0:0:0:
256,192,109205,1,8,0:0:0:0:
256,192,109656,1,0,0:0:0:0:
256,192,110108,1,8,0:0:0:0:
256,192,110559,1,0,0:0:0:0:
256,192,110784,1,8,0:0:0:0:
256,192,111010,1,8,0:0:0:0:
256,192,111461,1,0,0:0:0:0:
256,192,111912,1,8,0:0:0:0:
256,192,112814,1,8,0:0:0:0:
256,192,113717,1,4,0:0:0:0:
256,192,115522,1,12,0:0:0:0:
256,192,115973,1,0,0:0:0:0:
256,192,116198,1,0,0:0:0:0:
256,192,116424,1,8,0:0:0:0:
256,192,116649,1,0,0:0:0:0:
256,192,117100,1,8,0:0:0:0:
256,192,117326,1,0,0:0:0:0:
256,192,117777,1,0,0:0:0:0:
256,192,118003,1,0,0:0:0:0:
256,192,118228,1,8,0:0:0:0:
256,192,118679,1,0,0:0:0:0:
256,192,119131,1,8,0:0:0:0:
256,192,119582,1,0,0:0:0:0:
256,192,119807,1,8,0:0:0:0:
256,192,120033,1,8,0:0:0:0:
256,192,120709,1,8,0:0:0:0:
256,192,120935,1,0,0:0:0:0:
256,192,121386,1,0,0:0:0:0:
256,192,121837,1,8,0:0:0:0:
256,192,122288,1,8,0:0:0:0:
256,192,122740,1,0,0:0:0:0:
256,192,123642,1,8,0:0:0:0:
256,192,124544,1,0,0:0:0:0:
256,192,124995,1,8,0:0:0:0:
256,192,125446,1,8,0:0:0:0:
256,192,125897,1,0,0:0:0:0:
256,192,126349,1,8,0:0:0:0:
256,192,127251,1,8,0:0:0:0:
256,192,127702,1,8,0:0:0:0:
256,192,128153,8,0,129958,0:0:0:0:
256,192,131763,5,12,0:0:0:0:
256,192,132214,1,0,0:0:0:0:
256,192,132439,1,8,0:0:0:0:
256,192,132665,1,0,0:0:0:0:
256,192,133341,1,8,0:0:0:0:
256,192,133567,1,0,0:0:0:0:
256,192,134018,1,0,0:0:0:0:
256,192,134244,1,0,0:0:0:0:
256,192,134469,1,8,0:0:0:0:
256,192,134920,1,0,0:0:0:0:
256,192,135372,1,8,0:0:0:0:
256,192,135823,1,0,0:0:0:0:
256,192,136048,1,8,0:0:0:0:
256,192,136274,1,8,0:0:0:0:
256,192,136950,1,8,0:0:0:0:
256,192,137176,1,0,0:0:0:0:
256,192,137627,1,0,0:0:0:0:
256,192,138078,1,8,0:0:0:0:
256,192,138304,1,0,0:0:0:0:
256,192,138529,1,8,0:0:0:0:
256,192,138981,1,0,0:0:0:0:
256,192,139883,1,8,0:0:0:0:
256,192,140559,1,8,0:0:0:0:
256,192,140785,1,0,0:0:0:0:
256,192,141236,1,8,0:0:0:0:
256,192,141687,1,8,0:0:0:0:
256,192,142138,1,0,0:0:0:0:
256,192,142590,1,8,0:0:0:0:
256,192,143041,1,0,0:0:0:0:
256,192,143266,1,8,0:0:0:0:
256,192,143492,1,8,0:0:0:0:
256,192,143943,1,0,0:0:0:0:
256,192,144394,1,8,0:0:0:0:
256,192,145296,1,8,0:0:0:0:
256,192,146199,1,4,0:0:0:0:
256,192,148003,1,12,0:0:0:0:
256,192,148454,1,0,0:0:0:0:
256,192,148679,1,0,0:0:0:0:
256,192,148905,1,8,0:0:0:0:
256,192,149130,1,0,0:0:0:0:
256,192,149581,1,8,0:0:0:0:
256,192,149807,1,0,0:0:0:0:
256,192,150258,1,0,0:0:0:0:
256,192,150484,1,0,0:0:0:0:
256,192,150709,1,8,0:0:0:0:
256,192,151160,1,0,0:0:0:0:
256,192,151612,1,8,0:0:0:0:
256,192,152063,1,0,0:0:0:0:
256,192,152288,1,8,0:0:0:0:
256,192,152514,1,8,0:0:0:0:
256,192,152739,1,0,0:0:0:0:
256,192,153190,1,8,0:0:0:0:
256,192,153416,1,0,0:0:0:0:
256,192,153867,1,0,0:0:0:0:
256,192,154318,1,8,0:0:0:0:
256,192,154544,1,0,0:0:0:0:
256,192,154769,1,8,0:0:0:0:
256,192,155221,1,0,0:0:0:0:
256,192,156123,1,8,0:0:0:0:
256,192,156574,1,0,0:0:0:0:
256,192,156799,1,8,0:0:0:0:
256,192,157025,1,0,0:0:0:0:
256,192,157476,1,8,0:0:0:0:
256,192,157927,1,8,0:0:0:0:
256,192,158378,1,0,0:0:0:0:
256,192,158830,1,8,0:0:0:0:
256,192,159281,1,0,0:0:0:0:
256,192,159506,1,8,0:0:0:0:
256,192,159732,1,8,0:0:0:0:
256,192,160183,1,0,0:0:0:0:
256,192,160634,1,8,0:0:0:0:
256,192,161536,1,8,0:0:0:0:
256,192,162439,1,4,0:0:0:0:
256,192,163115,1,8,0:0:0:0:
256,192,163341,1,0,0:0:0:0:
256,192,163792,1,0,0:0:0:0:
256,192,164243,1,12,0:0:0:0:
