osu file format v14

[General]
AudioFilename: audio.mp3
AudioLeadIn: 0
PreviewTime: 28398
Countdown: 0
SampleSet: Normal
StackLeniency: 0.2
Mode: 1
LetterboxInBreaks: 0
WidescreenStoryboard: 1

[Editor]
DistanceSpacing: 0.1
BeatDivisor: 4
GridSize: 32
TimelineZoom: 2.3

[Metadata]
Title:Samba de Janeiro
TitleUnicode:Samba de Janeiro
Artist:Bellini
ArtistUnicode:Bellini
Creator:Genjuro
Version:Extremo do HiroK
Source:
Tags:electronic portuguese latin house pop brazil brasil vulkin hirok eae fácil difícil
BeatmapID:2144574
BeatmapSetID:1022395

[Difficulty]
HPDrainRate:5
CircleSize:2
OverallDifficulty:5.5
ApproachRate:9
SliderMultiplier:1.4
SliderTickRate:1

[Events]
//Background and Video events
0,0,"bg.jpg",0,-25
//Break Periods
//Storyboard Layer 0 (Background)
//Storyboard Layer 1 (Fail)
//Storyboard Layer 2 (Pass)
//Storyboard Layer 3 (Foreground)
//Storyboard Layer 4 (Overlay)
//Storyboard Sound Samples

[TimingPoints]
923,451.127819548872,4,1,0,50,1,0
15359,451.127819548872,4,1,0,50,1,8
15372,451.127819548872,4,1,0,60,1,0
15372,-76.9230769230769,4,1,0,60,0,0
28454,-100,4,1,0,40,0,0
29808,-95.2380952380952,4,1,0,80,0,1
44244,-76.9230769230769,4,1,0,80,0,0
44695,-100,4,1,0,60,0,0
45484,-95.2380952380952,4,1,0,60,0,0
46048,451.127819548872,4,1,0,80,1,1
46048,-90.9090909090909,4,1,0,80,0,1
58679,-76.9230769230769,4,1,0,60,0,0
60032,-86.9565217391304,4,1,0,70,0,0
60484,-100,4,1,0,50,0,0
67702,-83.3333333333333,4,1,0,70,0,0
70860,-86.9565217391304,4,1,0,70,0,0
71085,-90.9090909090909,4,1,0,70,0,0
71311,-95.2380952380952,4,1,0,70,0,0
71649,-100,4,1,0,70,0,0
74469,-95.2380952380952,4,1,0,70,0,0
74694,-90.9090909090909,4,1,0,70,0,0
74920,-86.9565217391304,4,1,0,70,0,0
75258,-83.3333333333333,4,1,0,70,0,0
78078,-86.9565217391304,4,1,0,70,0,0
78303,-90.9090909090909,4,1,0,70,0,0
78529,-95.2380952380952,4,1,0,70,0,0
78867,-100,4,1,0,70,0,0
81235,-98.0392156862745,4,1,0,70,0,0
81348,-96.1538461538461,4,1,0,70,0,0
81461,-94.3396226415094,4,1,0,70,0,0
81574,-92.5925925925926,4,1,0,70,0,0
81687,-90.9090909090909,4,1,0,70,0,0
81912,-88.8888888888889,4,1,0,70,0,0
82138,-86.9565217391304,4,1,0,70,0,0
82476,-83.3333333333333,4,1,0,70,0,0
85070,-86.9565217391304,4,1,0,70,0,0
85296,-90.9090909090909,4,1,0,70,0,0
85521,-95.2380952380952,4,1,0,70,0,0
85747,-100,4,1,0,70,0,0
86085,-105.263157894737,4,1,0,70,0,0
88679,-100,4,1,0,70,0,0
88905,-95.2380952380952,4,1,0,70,0,0
89130,-90.9090909090909,4,1,0,70,0,0
89356,-86.9565217391304,4,1,0,70,0,0
89694,-83.3333333333333,4,1,0,70,0,0
92288,-86.9565217391304,4,1,0,70,0,0
92514,-90.9090909090909,4,1,0,70,0,0
92739,-95.2380952380952,4,1,0,70,0,0
92965,-100,4,1,0,70,0,0
93303,-105.263157894737,4,1,0,70,0,0
94769,451.127819548872,4,1,0,70,1,8
94770,451.127819548872,6,1,0,60,1,0
94770,-76.9230769230769,6,1,0,60,0,0
97476,-76.9230769230769,6,1,0,80,0,0
97927,-100,6,1,0,40,0,0
99281,451.127819548872,4,1,0,80,1,1
99281,-95.2380952380952,4,1,0,80,0,1
113717,-76.9230769230769,4,1,0,80,0,0
114168,-100,4,1,0,60,0,0
115521,451.127819548872,4,1,0,60,1,8
115522,451.127819548872,4,1,0,80,1,1
115522,-90.9090909090909,4,1,0,80,0,1
117777,-95.2380952380952,4,1,0,75,0,1
121386,-100,4,1,0,65,0,1
123191,-102.564102564103,4,1,0,60,0,1
124995,-105.263157894737,4,1,0,55,0,1
126800,-108.108108108108,4,1,0,50,0,1
128153,-111.111111111111,4,1,0,40,0,1
129958,-111.111111111111,4,1,0,40,0,0
130409,-111.111111111111,4,1,0,60,0,0
131198,-111.111111111111,4,1,0,60,0,0
131762,451.127819548872,4,1,0,60,1,8
131763,451.127819548872,4,1,0,80,1,1
131763,-90.9090909090909,4,1,0,80,0,1
146199,-76.9230769230769,4,1,0,80,0,0
146650,-100,4,1,0,60,0,0
148003,451.127819548872,4,1,0,80,1,1
148003,-90.9090909090909,4,1,0,80,0,1
162439,-76.9230769230769,4,1,0,60,0,0
164243,-66.6666666666667,4,1,0,80,0,0

[HitObjects]
266,158,922,5,4,0:0:0:0:
266,158,1148,1,8,0:0:0:0:
266,158,1261,1,0,0:0:0:0:
274,167,1374,1,8,0:0:0:0:
266,158,1599,1,0,0:0:0:0:
266,158,1825,1,0,0:0:0:0:
265,143,1938,1,8,0:0:0:0:
293,178,2163,1,8,0:0:0:0:
276,155,2276,1,8,0:0:0:0:
276,155,2727,1,0,0:0:0:0:
276,155,2953,1,8,0:0:0:0:
264,174,3178,1,8,0:0:0:0:
263,174,3404,1,0,0:0:0:0:
273,167,3516,1,8,0:0:0:0:
267,167,3629,1,0,0:0:0:0:
267,167,3742,1,8,0:0:0:0:
267,167,3968,1,8,0:0:0:0:
273,180,4080,1,0,0:0:0:0:
272,173,4193,1,0,0:0:0:0:
267,167,4532,1,0,0:0:0:0:
258,162,4757,1,8,0:0:0:0:
258,162,4870,1,0,0:0:0:0:
273,167,4983,1,8,0:0:0:0:
258,162,5208,1,0,0:0:0:0:
258,162,5434,1,0,0:0:0:0:
258,162,5547,1,8,0:0:0:0:
258,162,5772,1,8,0:0:0:0:
258,162,5885,1,8,0:0:0:0:
272,170,6336,1,0,0:0:0:0:
272,171,6562,1,8,0:0:0:0:
272,171,6787,1,8,0:0:0:0:
272,170,7013,1,0,0:0:0:0:
272,137,7126,1,8,0:0:0:0:
272,170,7238,1,0,0:0:0:0:
278,156,7351,1,8,0:0:0:0:
286,173,7577,1,8,0:0:0:0:
280,162,7689,1,0,0:0:0:0:
280,162,7802,1,0,0:0:0:0:
266,158,8141,5,0,0:0:0:0:
266,158,8366,1,8,0:0:0:0:
266,158,8479,1,0,0:0:0:0:
274,167,8592,1,8,0:0:0:0:
266,158,8817,1,0,0:0:0:0:
266,158,8930,1,0,0:0:0:0:
265,143,9156,1,8,0:0:0:0:
293,178,9381,1,8,0:0:0:0:
276,155,9494,1,8,0:0:0:0:
272,170,9945,1,0,0:0:0:0:
272,171,10171,1,8,0:0:0:0:
272,171,10396,1,0,0:0:0:0:
272,137,10509,1,8,0:0:0:0:
272,170,10735,1,8,0:0:0:0:
264,158,10847,1,0,0:0:0:0:
278,156,10960,1,8,0:0:0:0:
286,173,11186,1,8,0:0:0:0:
280,162,11298,1,0,0:0:0:0:
280,162,11411,1,0,0:0:0:0:
266,158,11750,5,0,0:0:0:0:
266,158,11975,1,8,0:0:0:0:
266,158,12088,1,0,0:0:0:0:
274,167,12201,1,8,0:0:0:0:
266,158,12426,1,0,0:0:0:0:
266,158,12539,1,0,0:0:0:0:
265,143,12765,1,8,0:0:0:0:
293,178,12990,1,8,0:0:0:0:
276,155,13103,1,8,0:0:0:0:
258,156,13554,1,0,0:0:0:0:
273,167,13780,1,8,0:0:0:0:
273,167,14005,1,0,0:0:0:0:
273,167,14118,1,0,0:0:0:0:
273,167,14231,1,8,0:0:0:0:
273,167,14344,1,0,0:0:0:0:
273,167,14569,1,8,0:0:0:0:
273,167,14795,1,0,0:0:0:0:
273,167,14907,1,8,0:0:0:0:
273,167,15133,1,0,0:0:0:0:
263,166,15372,1,12,0:0:0:0:
268,170,17176,1,12,0:0:0:0:
223,163,18981,1,12,0:0:0:0:
257,160,19883,1,12,0:0:0:0:
257,160,20785,1,12,0:0:0:0:
257,160,21236,1,12,0:0:0:0:
257,160,21687,1,12,0:0:0:0:
257,160,22138,1,12,0:0:0:0:
257,160,22590,1,12,0:0:0:0:
257,160,23041,1,12,0:0:0:0:
257,160,23492,1,12,0:0:0:0:
257,160,23943,1,12,0:0:0:0:
257,160,24394,1,12,0:0:0:0:
257,160,24620,1,12,0:0:0:0:
257,160,24845,1,12,0:0:0:0:
257,160,25071,1,12,0:0:0:0:
257,160,25296,1,12,0:0:0:0:
257,160,25522,1,12,0:0:0:0:
257,160,25747,1,12,0:0:0:0:
257,160,26199,1,8,0:0:0:0:
257,160,26311,1,0,0:0:0:0:
257,160,26424,1,8,0:0:0:0:
257,160,26650,1,8,0:0:0:0:
257,160,26762,1,0,0:0:0:0:
268,153,26875,1,8,0:0:0:0:
268,153,27101,1,8,0:0:0:0:
268,153,27214,1,8,0:0:0:0:
268,153,27326,1,8,0:0:0:0:
268,153,27439,1,8,0:0:0:0:
268,153,27552,1,8,0:0:0:0:
268,153,27665,1,8,0:0:0:0:
268,153,27778,1,0,0:0:0:0:
280,148,28003,1,12,0:0:0:0:
262,158,28454,1,0,0:0:0:0:
262,158,28905,1,8,0:0:0:0:
299,166,29582,1,8,0:0:0:0:
299,166,29808,1,4,0:0:0:0:
275,162,30033,1,8,0:0:0:0:
275,161,30259,1,0,0:0:0:0:
275,161,30371,1,0,0:0:0:0:
275,161,30484,1,8,0:0:0:0:
275,161,30710,1,8,0:0:0:0:
274,138,30935,1,0,0:0:0:0:
263,165,31161,1,8,0:0:0:0:
266,167,31274,1,8,0:0:0:0:
266,167,31387,1,0,0:0:0:0:
266,167,31612,1,8,0:0:0:0:
261,168,32063,1,0,0:0:0:0:
251,167,32289,1,0,0:0:0:0:
266,167,32402,1,0,0:0:0:0:
266,167,32514,1,8,0:0:0:0:
249,163,32740,1,0,0:0:0:0:
250,156,32965,1,8,0:0:0:0:
250,156,33191,1,0,0:0:0:0:
250,156,33304,1,8,0:0:0:0:
282,153,33417,1,0,0:0:0:0:
241,148,33642,1,0,0:0:0:0:
229,154,33755,1,0,0:0:0:0:
229,154,33868,1,8,0:0:0:0:
229,154,34093,1,8,0:0:0:0:
229,154,34319,1,0,0:0:0:0:
261,150,34544,1,8,0:0:0:0:
256,140,34770,1,0,0:0:0:0:
256,162,34883,1,0,0:0:0:0:
261,150,35108,1,0,0:0:0:0:
264,161,35221,1,8,0:0:0:0:
268,159,35672,1,8,0:0:0:0:
268,159,35898,1,0,0:0:0:0:
270,158,36011,1,0,0:0:0:0:
270,158,36123,1,8,0:0:0:0:
260,156,36349,1,0,0:0:0:0:
260,156,36575,1,8,0:0:0:0:
260,156,36800,1,0,0:0:0:0:
260,156,36913,1,8,0:0:0:0:
260,156,37026,1,0,0:0:0:0:
260,156,37251,1,0,0:0:0:0:
278,158,37477,1,8,0:0:0:0:
279,158,37702,1,8,0:0:0:0:
274,163,37815,1,0,0:0:0:0:
279,158,37928,1,8,0:0:0:0:
277,159,38153,1,0,0:0:0:0:
277,159,38379,1,8,0:0:0:0:
287,166,38605,1,0,0:0:0:0:
279,158,38717,1,8,0:0:0:0:
291,154,39056,1,0,0:0:0:0:
284,153,39281,1,8,0:0:0:0:
284,153,39507,1,0,0:0:0:0:
279,158,39620,1,0,0:0:0:0:
279,158,39732,1,8,0:0:0:0:
284,153,39958,1,0,0:0:0:0:
284,153,40184,1,8,0:0:0:0:
284,153,40409,1,8,0:0:0:0:
284,153,40522,1,8,0:0:0:0:
258,144,40635,1,0,0:0:0:0:
280,167,40860,1,0,0:0:0:0:
276,150,41086,1,8,0:0:0:0:
276,150,41311,1,0,0:0:0:0:
234,165,41424,1,8,0:0:0:0:
276,150,41537,1,8,0:0:0:0:
276,150,41762,1,0,0:0:0:0:
276,150,41988,1,8,0:0:0:0:
254,154,42439,1,0,0:0:0:0:
276,150,42665,1,8,0:0:0:0:
276,150,42890,1,0,0:0:0:0:
265,161,43003,1,8,0:0:0:0:
276,150,43229,1,8,0:0:0:0:
249,146,43341,1,0,0:0:0:0:
249,146,43567,1,8,0:0:0:0:
249,143,43793,1,0,0:0:0:0:
249,143,43905,1,8,0:0:0:0:
249,143,44018,1,0,0:0:0:0:
263,141,44244,1,12,0:0:0:0:
267,160,44695,1,0,0:0:0:0:
267,160,45146,1,8,0:0:0:0:
302,123,45597,1,0,0:0:0:0:
302,123,45710,1,8,0:0:0:0:
302,123,45823,1,8,0:0:0:0:
255,155,46048,1,4,0:0:0:0:
285,162,46273,1,8,0:0:0:0:
285,158,46499,1,0,0:0:0:0:
285,158,46611,1,0,0:0:0:0:
285,158,46724,1,8,0:0:0:0:
285,158,46950,1,0,0:0:0:0:
285,162,47175,1,8,0:0:0:0:
257,149,47401,1,0,0:0:0:0:
257,149,47514,1,8,0:0:0:0:
266,150,47739,1,8,0:0:0:0:
285,158,47852,1,0,0:0:0:0:
266,156,48303,1,0,0:0:0:0:
266,156,48529,1,0,0:0:0:0:
266,150,48641,1,0,0:0:0:0:
266,150,48754,1,8,0:0:0:0:
266,156,48980,1,0,0:0:0:0:
266,156,49205,1,8,0:0:0:0:
266,156,49318,1,0,0:0:0:0:
266,156,49544,1,0,0:0:0:0:
266,150,49657,1,8,0:0:0:0:
266,150,49882,1,0,0:0:0:0:
279,151,50108,1,8,0:0:0:0:
279,151,50220,1,0,0:0:0:0:
279,151,50333,1,8,0:0:0:0:
279,151,50559,1,0,0:0:0:0:
279,151,50784,1,8,0:0:0:0:
246,151,51010,1,0,0:0:0:0:
279,151,51123,1,8,0:0:0:0:
279,151,51235,1,0,0:0:0:0:
279,151,51461,1,8,0:0:0:0:
279,151,51912,1,8,0:0:0:0:
269,150,52138,1,0,0:0:0:0:
269,150,52251,1,0,0:0:0:0:
269,150,52363,1,8,0:0:0:0:
261,165,52589,1,0,0:0:0:0:
261,149,52814,1,8,0:0:0:0:
256,149,53040,1,0,0:0:0:0:
256,149,53153,1,8,0:0:0:0:
232,128,53266,1,0,0:0:0:0:
259,133,53491,1,0,0:0:0:0:
261,149,53717,1,8,0:0:0:0:
256,149,53942,1,0,0:0:0:0:
256,149,54055,1,0,0:0:0:0:
256,149,54168,1,8,0:0:0:0:
251,158,54393,1,0,0:0:0:0:
251,158,54619,1,8,0:0:0:0:
251,158,54732,1,8,0:0:0:0:
251,158,54957,1,8,0:0:0:0:
251,158,55070,1,0,0:0:0:0:
265,155,55521,1,8,0:0:0:0:
265,155,55747,1,0,0:0:0:0:
265,155,55860,1,0,0:0:0:0:
265,155,55972,1,8,0:0:0:0:
265,155,56198,1,0,0:0:0:0:
265,155,56423,1,8,0:0:0:0:
265,155,56649,1,0,0:0:0:0:
265,155,56762,1,8,0:0:0:0:
291,161,56875,1,8,0:0:0:0:
291,161,57100,1,0,0:0:0:0:
291,161,57326,1,8,0:0:0:0:
291,161,57438,1,0,0:0:0:0:
291,161,57551,1,8,0:0:0:0:
291,161,57777,1,8,0:0:0:0:
291,161,58002,1,0,0:0:0:0:
291,161,58228,1,8,0:0:0:0:
291,161,58341,1,8,0:0:0:0:
291,161,58454,1,0,0:0:0:0:
282,158,58679,1,4,0:0:0:0:
279,189,60032,5,12,0:0:0:0:
266,177,60484,1,4,0:0:0:0:
244,143,60709,1,8,0:0:0:0:
244,143,60935,1,8,0:0:0:0:
231,169,61047,1,8,0:0:0:0:
261,157,61273,1,8,0:0:0:0:
256,157,61386,1,0,0:0:0:0:
256,157,61611,1,8,0:0:0:0:
256,157,61837,1,8,0:0:0:0:
256,157,61950,1,8,0:0:0:0:
261,157,62288,1,0,0:0:0:0:
265,158,62514,1,8,0:0:0:0:
256,157,62739,1,8,0:0:0:0:
256,157,62852,1,8,0:0:0:0:
261,157,63078,1,0,0:0:0:0:
261,157,63190,1,8,0:0:0:0:
265,158,63416,1,0,0:0:0:0:
256,157,63641,1,8,0:0:0:0:
256,157,63754,1,8,0:0:0:0:
266,177,64093,1,0,0:0:0:0:
244,143,64318,1,8,0:0:0:0:
244,143,64544,1,8,0:0:0:0:
231,169,64657,1,8,0:0:0:0:
261,157,64882,1,8,0:0:0:0:
256,157,64995,1,0,0:0:0:0:
256,157,65220,1,8,0:0:0:0:
256,157,65446,1,8,0:0:0:0:
256,157,65559,1,8,0:0:0:0:
261,157,65897,1,0,0:0:0:0:
265,158,66123,1,8,0:0:0:0:
256,157,66348,1,8,0:0:0:0:
256,157,66461,1,8,0:0:0:0:
261,157,66687,1,0,0:0:0:0:
261,157,66799,1,8,0:0:0:0:
265,158,67025,1,8,0:0:0:0:
256,157,67251,1,0,0:0:0:0:
256,157,67363,1,8,0:0:0:0:
256,157,67476,1,8,0:0:0:0:
261,157,67702,1,4,0:0:0:0:
251,172,68040,1,8,0:0:0:0:
251,172,68153,1,0,0:0:0:0:
266,165,68378,1,8,0:0:0:0:
266,165,68604,1,0,0:0:0:0:
250,158,68717,1,0,0:0:0:0:
250,158,68829,1,8,0:0:0:0:
250,158,69055,1,0,0:0:0:0:
250,158,69281,1,8,0:0:0:0:
250,158,69506,1,0,0:0:0:0:
250,158,69619,1,0,0:0:0:0:
250,158,69732,1,8,0:0:0:0:
250,158,69957,1,0,0:0:0:0:
250,158,70070,1,0,0:0:0:0:
250,158,70183,1,8,0:0:0:0:
250,158,70408,1,0,0:0:0:0:
250,158,70521,1,0,0:0:0:0:
250,158,70634,1,8,0:0:0:0:
250,158,70860,1,0,0:0:0:0:
250,158,71085,1,8,0:0:0:0:
250,158,71311,1,0,0:0:0:0:
250,158,71649,1,0,0:0:0:0:
251,148,71762,1,8,0:0:0:0:
276,157,71987,1,0,0:0:0:0:
276,157,72213,1,8,0:0:0:0:
276,157,72326,1,8,0:0:0:0:
250,158,72438,1,0,0:0:0:0:
250,158,72664,1,8,0:0:0:0:
247,163,72890,1,0,0:0:0:0:
247,163,73115,1,8,0:0:0:0:
247,163,73228,1,8,0:0:0:0:
247,163,73341,1,0,0:0:0:0:
246,150,73566,1,8,0:0:0:0:
246,150,73679,1,8,0:0:0:0:
246,150,73792,1,0,0:0:0:0:
246,150,74017,1,8,0:0:0:0:
246,150,74130,1,8,0:0:0:0:
246,150,74243,1,0,0:0:0:0:
252,162,74469,1,8,0:0:0:0:
252,162,74694,1,8,0:0:0:0:
252,162,74920,1,0,0:0:0:0:
252,162,75258,1,8,0:0:0:0:
252,162,75371,1,0,0:0:0:0:
278,158,75596,1,8,0:0:0:0:
278,158,75822,1,0,0:0:0:0:
281,151,75935,1,0,0:0:0:0:
281,151,76047,1,8,0:0:0:0:
281,151,76273,1,0,0:0:0:0:
278,158,76499,1,8,0:0:0:0:
278,158,76724,1,0,0:0:0:0:
278,158,76837,1,0,0:0:0:0:
281,151,76950,1,8,0:0:0:0:
281,151,77175,1,0,0:0:0:0:
281,151,77288,1,0,0:0:0:0:
278,158,77401,1,8,0:0:0:0:
270,149,77626,1,0,0:0:0:0:
270,149,77739,1,0,0:0:0:0:
270,149,77852,1,8,0:0:0:0:
270,149,78078,1,0,0:0:0:0:
270,149,78303,1,8,0:0:0:0:
270,149,78529,1,0,0:0:0:0:
270,149,78867,1,0,0:0:0:0:
270,149,78980,1,8,0:0:0:0:
270,149,79205,1,0,0:0:0:0:
270,149,79431,1,8,0:0:0:0:
270,149,79544,1,8,0:0:0:0:
270,149,79657,1,0,0:0:0:0:
270,149,79882,1,8,0:0:0:0:
270,149,80108,1,0,0:0:0:0:
270,149,80333,1,8,0:0:0:0:
270,149,80446,1,8,0:0:0:0:
270,149,80559,1,0,0:0:0:0:
259,168,80784,1,8,0:0:0:0:
259,168,80897,1,8,0:0:0:0:
259,168,81010,1,0,0:0:0:0:
259,168,81235,1,8,0:0:0:0:
259,168,81348,1,8,0:0:0:0:
259,168,81461,1,0,0:0:0:0:
259,168,81574,1,0,0:0:0:0:
256,153,81687,1,8,0:0:0:0:
256,153,81912,1,8,0:0:0:0:
256,153,82138,1,4,0:0:0:0:
249,149,82476,1,8,0:0:0:0:
249,149,82589,1,0,0:0:0:0:
249,149,82814,1,8,0:0:0:0:
249,149,83040,1,0,0:0:0:0:
256,153,83153,1,0,0:0:0:0:
261,156,83266,1,8,0:0:0:0:
260,157,83491,1,0,0:0:0:0:
260,157,83717,1,8,0:0:0:0:
260,157,83942,1,0,0:0:0:0:
260,157,84055,1,0,0:0:0:0:
256,153,84168,1,8,0:0:0:0:
267,171,84281,1,8,0:0:0:0:
260,157,84393,1,0,0:0:0:0:
260,157,84506,1,0,0:0:0:0:
260,157,84619,1,8,0:0:0:0:
260,157,84844,1,0,0:0:0:0:
260,157,85070,1,8,0:0:0:0:
234,163,85296,1,0,0:0:0:0:
234,163,85521,1,8,0:0:0:0:
247,166,85747,1,0,0:0:0:0:
248,159,86085,1,0,0:0:0:0:
248,159,86198,1,8,0:0:0:0:
248,159,86423,1,0,0:0:0:0:
241,147,86649,1,8,0:0:0:0:
241,147,86762,1,8,0:0:0:0:
241,147,86875,1,0,0:0:0:0:
239,148,87100,1,8,0:0:0:0:
242,131,87326,1,0,0:0:0:0:
242,131,87551,1,8,0:0:0:0:
242,131,87664,1,8,0:0:0:0:
242,131,87777,1,0,0:0:0:0:
270,171,87890,1,0,0:0:0:0:
242,131,88002,1,8,0:0:0:0:
242,131,88115,1,8,0:0:0:0:
242,131,88228,1,0,0:0:0:0:
242,131,88454,1,8,0:0:0:0:
242,131,88679,1,0,0:0:0:0:
242,131,88905,1,8,0:0:0:0:
264,153,89130,1,8,0:0:0:0:
264,153,89356,1,0,0:0:0:0:
249,149,89694,1,8,0:0:0:0:
249,149,89807,1,0,0:0:0:0:
249,149,90032,1,8,0:0:0:0:
249,149,90258,1,0,0:0:0:0:
256,153,90371,1,0,0:0:0:0:
261,156,90484,1,8,0:0:0:0:
260,157,90709,1,0,0:0:0:0:
260,157,90935,1,8,0:0:0:0:
260,157,91160,1,0,0:0:0:0:
260,157,91273,1,0,0:0:0:0:
256,153,91386,1,8,0:0:0:0:
272,149,91499,1,8,0:0:0:0:
260,157,91611,1,0,0:0:0:0:
260,157,91724,1,0,0:0:0:0:
260,157,91837,1,8,0:0:0:0:
260,157,92063,1,0,0:0:0:0:
260,157,92288,1,8,0:0:0:0:
234,163,92514,1,0,0:0:0:0:
234,163,92739,1,8,0:0:0:0:
247,166,92965,1,0,0:0:0:0:
248,159,93303,1,0,0:0:0:0:
248,159,93416,1,8,0:0:0:0:
248,159,93641,1,0,0:0:0:0:
241,147,93867,1,8,0:0:0:0:
241,147,93980,1,8,0:0:0:0:
241,147,94093,1,0,0:0:0:0:
239,148,94318,1,8,0:0:0:0:
242,131,94544,1,0,0:0:0:0:
250,129,94770,1,12,0:0:0:0:
256,157,95446,1,0,0:0:0:0:
256,157,95672,1,8,0:0:0:0:
256,157,96348,1,0,0:0:0:0:
261,150,96574,1,8,0:0:0:0:
261,150,96724,1,0,0:0:0:0:
249,151,96875,1,8,0:0:0:0:
249,151,97025,1,8,0:0:0:0:
249,151,97176,1,0,0:0:0:0:
278,142,97326,1,0,0:0:0:0:
233,140,97476,1,12,0:0:0:0:
269,143,97927,1,0,0:0:0:0:
269,143,98379,1,8,0:0:0:0:
250,141,99055,1,8,0:0:0:0:
299,166,99281,1,4,0:0:0:0:
275,162,99506,1,8,0:0:0:0:
275,161,99732,1,0,0:0:0:0:
275,161,99844,1,0,0:0:0:0:
275,161,99957,1,8,0:0:0:0:
275,161,100183,1,8,0:0:0:0:
274,138,100408,1,0,0:0:0:0:
263,165,100634,1,8,0:0:0:0:
266,167,100747,1,8,0:0:0:0:
266,167,100859,1,0,0:0:0:0:
266,167,101085,1,8,0:0:0:0:
261,168,101536,1,0,0:0:0:0:
251,167,101762,1,0,0:0:0:0:
266,167,101874,1,0,0:0:0:0:
266,167,101987,1,8,0:0:0:0:
249,163,102213,1,0,0:0:0:0:
250,156,102438,1,8,0:0:0:0:
250,156,102664,1,0,0:0:0:0:
250,156,102777,1,8,0:0:0:0:
282,153,102890,1,0,0:0:0:0:
241,148,103115,1,0,0:0:0:0:
229,154,103228,1,0,0:0:0:0:
229,154,103341,1,8,0:0:0:0:
229,154,103566,1,8,0:0:0:0:
229,154,103792,1,0,0:0:0:0:
261,150,104017,1,8,0:0:0:0:
256,140,104243,1,0,0:0:0:0:
256,162,104356,1,0,0:0:0:0:
261,150,104581,1,0,0:0:0:0:
264,161,104694,1,8,0:0:0:0:
268,159,105145,1,8,0:0:0:0:
268,159,105371,1,0,0:0:0:0:
270,158,105484,1,0,0:0:0:0:
270,158,105596,1,8,0:0:0:0:
260,156,105822,1,0,0:0:0:0:
260,156,106047,1,8,0:0:0:0:
260,156,106273,1,0,0:0:0:0:
260,156,106386,1,8,0:0:0:0:
260,156,106499,1,0,0:0:0:0:
260,156,106724,1,0,0:0:0:0:
278,158,106950,1,8,0:0:0:0:
279,158,107175,1,8,0:0:0:0:
274,163,107288,1,0,0:0:0:0:
279,158,107401,1,8,0:0:0:0:
277,159,107626,1,0,0:0:0:0:
277,159,107852,1,8,0:0:0:0:
287,166,108077,1,0,0:0:0:0:
279,158,108190,1,8,0:0:0:0:
291,154,108529,1,0,0:0:0:0:
284,153,108754,1,8,0:0:0:0:
284,153,108980,1,0,0:0:0:0:
279,158,109093,1,0,0:0:0:0:
279,158,109205,1,8,0:0:0:0:
284,153,109431,1,0,0:0:0:0:
284,153,109656,1,8,0:0:0:0:
284,153,109882,1,8,0:0:0:0:
284,153,109995,1,8,0:0:0:0:
258,144,110108,1,0,0:0:0:0:
280,167,110333,1,0,0:0:0:0:
276,150,110559,1,8,0:0:0:0:
276,150,110784,1,0,0:0:0:0:
234,165,110897,1,8,0:0:0:0:
276,150,111010,1,8,0:0:0:0:
276,150,111235,1,0,0:0:0:0:
276,150,111461,1,8,0:0:0:0:
254,154,111912,1,0,0:0:0:0:
276,150,112138,1,8,0:0:0:0:
276,150,112363,1,0,0:0:0:0:
265,161,112476,1,8,0:0:0:0:
276,150,112702,1,8,0:0:0:0:
249,146,112814,1,0,0:0:0:0:
249,146,113040,1,8,0:0:0:0:
249,143,113265,1,0,0:0:0:0:
249,143,113378,1,8,0:0:0:0:
249,143,113491,1,0,0:0:0:0:
263,141,113717,1,12,0:0:0:0:
265,117,114168,1,0,0:0:0:0:
271,142,114619,1,8,0:0:0:0:
251,151,115296,1,8,0:0:0:0:
256,145,115522,1,4,0:0:0:0:
285,162,115747,1,8,0:0:0:0:
285,158,115973,1,0,0:0:0:0:
285,158,116085,1,0,0:0:0:0:
285,158,116198,1,8,0:0:0:0:
285,158,116424,1,0,0:0:0:0:
285,162,116649,1,8,0:0:0:0:
257,149,116875,1,0,0:0:0:0:
257,149,116988,1,8,0:0:0:0:
266,150,117213,1,8,0:0:0:0:
285,158,117326,1,0,0:0:0:0:
266,156,117777,1,8,0:0:0:0:
266,156,118003,1,0,0:0:0:0:
266,150,118115,1,0,0:0:0:0:
266,150,118228,1,8,0:0:0:0:
266,156,118454,1,0,0:0:0:0:
266,156,118679,1,8,0:0:0:0:
266,156,118792,1,0,0:0:0:0:
266,156,119018,1,0,0:0:0:0:
266,150,119131,1,8,0:0:0:0:
266,150,119356,1,0,0:0:0:0:
279,151,119582,1,8,0:0:0:0:
279,151,119694,1,0,0:0:0:0:
279,151,119807,1,8,0:0:0:0:
279,151,120033,1,8,0:0:0:0:
279,151,120258,1,0,0:0:0:0:
246,151,120484,1,0,0:0:0:0:
279,151,120597,1,8,0:0:0:0:
279,151,120709,1,0,0:0:0:0:
279,151,120935,1,8,0:0:0:0:
279,151,121386,1,0,0:0:0:0:
269,150,121612,1,0,0:0:0:0:
269,150,121725,1,0,0:0:0:0:
269,150,121837,1,8,0:0:0:0:
261,165,122063,1,0,0:0:0:0:
261,149,122288,1,8,0:0:0:0:
256,149,122514,1,0,0:0:0:0:
256,149,122627,1,8,0:0:0:0:
232,128,122740,1,0,0:0:0:0:
261,149,123191,1,8,0:0:0:0:
256,149,123416,1,0,0:0:0:0:
256,149,123642,1,8,0:0:0:0:
251,158,124093,1,8,0:0:0:0:
251,158,124431,1,0,0:0:0:0:
265,155,124995,1,8,0:0:0:0:
265,155,125446,1,8,0:0:0:0:
265,155,125897,1,0,0:0:0:0:
265,155,126349,1,8,0:0:0:0:
291,161,126800,1,8,0:0:0:0:
291,161,127025,1,0,0:0:0:0:
291,161,127251,1,8,0:0:0:0:
291,161,127702,1,0,0:0:0:0:
256,192,128153,12,0,129958,0:0:0:0:
299,182,130409,5,0,0:0:0:0:
278,167,130860,1,8,0:0:0:0:
278,167,131311,1,0,0:0:0:0:
278,167,131424,1,8,0:0:0:0:
278,167,131537,1,8,0:0:0:0:
283,161,131763,1,4,0:0:0:0:
275,162,131988,1,8,0:0:0:0:
275,161,132214,1,0,0:0:0:0:
275,161,132326,1,0,0:0:0:0:
275,161,132439,1,8,0:0:0:0:
256,156,132552,1,0,0:0:0:0:
275,161,132665,1,8,0:0:0:0:
274,138,132890,1,0,0:0:0:0:
263,165,133116,1,8,0:0:0:0:
266,167,133229,1,8,0:0:0:0:
266,167,133341,1,0,0:0:0:0:
266,167,133567,1,8,0:0:0:0:
261,168,134018,1,0,0:0:0:0:
251,167,134244,1,0,0:0:0:0:
266,167,134356,1,0,0:0:0:0:
266,167,134469,1,8,0:0:0:0:
249,163,134695,1,0,0:0:0:0:
250,156,134920,1,8,0:0:0:0:
250,156,135146,1,0,0:0:0:0:
250,156,135259,1,8,0:0:0:0:
282,153,135372,1,0,0:0:0:0:
241,148,135597,1,0,0:0:0:0:
229,154,135710,1,0,0:0:0:0:
229,154,135823,1,8,0:0:0:0:
272,138,135935,1,0,0:0:0:0:
229,154,136048,1,8,0:0:0:0:
229,154,136274,1,8,0:0:0:0:
261,150,136499,1,0,0:0:0:0:
256,140,136725,1,0,0:0:0:0:
256,162,136838,1,0,0:0:0:0:
261,150,137063,1,0,0:0:0:0:
264,161,137176,1,8,0:0:0:0:
268,159,137627,1,8,0:0:0:0:
268,159,137853,1,0,0:0:0:0:
270,158,137966,1,0,0:0:0:0:
270,158,138078,1,8,0:0:0:0:
260,156,138304,1,0,0:0:0:0:
260,156,138529,1,8,0:0:0:0:
260,156,138755,1,0,0:0:0:0:
260,156,138868,1,8,0:0:0:0:
260,156,138981,1,0,0:0:0:0:
260,156,139206,1,0,0:0:0:0:
278,158,139432,1,8,0:0:0:0:
244,140,139544,1,0,0:0:0:0:
279,158,139657,1,8,0:0:0:0:
274,163,139770,1,0,0:0:0:0:
279,158,139883,1,8,0:0:0:0:
277,159,140108,1,0,0:0:0:0:
277,159,140334,1,8,0:0:0:0:
287,166,140559,1,0,0:0:0:0:
279,158,140672,1,8,0:0:0:0:
291,154,141011,1,0,0:0:0:0:
284,153,141236,1,8,0:0:0:0:
284,153,141462,1,0,0:0:0:0:
279,158,141575,1,0,0:0:0:0:
279,158,141687,1,8,0:0:0:0:
284,153,141913,1,0,0:0:0:0:
284,153,142138,1,8,0:0:0:0:
284,153,142364,1,8,0:0:0:0:
284,153,142477,1,8,0:0:0:0:
258,144,142590,1,0,0:0:0:0:
280,167,142815,1,0,0:0:0:0:
276,150,143041,1,8,0:0:0:0:
265,141,143153,1,8,0:0:0:0:
276,150,143266,1,0,0:0:0:0:
234,165,143379,1,0,0:0:0:0:
276,150,143492,1,8,0:0:0:0:
276,150,143717,1,0,0:0:0:0:
276,150,143943,1,8,0:0:0:0:
254,154,144394,1,0,0:0:0:0:
276,150,144620,1,8,0:0:0:0:
276,150,144845,1,0,0:0:0:0:
265,161,144958,1,8,0:0:0:0:
276,150,145184,1,8,0:0:0:0:
249,146,145296,1,0,0:0:0:0:
249,146,145522,1,8,0:0:0:0:
249,143,145747,1,0,0:0:0:0:
249,143,145860,1,8,0:0:0:0:
249,143,145973,1,0,0:0:0:0:
263,141,146199,1,12,0:0:0:0:
267,161,146650,1,0,0:0:0:0:
267,161,147101,1,8,0:0:0:0:
267,161,147778,1,8,0:0:0:0:
255,155,148003,1,4,0:0:0:0:
285,162,148228,1,8,0:0:0:0:
285,158,148454,1,0,0:0:0:0:
285,158,148566,1,0,0:0:0:0:
285,158,148679,1,8,0:0:0:0:
252,142,148792,1,8,0:0:0:0:
285,158,148905,1,0,0:0:0:0:
285,162,149130,1,8,0:0:0:0:
257,149,149356,1,0,0:0:0:0:
257,149,149469,1,8,0:0:0:0:
266,150,149694,1,8,0:0:0:0:
285,158,149807,1,0,0:0:0:0:
266,156,150258,1,8,0:0:0:0:
266,156,150484,1,0,0:0:0:0:
266,150,150596,1,0,0:0:0:0:
266,150,150709,1,8,0:0:0:0:
266,156,150935,1,0,0:0:0:0:
266,156,151160,1,8,0:0:0:0:
266,156,151273,1,0,0:0:0:0:
266,156,151499,1,0,0:0:0:0:
266,150,151612,1,8,0:0:0:0:
266,150,151837,1,0,0:0:0:0:
279,151,152063,1,8,0:0:0:0:
279,151,152175,1,0,0:0:0:0:
279,151,152288,1,8,0:0:0:0:
249,160,152401,1,8,0:0:0:0:
279,151,152514,1,0,0:0:0:0:
279,151,152739,1,8,0:0:0:0:
246,151,152965,1,0,0:0:0:0:
279,151,153078,1,8,0:0:0:0:
279,151,153190,1,0,0:0:0:0:
279,151,153416,1,8,0:0:0:0:
279,151,153867,1,8,0:0:0:0:
269,150,154093,1,0,0:0:0:0:
269,150,154206,1,0,0:0:0:0:
269,150,154318,1,8,0:0:0:0:
261,165,154544,1,0,0:0:0:0:
261,149,154769,1,8,0:0:0:0:
256,149,154995,1,0,0:0:0:0:
256,149,155108,1,8,0:0:0:0:
232,128,155221,1,0,0:0:0:0:
259,133,155446,1,0,0:0:0:0:
261,149,155672,1,8,0:0:0:0:
206,146,155784,1,8,0:0:0:0:
256,149,155897,1,0,0:0:0:0:
256,149,156010,1,0,0:0:0:0:
256,149,156123,1,8,0:0:0:0:
251,158,156348,1,0,0:0:0:0:
251,158,156574,1,8,0:0:0:0:
251,158,156687,1,8,0:0:0:0:
251,158,156912,1,8,0:0:0:0:
251,158,157025,1,0,0:0:0:0:
265,155,157476,1,8,0:0:0:0:
265,155,157702,1,0,0:0:0:0:
265,155,157815,1,0,0:0:0:0:
265,155,157927,1,8,0:0:0:0:
265,155,158153,1,0,0:0:0:0:
265,155,158378,1,8,0:0:0:0:
265,155,158604,1,0,0:0:0:0:
265,155,158717,1,8,0:0:0:0:
291,161,158830,1,8,0:0:0:0:
291,161,159055,1,0,0:0:0:0:
291,161,159281,1,8,0:0:0:0:
269,133,159393,1,0,0:0:0:0:
291,161,159506,1,8,0:0:0:0:
260,124,159619,1,0,0:0:0:0:
291,161,159732,1,8,0:0:0:0:
291,161,159957,1,0,0:0:0:0:
291,161,160183,1,8,0:0:0:0:
291,161,160296,1,8,0:0:0:0:
291,161,160409,1,0,0:0:0:0:
255,165,160634,1,8,0:0:0:0:
256,165,160860,1,8,0:0:0:0:
257,167,161085,1,0,0:0:0:0:
285,168,161536,1,8,0:0:0:0:
267,173,161762,1,8,0:0:0:0:
267,173,161987,1,0,0:0:0:0:
267,173,162100,1,8,0:0:0:0:
267,173,162213,1,0,0:0:0:0:
251,167,162439,1,12,0:0:0:0:
247,167,163115,1,0,0:0:0:0:
309,163,163341,1,8,0:0:0:0:
268,161,163491,1,0,0:0:0:0:
268,161,163642,1,8,0:0:0:0:
268,161,163792,1,8,0:0:0:0:
247,153,163942,1,0,0:0:0:0:
247,153,164093,1,0,0:0:0:0:
247,153,164243,1,12,0:0:0:0:
