osu file format v14

[General]
AudioFilename: Bella_Poarch_-_Build_a_Bitch_192.mp3
AudioLeadIn: 0
PreviewTime: 748
Countdown: 0
SampleSet: Soft
StackLeniency: 0
Mode: 0
LetterboxInBreaks: 0
WidescreenStoryboard: 1

[Editor]
Bookmarks: 1368,10688,38067,57290,66610,71270,84668,103892,112630,120202
DistanceSpacing: 0.6
BeatDivisor: 4
GridSize: 32
TimelineZoom: 1

[Metadata]
Title:Build a Bitch
TitleUnicode:Build a Bitch
Artist:Bella Poarch
ArtistUnicode:Bella Poarch
Creator:Kyouren
Version:Evil's Insane
Source:
Tags:pop english ​dark dark-pop salem ilese Sub Urban Justin Gammella Elie Rizk David Arkwright Stefan Max Warner Records kittyadventure gokugohan12468 b*tch tomadoi shiinoha kotone tricolor [-evil-] evil crowley bakugo- bakugo kieg enri collab collaboration FinnB FiNNb Fynbi davidminh0111 fiscia h o n e y h_o_n_e_y honey
BeatmapID:3109541
BeatmapSetID:1499531

[Difficulty]
HPDrainRate:5.5
CircleSize:3.8
OverallDifficulty:8
ApproachRate:9
SliderMultiplier:1.8
SliderTickRate:1

[Events]
//Background and Video events
0,0,"Bella_20Vogue_20ex.jpg",0,0
//Break Periods
2,85251,93098
//Storyboard Layer 0 (Background)
//Storyboard Layer 1 (Fail)
//Storyboard Layer 2 (Pass)
//Storyboard Layer 3 (Foreground)
//Storyboard Layer 4 (Overlay)
//Storyboard Sound Samples

[TimingPoints]
1368,582.52427184466,4,2,1,50,1,0
1368,-125,4,2,1,50,0,0
2241,-71.4285714285714,4,2,1,50,0,0
3115,-125,4,2,1,50,0,0
5300,-125,4,2,1,5,0,0
5445,-125,4,2,1,50,0,0
7630,-125,4,2,1,5,0,0
7775,-125,4,2,1,50,0,0
9523,-100,4,2,1,50,0,0
9960,-125,4,2,1,5,0,0
10105,-125,4,2,1,50,0,0
10688,-100,4,2,1,50,0,0
11562,-62.5,4,2,1,50,0,0
13018,-100,4,2,1,50,0,0
14620,-100,4,2,1,5,0,0
14765,-100,4,2,1,50,0,0
20008,-55.5555555555556,4,2,1,60,0,0
20227,-55.5555555555556,4,2,1,5,0,0
20300,-83.3333333333333,4,2,1,60,0,0
21465,-55.5555555555556,4,2,1,60,0,0
22921,-83.3333333333333,4,2,1,60,0,0
23795,-55.5555555555556,4,2,1,60,0,0
24887,-55.5555555555556,4,2,1,5,0,0
24960,-83.3333333333333,4,2,1,60,0,0
26125,-55.5555555555556,4,2,1,60,0,0
27581,-83.3333333333333,4,2,1,60,0,0
28455,-55.5555555555556,4,2,1,60,0,0
28673,-55.5555555555556,4,2,1,5,0,0
28746,-55.5555555555556,4,2,1,60,0,0
29329,-52.6315789473684,4,2,1,60,0,0
29766,-76.9230769230769,4,2,1,60,0,0
30785,-52.6315789473684,4,2,1,60,0,0
32241,-76.9230769230769,4,2,1,60,0,0
32824,-100,4,2,1,60,0,0
33115,-52.6315789473684,4,2,1,60,0,0
34571,-76.9230769230769,4,2,1,60,0,0
35154,-100,4,2,1,60,0,0
35445,-52.6315789473684,4,2,1,60,0,0
38649,-111.111111111111,4,2,1,50,0,0
39523,-66.6666666666667,4,2,1,50,0,0
40397,-111.111111111111,4,2,1,50,0,0
46804,-90.9090909090908,4,2,1,50,0,0
47387,-111.111111111111,4,2,1,50,0,0
47969,-100,4,2,1,60,0,0
48843,-62.5,4,2,1,60,0,0
49426,-100,4,2,1,60,0,0
56707,-66.6666666666667,4,2,2,70,0,0
57290,-200,4,2,1,80,0,0
57435,-200,4,2,1,5,0,0
57581,-500,4,2,1,80,0,0
57727,-200,4,2,1,5,0,0
57872,-50,4,2,1,70,0,1
58746,-200,4,2,1,70,0,1
59620,-50,4,2,1,70,0,1
60785,-43.4782608695652,4,2,1,70,0,1
61295,-55.5555555555556,4,2,1,5,0,1
61367,-50,4,2,1,70,0,1
61950,-200,4,2,1,70,0,0
62096,-200,4,2,1,5,0,0
62241,-500,4,2,1,70,0,0
62387,-200,4,2,1,5,0,0
62533,-50,4,2,1,70,0,1
63406,-200,4,2,1,70,0,1
63698,-50,4,2,1,70,0,1
65445,-43.4782608695652,4,2,1,70,0,1
66610,-111.111111111111,4,2,1,50,0,0
70397,-111.111111111111,4,2,1,50,0,0
70615,-55.5555555555556,4,2,1,5,0,0
70688,-71.4285714285714,4,2,1,50,0,0
70906,-55.5555555555556,4,2,1,5,0,0
70979,-50,4,2,1,50,0,0
71198,-55.5555555555556,4,2,1,5,0,0
71270,-62.5,4,2,1,60,0,0
71853,-111.111111111111,4,2,1,60,0,0
72727,-62.5,4,2,1,60,0,0
74183,-111.111111111111,4,2,1,60,0,0
74766,-66.6666666666667,4,2,1,60,0,0
75202,-55.5555555555556,4,2,1,5,0,0
75348,-66.6666666666667,4,2,1,60,0,0
75931,-100,4,2,1,60,0,0
77387,-58.8235294117647,4,2,1,60,0,0
78843,-100,4,2,1,60,0,0
79717,-58.8235294117647,4,2,1,60,0,0
80591,-100,4,2,1,60,0,0
82047,-58.8235294117647,4,2,1,60,0,0
85251,-58.8235294117647,4,2,1,50,0,0
93698,-166.666666666667,4,2,1,50,0,0
93916,-55.5555555555556,4,2,1,5,0,0
93989,-100,4,2,1,50,0,0
94207,-55.5555555555556,4,2,1,5,0,0
94280,-71.4285714285714,4,2,1,50,0,0
94499,-55.5555555555556,4,2,1,5,0,0
94571,-111.111111111111,4,2,1,60,0,0
95445,-71.4285714285714,4,2,1,60,0,0
96901,-111.111111111111,4,2,1,60,0,0
103309,-66.6666666666667,4,2,2,70,0,0
103528,-200,4,2,1,5,0,0
103601,-66.6666666666667,4,2,2,70,0,0
103819,-200,4,2,1,5,0,0
103892,-43.4782608695652,4,2,5,90,0,0
104037,-43.4782608695652,4,2,1,90,0,0
104110,-200,4,2,1,5,0,0
104183,-43.4782608695652,4,2,1,90,0,0
104401,-200,4,2,1,5,0,0
104474,-40,4,2,1,80,0,1
105348,-133.333333333333,4,2,1,80,0,1
105639,-40,4,2,1,80,0,1
107387,-35.7142857142857,4,2,1,80,0,1
107897,-55.5555555555556,4,2,1,5,0,1
107969,-40,4,2,1,80,0,1
108552,-200,4,2,1,80,0,0
108698,-200,4,2,1,5,0,0
108843,-500,4,2,1,80,0,0
108989,-200,4,2,1,5,0,0
109134,-40,4,2,1,80,0,1
110008,-133.333333333333,4,2,1,80,0,1
110300,-40,4,2,1,80,0,1
112338,-285.714285714284,4,2,1,80,0,1
112557,-55.5555555555556,4,2,1,5,0,1
112630,-285.714285714284,4,2,1,80,0,0
113139,-285.714285714284,4,2,1,80,0,0
113212,-45.4545454545455,4,2,1,90,0,1
116926,-55.5555555555556,4,2,1,5,0,1
116999,-58.8235294117647,4,2,1,90,0,1
117872,-71.4285714285714,4,2,1,90,0,0
120202,-71.4285714285714,4,2,1,70,0,0
120494,-71.4285714285714,4,2,1,60,0,0
120785,-71.4285714285714,4,2,1,50,0,0
121076,-71.4285714285714,4,2,1,40,0,0
121367,-71.4285714285714,4,2,1,30,0,0

[Colours]
Combo1 : 255,130,65
Combo2 : 190,190,190

[HitObjects]
498,71,785,5,2,0:0:0:0:
443,12,1076,1,2,0:0:0:0:
330,116,1368,6,0,B|211:101,1,108,2|2,0:0|0:0,0:0:0:0:
201,86,1950,1,2,0:0:0:0:
70,215,2241,38,0,P|52:250|75:295,1,62.9999980773926,2|0,0:0|0:0,0:0:0:0:
148,294,2533,2,0,P|166:259|143:214,1,62.9999980773926,2|0,0:0|0:0,0:0:0:0:
87,342,2824,1,0,0:0:0:0:
270,238,3115,5,2,0:0:0:0:
324,292,3406,1,2,0:0:0:0:
427,184,3698,38,0,L|412:86,1,72,2|2,0:0|0:0,0:0:0:0:
329,55,4280,2,0,L|314:153,1,72,2|2,0:0|0:0,0:0:0:0:
493,77,4863,2,0,P|452:30|395:39,1,108,2|0,0:0|0:0,0:0:0:0:
398,55,5445,1,2,0:0:0:0:
316,2,5736,1,2,0:0:0:0:
190,178,6028,6,0,L|275:163,1,72,2|2,0:0|0:0,0:0:0:0:
320,85,6610,2,0,L|235:70,1,72,2|2,0:0|0:0,0:0:0:0:
106,140,7193,2,0,B|92:164|92:164|99:224|99:224|116:237,1,108,2|0,0:0|0:0,0:0:0:0:
143,251,7775,1,2,0:0:0:0:
190,178,8067,1,2,0:0:0:0:
378,350,8358,6,0,P|340:372|301:364,1,72,2|2,0:0|0:0,0:0:0:0:
266,233,8940,2,0,P|304:254|316:292,1,72,2|2,0:0|0:0,0:0:0:0:
137,328,9523,2,0,B|166:318|171:275|171:275|190:313|229:317,1,135,2|0,0:0|0:0,0:0:0:0:
215,343,10105,37,2,0:0:0:0:
137,328,10397,1,2,0:0:0:0:
7,304,10688,22,0,L|25:140,1,135,2|2,0:0|0:0,0:0:0:0:
31,153,11270,2,0,L|39:234,1,45,10|0,0:0|0:0,0:0:0:0:
139,280,11562,6,0,B|172:298|172:298|210:266,1,72,2|0,0:0|0:0,0:0:0:0:
185,169,11853,2,0,B|152:151|152:151|114:183,1,72,2|0,0:0|0:0,0:0:0:0:
256,218,12144,37,2,0:0:0:0:
334,230,12435,1,10,0:0:0:0:
305,157,12727,1,2,0:0:0:0:
275,338,13018,6,0,L|365:326,1,90,2|2,0:0|0:0,0:0:0:0:
473,251,13601,2,0,L|383:239,1,90,10|2,0:0|0:0,0:0:0:0:
251,91,14183,2,0,B|275:136|275:136|253:227,1,135,2|0,0:0|0:0,0:0:0:0:
225,234,14766,1,10,0:0:0:0:
152,170,15057,1,2,0:0:0:0:
72,328,15348,38,0,P|101:369|167:364,1,90,2|2,0:0|0:0,0:0:0:0:
75,234,15931,2,0,P|24:238|-3:298,1,90,10|2,0:0|0:0,0:0:0:0:
152,170,16513,5,2,0:0:0:0:
85,40,16804,1,2,0:0:0:0:
5,165,17096,1,10,0:0:0:0:
80,125,17387,1,2,0:0:0:0:
7,17,17678,6,0,B|-5:26|-20:26|-20:26|86:40,1,135,2|0,0:0|0:0,0:0:0:0:
235,115,18261,2,0,P|216:58|163:85,1,135,2|0,0:0|0:0,0:0:0:0:
80,125,18843,1,2,0:0:0:0:
506,362,20008,6,0,L|488:229,1,121.499996292114,2|0,1:2|0:0,0:0:0:0:
466,214,20300,1,2,0:0:0:0:
331,256,20591,2,0,P|354:294|417:294,1,107.999996704102,10|2,0:0|0:0,0:0:0:0:
379,160,21173,1,2,0:0:0:0:
188,250,21465,38,0,L|210:370,1,80.9999975280763,2|0,1:2|0:0,0:0:0:0:
91,205,21756,1,10,0:0:0:0:
103,219,21901,2,0,L|81:339,1,80.9999975280763,0|0,1:0|0:0,0:0:0:0:
21,142,22193,1,0,1:0:0:0:
35,127,22338,6,0,B|101:83|101:83|172:152,1,161.999995056153,2|2,1:2|0:0,0:0:0:0:
311,53,22921,2,0,B|265:22|265:22|216:70,1,107.999996704102,10|2,0:0|0:0,0:0:0:0:
274,190,23503,2,0,L|267:128,1,53.9999983520508,2|0,0:0|0:0,0:0:0:0:
276,122,23795,38,0,L|296:300,1,161.999995056153,0|10,1:0|0:0,0:0:0:0:
358,341,24232,2,0,B|380:356|399:335|399:335|377:334|363:319,1,80.9999975280763,0|0,1:0|0:0,0:0:0:0:
281,364,24523,1,0,1:0:0:0:
148,314,24668,6,0,B|176:324|187:358|187:358|191:325|215:306,1,121.499996292114,2|0,1:2|0:0,0:0:0:0:
218,271,24960,1,2,0:0:0:0:
119,130,25251,2,0,P|130:183|147:235,1,107.999996704102,10|2,0:0|0:0,0:0:0:0:
230,120,25834,1,2,0:0:0:0:
357,280,26125,38,0,P|336:245|279:225,1,80.9999975280763,2|0,1:2|0:0,0:0:0:0:
459,129,26416,1,10,0:0:0:0:
438,132,26562,2,0,P|418:167|429:227,1,80.9999975280763,0|0,1:0|0:0,0:0:0:0:
289,70,26853,1,0,1:0:0:0:
300,81,26999,6,0,P|363:79|435:18,1,161.999995056153,2|2,1:2|0:0,0:0:0:0:
508,202,27581,2,0,P|492:162|438:131,1,107.999996704102,10|2,0:0|0:0,0:0:0:0:
326,218,28164,2,0,L|408:194,1,53.9999983520508,2|0,0:0|0:0,0:0:0:0:
424,213,28455,38,0,L|307:179,1,121.499996292114,0|0,1:0|0:0,0:0:0:0:
268,174,28747,1,2,0:0:0:0:
180,198,28892,1,0,1:0:0:0:
159,110,29038,1,0,0:0:0:0:
246,88,29184,1,0,1:0:0:0:
251,260,29329,6,0,P|193:233|82:208,1,170.999995433807,2|0,1:2|0:0,0:0:0:0:
11,253,29766,1,0,0:0:0:0:
2,265,29911,2,0,L|32:392,1,116.999994644165,10|2,0:0|0:0,0:0:0:0:
180,367,30494,1,2,0:0:0:0:
330,356,30785,38,0,P|305:317|326:255,1,85.4999977169037,2|0,1:2|0:0,0:0:0:0:
438,164,31076,1,10,0:0:0:0:
457,179,31222,2,0,P|435:220|371:232,1,85.4999977169037,0|0,1:0|0:0,0:0:0:0:
310,105,31513,1,0,1:0:0:0:
321,92,31659,6,0,B|348:64|348:64|315:242,1,170.999995433807,2|2,1:2|0:0,0:0:0:0:
176,158,32241,2,0,B|195:145|197:107|197:107|212:141|237:151,1,116.999994644165,10|2,0:0|0:0,0:0:0:0:
225,267,32824,2,0,L|217:215,1,45,2|0,0:0|0:0,0:0:0:0:
312,269,33115,38,0,L|115:300,1,170.999995433807,0|10,1:0|0:0,0:0:0:0:
59,237,33552,2,0,B|50:215|66:195|66:195|66:213|84:241,1,85.4999977169037,0|0,1:0|0:0,0:0:0:0:
52,336,33843,1,0,1:0:0:0:
193,365,33989,6,0,B|284:378|284:378|344:359|323:257,1,170.999995433807,2|2,1:2|0:0,0:0:0:0:
276,152,34571,2,0,B|212:177|212:177|197:207|225:228,1,116.999994644165,10|2,0:0|0:0,0:0:0:0:
376,217,35154,2,0,P|366:233|377:218,1,45,2|0,0:0|0:0,0:0:0:0:
455,201,35445,38,0,P|437:111|424:15,1,170.999995433807,2|10,1:2|0:0,0:0:0:0:
334,9,35882,2,0,B|310:14|300:33|300:33|317:26|349:38,1,85.4999977169037,0|0,1:0|0:0,0:0:0:0:
371,124,36173,1,0,1:0:0:0:
254,180,36319,5,2,1:2:0:0:
175,192,36901,1,2,0:0:0:0:
204,118,37484,1,2,0:0:0:0:
346,310,38067,37,2,0:0:0:0:
274,280,38358,1,2,0:0:0:0:
145,365,38649,6,0,P|88:348|10:333,1,121.499996292114,2|2,0:0|0:0,0:0:0:0:
9,358,39232,1,2,0:0:0:0:
31,164,39523,38,0,P|53:144|104:155,1,67.5000025749208,2|0,0:0|0:0,0:0:0:0:
112,240,39814,2,0,P|90:260|39:249,1,67.5000025749208,2|0,0:0|0:0,0:0:0:0:
161,176,40105,1,2,0:0:0:0:
306,307,40397,5,2,0:0:0:0:
363,250,40688,1,2,0:0:0:0:
260,129,40979,38,0,L|276:213,1,80.9999975280763,2|2,0:0|0:0,0:0:0:0:
184,286,41562,2,0,L|200:202,1,80.9999975280763,2|2,0:0|0:0,0:0:0:0:
266,344,42144,2,0,B|303:297|303:297|372:341,1,121.499996292114,2|0,0:0|0:0,0:0:0:0:
370,354,42727,1,2,0:0:0:0:
459,314,43018,1,2,0:0:0:0:
379,157,43309,6,0,P|363:203|385:245,1,80.9999975280763,2|2,0:0|0:0,0:0:0:0:
512,156,43892,2,0,P|480:119|432:117,1,80.9999975280763,2|2,0:0|0:0,0:0:0:0:
295,142,44474,2,0,B|250:128|250:128|237:102|237:102|164:84,1,121.499996292114,2|0,0:0|0:0,0:0:0:0:
165,98,45057,1,2,0:0:0:0:
108,22,45348,1,2,0:0:0:0:
0,237,45639,6,0,B|18:252|19:274|19:274|33:252|51:252,1,80.9999975280763,2|2,0:0|0:0,0:0:0:0:
77,131,46222,2,0,B|59:116|58:94|58:94|44:116|26:116,1,80.9999975280763,2|2,0:0|0:0,0:0:0:0:
126,286,46804,2,0,B|167:306|207:280|186:252|226:228|289:259,1,148.50000453186,2|0,0:0|0:0,0:0:0:0:
283,262,47387,37,2,0:0:0:0:
272,339,47678,1,2,0:0:0:0:
464,372,47969,22,0,P|453:342|435:237,1,135,2|2,0:0|0:0,0:0:0:0:
449,229,48552,2,0,P|446:244|427:294,1,45,10|0,0:0|0:0,0:0:0:0:
287,102,48843,6,0,B|298:87|317:84|317:84|338:95|339:118,1,72,2|0,0:0|0:0,0:0:0:0:
320,222,49134,2,0,B|309:237|290:240|290:240|269:229|268:206,1,72,2|0,0:0|0:0,0:0:0:0:
386,176,49426,37,2,0:0:0:0:
420,103,49717,1,10,0:0:0:0:
467,169,50008,1,2,0:0:0:0:
268,212,50300,6,0,P|241:185|158:168,1,90,2|2,0:0|0:0,0:0:0:0:
113,297,50882,2,0,P|149:287|206:223,1,90,10|2,0:0|0:0,0:0:0:0:
117,86,51465,2,0,B|95:115|95:115|117:223,1,135,2|0,0:0|0:0,0:0:0:0:
132,237,52047,37,10,0:0:0:0:
70,311,52338,1,2,0:0:0:0:
219,367,52630,6,0,B|262:357|262:357|263:354|263:354|310:344,1,90,2|2,0:0|0:0,0:0:0:0:
398,284,53212,2,0,B|355:274|355:274|354:271|354:271|307:261,1,90,10|2,0:0|0:0,0:0:0:0:
181,163,53795,37,2,0:0:0:0:
202,262,54086,1,2,0:0:0:0:
322,182,54377,1,10,0:0:0:0:
250,204,54668,1,2,0:0:0:0:
398,284,54960,5,2,0:0:0:0:
402,265,55542,1,2,0:0:0:0:
407,247,56125,1,2,0:0:0:0:
431,102,56707,38,0,P|396:144|440:103,1,202.500007724762,2|0,0:0|0:0,0:0:0:0:
478,36,57290,6,0,L|468:4,1,22.5,0|0,1:0|0:0,0:0:0:0:
444,1,57581,2,0,L|439:17,1,9,0|0,1:0|0:0,0:0:0:0:
299,137,57872,38,0,P|244:98|254:35,1,90,10|0,0:0|0:0,0:0:0:0:
86,20,58164,2,0,P|79:87|20:109,1,90,2|0,0:0|0:0,0:0:0:0:
98,261,58455,2,0,P|159:232|208:273,1,90,2|0,0:0|0:0,0:0:0:0:
331,334,58746,2,0,L|334:306,1,22.5,2|0,1:2|0:0,0:0:0:0:
430,181,59037,5,10,0:0:0:0:
414,197,59183,1,0,0:0:0:0:
459,375,59329,37,2,1:2:0:0:
437,369,59475,1,0,0:0:0:0:
236,226,59620,6,0,B|211:225|199:202|199:202|194:228|174:238,1,90,2|0,1:2|0:0,0:0:0:0:
192,339,59911,2,0,B|216:339|228:362|228:362|233:336|253:326,1,90,2|0,0:0|0:0,0:0:0:0:
346,135,60202,38,0,B|370:134|382:111|382:111|387:137|407:147,1,90,10|0,0:0|0:0,0:0:0:0:
386,251,60493,2,0,B|361:251|349:274|349:274|344:248|324:238,1,90,2|0,1:2|0:0,0:0:0:0:
146,84,60785,6,0,B|152:53|205:38|259:78|244:170|186:198|110:192|59:163|110:106|65:77|-21:111,1,362.250006909371,2|0,1:2|0:0,0:0:0:0:
3,123,61367,2,0,B|10:170|10:170|16:173|16:173|24:247,1,90,8|0,0:0|0:0,0:0:0:0:
188,338,61659,2,0,B|195:291|195:291|201:288|201:288|209:214,1,90,2|0,0:0|0:0,0:0:0:0:
427,5,61950,38,0,L|450:11,1,22.5,0|0,1:0|0:0,0:0:0:0:
472,26,62241,2,0,L|460:28,1,9,0|0,1:0|0:0,0:0:0:0:
291,142,62533,6,0,B|298:126|298:126|392:105,1,90,10|0,0:0|0:0,0:0:0:0:
176,194,62824,2,0,B|158:195|158:195|93:125,1,90,2|0,0:0|0:0,0:0:0:0:
274,266,63115,2,0,B|284:280|284:280|255:371,1,90,2|0,0:0|0:0,0:0:0:0:
62,301,63406,2,0,L|71:265,1,22.5,2|0,1:2|0:0,0:0:0:0:
124,353,63698,37,10,0:0:0:0:
141,356,63843,1,0,0:0:0:0:
291,269,63989,5,2,1:2:0:0:
274,266,64134,1,0,0:0:0:0:
124,65,64280,38,0,B|110:65|101:77|102:89|102:89|114:175,1,90,2|0,1:2|0:0,0:0:0:0:
276,58,64571,2,0,B|290:58|299:70|298:82|298:82|286:168,1,90,2|0,0:0|0:0,0:0:0:0:
59,2,64863,2,0,P|20:11|-13:72,1,90,10|0,0:0|0:0,0:0:0:0:
347,0,65154,2,0,P|386:9|419:70,1,90,2|0,1:2|0:0,0:0:0:0:
207,276,65445,6,0,B|136:192|97:247|-2:182|56:43|153:60|190:114|190:114|204:53|280:20|398:61|355:232|241:196|182:270|246:378,1,828.000015792847,2|0,1:2|0:0,0:0:0:0:
270,332,70397,38,0,P|294:327|316:297,1,60.7499981460572
387,277,70688,2,0,P|399:239|375:184,1,94.499997116089,10|0,0:0|0:0,0:0:0:0:
391,115,70979,2,0,P|355:75|274:66,1,135,8|0,0:0|0:0,0:0:0:0:
196,106,71270,6,0,P|212:180|226:279,1,144,2|2,1:2|0:0,0:0:0:0:
97,306,71853,2,0,P|108:269|127:223,1,80.9999975280763,10|2,0:0|0:0,0:0:0:0:
196,347,72435,1,2,0:0:0:0:
356,253,72727,38,0,B|390:241|390:241|419:271,1,72,2|0,1:2|0:0,0:0:0:0:
464,112,73018,1,10,0:0:0:0:
492,116,73164,2,0,B|519:139|519:139|508:181,1,72,0|0,1:0|0:0,0:0:0:0:
365,47,73455,1,0,1:0:0:0:
347,65,73601,6,0,B|321:82|321:82|241:75|241:75|219:47,1,144,2|2,1:2|0:0,0:0:0:0:
107,127,74183,2,0,B|119:111|119:111|164:107|164:107|177:117,1,80.9999975280763,10|2,0:0|0:0,0:0:0:0:
294,198,74766,38,0,B|301:152|352:156|383:201|325:232|325:232|290:255|310:314,1,202.500007724762,2|0,0:0|0:0,0:0:0:0:
268,206,75348,2,0,B|238:169|196:198|192:253|258:250|258:250|299:253|312:314,1,202.500007724762,2|0,0:0|1:0,0:0:0:0:
166,368,75931,6,0,P|101:337|30:317,1,135,2|0,1:2|0:0,0:0:0:0:
9,339,76513,1,10,0:0:0:0:
13,189,76804,1,2,0:0:0:0:
169,89,77096,37,2,0:0:0:0:
95,153,77387,2,0,P|68:107|18:98,1,76.5000014591217,2|0,1:2|0:0,0:0:0:0:
194,191,77678,1,10,0:0:0:0:
220,191,77824,2,0,P|246:144|228:97,1,76.5000014591217,0|0,1:0|0:0,0:0:0:0:
130,275,78115,1,0,1:0:0:0:
141,295,78261,6,0,B|212:288|212:288|220:283|220:283|304:273,1,153.000002918243,2|2,1:2|0:0,0:0:0:0:
409,197,78843,2,0,B|368:193|368:193|364:190|364:190|316:184,1,90,10|2,0:0|0:0,0:0:0:0:
387,314,79426,2,0,B|393:304|393:304|393:266,1,45,2|0,0:0|0:0,0:0:0:0:
408,346,79717,38,0,B|398:333|398:333|410:165,1,153.000002918243,0|10,1:0|0:0,0:0:0:0:
429,110,80154,2,0,B|442:111|461:94|461:94|454:117|466:135,1,76.5000014591217,0|0,1:0|0:0,0:0:0:0:
348,135,80445,1,0,1:0:0:0:
204,15,80591,6,0,P|246:32|298:48,1,90,2|2,1:2|0:0,0:0:0:0:
222,195,81173,2,0,P|215:150|203:97,1,90,10|2,0:0|0:0,0:0:0:0:
302,200,81756,1,2,0:0:0:0:
119,267,82047,38,0,P|89:230|43:221,1,76.5000014591217,2|0,1:2|0:0,0:0:0:0:
113,361,82338,1,10,0:0:0:0:
138,366,82484,2,0,P|185:358|215:323,1,76.5000014591217,0|0,1:0|0:0,0:0:0:0:
302,200,82775,1,0,1:0:0:0:
172,133,82921,5,2,1:2:0:0:
222,195,83503,1,2,0:0:0:0:
251,121,84086,1,2,0:0:0:0:
46,373,93698,38,0,L|58:325,1,40.4999987640381,0|0,1:0|0:0,0:0:0:0:
122,292,93989,2,0,L|104:220,1,67.5,2|0,1:2|0:0,0:0:0:0:
40,185,94280,2,0,L|69:68,1,94.499997116089,2|0,1:2|0:0,0:0:0:0:
131,38,94571,6,0,B|163:25|193:43|179:57|218:75|249:59,1,121.499996292114,2|2,1:2|0:0,0:0:0:0:
267,45,95154,1,2,0:0:0:0:
358,247,95445,38,0,B|374:215|374:215|359:185,1,62.9999980773926,2|0,0:0|0:0,0:0:0:0:
272,185,95736,2,0,B|256:217|256:217|271:247,1,62.9999980773926,2|0,0:0|0:0,0:0:0:0:
321,122,96028,1,2,0:0:0:0:
387,80,96319,1,2,0:0:0:0:
448,126,96610,1,2,0:0:0:0:
424,282,96901,6,0,P|376:270|357:245,1,80.9999975280763,2|2,0:0|0:0,0:0:0:0:
499,243,97484,2,0,P|512:290|500:319,1,80.9999975280763,2|2,0:0|0:0,0:0:0:0:
356,366,98067,2,0,B|349:351|333:346|333:346|277:338|277:338|252:338|247:353,1,121.499996292114,2|0,0:0|0:0,0:0:0:0:
227,371,98649,1,2,0:0:0:0:
137,332,98940,1,2,0:0:0:0:
214,151,99232,38,0,L|226:231,1,80.9999975280763,2|2,0:0|0:0,0:0:0:0:
124,252,99814,2,0,L|136:172,1,80.9999975280763,2|2,0:0|0:0,0:0:0:0:
137,332,100397,5,2,0:0:0:0:
56,339,100688,1,2,0:0:0:0:
48,261,100979,1,2,0:0:0:0:
124,252,101270,1,2,0:0:0:0:
281,359,101562,37,2,0:0:0:0:
297,355,102144,1,2,0:0:0:0:
314,351,102727,1,2,0:0:0:0:
360,181,103309,6,0,B|365:175|365:175|358:173|358:173|364:166|364:166|352:162|352:162|355:156|355:156|346:156|346:156|344:148|344:148|338:152|338:152|331:146|331:146|329:153|329:153|319:150|319:150|320:160|320:160,1,101.250003862381,2|0,0:0|0:0,0:0:0:0:
306,180,103601,2,0,B|300:185|300:185|307:187|307:187|301:194|301:194|313:198|313:198|310:204|310:204|319:204|319:204|321:212|321:212|327:208|327:208|334:214|334:214|336:207|336:207|346:210|346:210|345:200|345:200,1,101.250003862381,2|0,0:0|0:0,0:0:0:0:
494,142,103892,38,0,B|492:99|464:65|449:91|425:62|424:6,1,155.250002961159,2|0,1:2|0:0,0:0:0:0:
469,5,104183,2,0,B|482:45|467:86|444:67|431:102|450:156,1,155.250002961159,0|0,1:0|0:0,0:0:0:0:
424,262,104474,6,0,P|364:248|346:197,1,112.5,10|0,0:0|0:0,0:0:0:0:
96,208,104766,2,0,P|157:204|184:157,1,112.5,2|0,0:0|0:0,0:0:0:0:
291,15,105057,2,0,L|273:162,1,112.5,2|0,0:0|0:0,0:0:0:0:
258,277,105348,2,0,L|263:240,1,33.7500012874604,2|0,1:2|0:0,0:0:0:0:
241,349,105639,37,10,0:0:0:0:
257,351,105785,1,0,0:0:0:0:
266,135,105931,5,2,1:2:0:0:
283,137,106077,1,0,0:0:0:0:
123,289,106222,38,0,P|93:243|8:259,1,112.5,2|0,1:2|0:0,0:0:0:0:
232,113,106513,2,0,P|199:156|144:159,1,112.5,2|0,0:0|0:0,0:0:0:0:
37,0,106804,2,0,P|12:48|33:98,1,112.5,10|0,0:0|0:0,0:0:0:0:
311,81,107096,2,0,P|281:35|227:28,1,112.5,2|0,1:2|0:0,0:0:0:0:
268,306,107387,6,0,B|428:288|428:288|456:284|472:256|468:232|468:232|464:206|443:187|415:187|415:187|387:188|366:210|366:236|366:236|366:269|400:287,1,440.999986541748,2|0,1:2|0:0,0:0:0:0:
401,304,107969,38,0,L|532:284,1,112.5,8|2,0:0|0:0,0:0:0:0:
482,69,108261,2,0,L|351:89,1,112.5,2|0,0:0|0:0,0:0:0:0:
163,294,108552,6,0,L|170:324,1,22.5,0|0,1:0|0:0,0:0:0:0:
184,332,108843,2,0,L|186:322,1,9,0|0,1:0|0:0,0:0:0:0:
184,89,109134,38,0,P|128:88|104:159,1,112.5,10|0,0:0|0:0,0:0:0:0:
376,188,109426,2,0,P|363:136|312:120,1,112.5,2|0,0:0|0:0,0:0:0:0:
163,294,109717,2,0,B|193:305|195:338|195:338|213:309|241:311,1,112.5,2|0,0:0|0:0,0:0:0:0:
232,168,110008,6,0,L|222:211,1,33.7500012874604,2|0,1:2|0:0,0:0:0:0:
315,277,110300,37,10,0:0:0:0:
306,267,110445,1,0,0:0:0:0:
94,249,110591,5,2,1:2:0:0:
103,239,110736,1,0,0:0:0:0:
354,133,110882,38,0,B|373:119|403:124|416:139|416:139|395:141|360:172,1,112.5,2|0,1:2|0:0,0:0:0:0:
200,56,111173,2,0,B|193:33|208:6|226:0|226:0|221:20|238:63,1,112.5,2|0,0:0|0:0,0:0:0:0:
83,178,111465,2,0,B|59:176|39:153|39:133|39:133|56:145|103:144,1,112.5,10|0,0:0|0:0,0:0:0:0:
160,322,111756,2,0,B|149:343|121:354|102:347|102:347|119:336|134:291,1,112.5,2|0,1:2|0:0,0:0:0:0:
327,295,112047,2,0,B|344:311|344:341|331:357|331:357|326:336|289:307,1,112.5,2|0,1:2|0:0,0:0:0:0:
208,184,112338,6,0,P|217:189|210:182,1,23.6249992790222,0|0,1:0|0:0,0:0:0:0:
155,118,112630,37,10,0:0:0:0:
143,236,112775,1,0,0:0:0:0:
262,246,112921,1,2,0:0:0:0:
271,128,113067,1,0,0:0:0:0:
16,164,113212,6,0,B|25:240|25:240|56:269|56:269|65:359,1,198.000006042481,2|0,1:2|0:0,0:0:0:0:
166,336,113649,1,2,0:0:0:0:
271,322,113795,38,0,L|408:346,1,99.0000030212403,10|0,1:2|0:0,0:0:0:0:
454,199,114086,2,0,L|317:223,1,99.0000030212403,2|0,0:0|0:0,0:0:0:0:
261,332,114377,2,0,L|398:356,1,99.0000030212403,2|0,1:2|0:0,0:0:0:0:
461,187,114668,2,0,L|324:211,1,99.0000030212403,2|0,0:0|0:0,0:0:0:0:
231,155,114960,6,0,P|200:119|223:48,1,99.0000030212403,10|0,1:2|0:0,0:0:0:0:
317,38,115251,2,0,P|348:74|325:145,1,99.0000030212403,2|0,0:0|0:0,0:0:0:0:
248,240,115542,38,0,B|188:249|146:226|169:184|128:153|48:187,1,198.000006042481,2|0,1:2|0:0,0:0:0:0:
33,93,115979,1,2,0:0:0:0:
0,9,116125,2,0,B|43:-15|43:-15|119:24,1,99.0000030212403,10|0,1:2|0:0,0:0:0:0:
215,103,116416,2,0,L|106:84,1,99.0000030212403,2|0,0:0|0:0,0:0:0:0:
240,29,116707,6,0,B|237:10|237:10|269:10|292:-4|292:-4|294:22|310:43|310:43|294:55,1,148.50000453186,2|0,1:2|0:0,0:0:0:0:
296,91,116999,38,0,P|324:122|372:117,1,76.5000014591217,2|0,0:0|0:0,0:0:0:0:
467,31,117290,2,0,P|426:39|406:83,1,76.5000014591217,10|0,1:2|0:0,0:0:0:0:
438,207,117581,2,0,P|450:167|422:128,1,76.5000014591217,2|0,0:0|0:0,0:0:0:0:
292,192,117872,6,0,B|301:245|301:245|305:252|305:252|318:319,1,125.999996154785,2|2,1:2|0:0,0:0:0:0:
92,218,118455,2,0,B|133:183|133:183|137:176|137:176|188:131,1,125.999996154785,10|2,1:2|0:0,0:0:0:0:
207,377,119037,1,2,0:0:0:0:
125,348,119329,1,2,1:2:0:0:
155,263,119620,1,10,0:0:0:0:
239,293,119911,1,2,0:0:0:0:
388,192,120202,37,2,1:2:0:0:
460,223,120494,1,2,0:0:0:0:
453,302,120785,1,2,0:0:0:0:
375,321,121076,1,2,0:0:0:0:
334,252,121367,1,2,0:0:0:0:
