osu file format v14

[General]
AudioFilename: Bella_Poarch_-_Build_a_Bitch_192.mp3
AudioLeadIn: 0
PreviewTime: 748
Countdown: 0
SampleSet: Soft
StackLeniency: 0.7
Mode: 0
LetterboxInBreaks: 0
WidescreenStoryboard: 1

[Editor]
DistanceSpacing: 0.8
BeatDivisor: 8
GridSize: 16
TimelineZoom: 1

[Metadata]
Title:Build a Bitch
TitleUnicode:Build a Bitch
Artist:Bella Poarch
ArtistUnicode:Bella Poarch
Creator:Kyouren
Version:Crowley's Insane
Source:
Tags:pop english ​dark dark-pop salem ilese Sub Urban Justin Gammella Elie Rizk David Arkwright Stefan Max Warner Records kittyadventure gokugohan12468 b*tch tomadoi shiinoha kotone tricolor [-evil-] evil crowley bakugo- bakugo kieg enri collab collaboration FinnB FiNNb Fynbi davidminh0111 fiscia h o n e y h_o_n_e_y honey
BeatmapID:3109152
BeatmapSetID:1499531

[Difficulty]
HPDrainRate:4.5
CircleSize:4
OverallDifficulty:8
ApproachRate:8.2
SliderMultiplier:1
SliderTickRate:1

[Events]
//Background and Video events
0,0,"Bella_20Vogue_20ex.jpg",0,0
//Break Periods
2,66810,69385
//Storyboard Layer 0 (Background)
//Storyboard Layer 1 (Fail)
//Storyboard Layer 2 (Pass)
//Storyboard Layer 3 (Foreground)
//Storyboard Layer 4 (Overlay)
//Storyboard Sound Samples

[TimingPoints]
1368,582.52427184466,4,2,1,50,1,0
2241,-66.6666666666667,4,2,1,50,0,0
2533,-50,4,2,1,50,0,0
3698,-100,4,2,1,50,0,0
7193,-50,4,2,1,50,0,0
8358,-100,4,2,1,50,0,0
9523,-43.4782608695652,4,2,1,50,0,0
10688,-66.6666666666667,4,2,1,50,0,0
11853,-66.6666666666667,4,2,1,50,0,0
14183,-50,4,2,1,50,0,0
15348,-66.6666666666667,4,2,1,50,0,0
19717,-133.333333333333,4,2,1,50,0,0
20008,-41.6666666666667,4,2,1,60,0,0
20591,-100,4,2,1,60,0,0
21465,-41.6666666666667,4,2,1,60,0,0
22921,-100,4,2,1,60,0,0
23795,-41.6666666666667,4,2,1,60,0,0
25251,-100,4,2,1,60,0,0
26125,-41.6666666666667,4,2,1,60,0,0
29329,-37.037037037037,4,2,1,60,0,0
30494,-83.3333333333333,4,2,1,60,0,0
30785,-37.037037037037,4,2,1,60,0,0
36319,-133.333333333333,4,2,1,60,0,0
38649,-100,4,2,1,50,0,0
39523,-66.6666666666667,4,2,1,50,0,0
39814,-50,4,2,1,50,0,0
40979,-100,4,2,1,50,0,0
47969,-66.6666666666667,4,2,1,60,0,0
56707,-133.333333333333,4,2,2,70,0,0
57290,-25.6410256410256,4,2,1,80,0,1
57872,-40,4,2,1,70,0,1
58746,-25.6410256410256,4,2,1,70,0,1
60785,-40,4,2,1,70,0,1
61950,-100,4,2,1,70,0,1
62533,-40,4,2,1,70,0,1
63406,-25.6410256410256,4,2,1,70,0,1
65445,-40,4,2,1,70,0,1
66610,-50,4,2,1,50,0,0
70979,-45.4545454545455,4,2,1,50,0,0
71270,-41.6666666666667,4,2,1,60,0,0
71853,-100,4,2,1,60,0,0
72727,-41.6666666666667,4,2,1,60,0,0
74183,-100,4,2,1,60,0,0
75057,-41.6666666666667,4,2,1,60,0,0
75931,-37.037037037037,4,2,1,60,0,0
76513,-83.3333333333333,4,2,1,60,0,0
77387,-37.037037037037,4,2,1,60,0,0
78843,-83.3333333333333,4,2,1,60,0,0
79717,-37.037037037037,4,2,1,60,0,0
81173,-83.3333333333333,4,2,1,60,0,0
82047,-37.037037037037,4,2,1,60,0,0
82921,-133.333333333333,4,2,1,60,0,0
83503,-40,4,2,1,60,0,0
85251,-133.333333333333,4,2,1,50,0,0
94571,-100,4,2,1,60,0,0
103309,-33.3333333333333,4,2,2,70,0,0
103528,-33.3333333333333,4,2,2,5,0,0
103601,-33.3333333333333,4,2,2,70,0,0
103820,-33.3333333333333,4,2,2,5,0,0
103892,-25.6410256410256,4,2,5,90,0,1
104037,-25.6410256410256,4,2,1,90,0,1
104474,-40,4,2,1,80,0,1
105348,-25.6410256410256,4,2,1,80,0,1
107387,-40,4,2,1,80,0,1
108552,-100,4,2,1,80,0,1
109134,-40,4,2,1,80,0,1
110008,-25.6410256410256,4,2,1,80,0,1
112047,-40,4,2,1,80,0,1
113212,-25.6410256410256,4,2,1,90,0,1
113795,-40,4,2,1,90,0,1
115542,-25.6410256410256,4,2,1,90,0,1
116125,-40,4,2,1,90,0,1
120202,-40,4,2,1,70,0,0
120494,-40,4,2,1,60,0,0
120785,-40,4,2,1,50,0,0
121076,-40,4,2,1,40,0,0
121367,-40,4,2,1,30,0,0

[Colours]
Combo1 : 255,130,65
Combo2 : 190,190,190

[HitObjects]
97,36,785,5,2,0:0:0:0:
97,36,1076,1,2,0:0:0:0:
97,36,1368,6,0,P|105:80|108:129,1,75,2|2,0:0|0:0,0:0:0:0:
108,124,1950,1,2,0:0:0:0:
245,237,2241,38,0,P|211:216|181:206,1,37.5000014305115,2|0,0:0|0:0,0:0:0:0:
314,190,2533,2,0,P|257:213|146:298,1,200,2|2,0:0|0:0,0:0:0:0:
107,363,3406,1,2,0:0:0:0:
141,185,3698,5,2,0:0:0:0:
35,220,3989,1,2,0:0:0:0:
174,55,4280,37,2,0:0:0:0:
152,164,4571,1,2,0:0:0:0:
130,273,4863,2,0,L|139:339,1,50,2|0,0:0|0:0,0:0:0:0:
214,357,5445,5,2,0:0:0:0:
43,253,5736,1,2,0:0:0:0:
280,186,6028,38,0,L|350:196,1,50,2|2,0:0|0:0,0:0:0:0:
397,261,6610,2,0,L|467:271,1,50,2|2,0:0|0:0,0:0:0:0:
279,266,7193,6,0,B|386:275|353:180|471:188,1,200,2|2,0:0|0:0,0:0:0:0:
508,237,8067,1,2,0:0:0:0:
332,23,8358,21,2,0:0:0:0:
306,115,8649,1,2,0:0:0:0:
395,78,8940,37,2,0:0:0:0:
201,45,9232,1,2,0:0:0:0:
184,56,9377,1,0,0:0:0:0:
168,66,9523,6,0,B|120:24|48:41|9:115|84:168|122:110,1,230.000004386902,2|2,0:0|0:0,0:0:0:0:
17,2,10397,1,2,0:0:0:0:
41,248,10688,6,0,P|36:323|33:367,1,112.500004291535,2|2,0:0|0:0,0:0:0:0:
41,369,11270,1,10,0:0:0:0:
245,286,11562,1,2,0:0:0:0:
222,270,11707,1,0,0:0:0:0:
283,228,11853,5,2,0:0:0:0:
175,329,12144,1,2,0:0:0:0:
323,384,12435,2,0,P|360:369|417:350,1,75.0000028610231,10|2,0:0|0:0,0:0:0:0:
168,190,13018,38,0,L|174:133,1,37.5000014305115,2|0,0:0|0:0,0:0:0:0:
174,140,13309,1,2,0:0:0:0:
237,231,13601,1,10,0:0:0:0:
86,163,13892,1,2,0:0:0:0:
235,60,14183,6,0,P|324:47|450:13,1,200,2|10,0:0|0:0,0:0:0:0:
487,70,15057,1,2,0:0:0:0:
372,221,15348,37,2,0:0:0:0:
456,356,15639,1,2,0:0:0:0:
487,249,15931,5,10,0:0:0:0:
317,314,16222,1,2,0:0:0:0:
147,379,16513,2,0,L|155:302,1,75.0000028610231,2|2,0:0|0:0,0:0:0:0:
228,334,17096,37,10,0:0:0:0:
56,257,17387,1,2,0:0:0:0:
208,147,17678,1,2,0:0:0:0:
256,192,17824,12,2,19426,0:0:0:0:
125,65,19717,6,0,L|129:97,1,28.1250010728836
173,13,20008,38,0,P|146:91|124:192,1,179.999994506836,2|0,1:2|0:0,0:0:0:0:
169,261,20591,6,0,P|202:293|223:300,1,50,10|2,0:0|0:0,0:0:0:0:
239,225,21173,1,2,0:0:0:0:
17,379,21465,2,0,P|78:346|157:328,1,119.999996337891,2|10,1:2|0:0,0:0:0:0:
140,339,21901,1,0,1:0:0:0:
334,378,22193,1,0,1:0:0:0:
352,384,22338,38,0,P|371:312|421:196,1,179.999994506836,2|0,1:2|0:0,0:0:0:0:
457,152,22921,5,10,0:0:0:0:
471,289,23212,1,2,0:0:0:0:
326,187,23503,1,2,0:0:0:0:
335,170,23649,1,0,0:0:0:0:
396,211,23795,38,0,P|336:222|263:252,1,119.999996337891,0|10,1:0|0:0,0:0:0:0:
128,328,24232,1,0,1:0:0:0:
128,328,24523,1,0,1:0:0:0:
258,384,24668,6,0,P|263:260|262:190,1,179.999994506836,2|0,1:2|0:0,0:0:0:0:
210,148,25251,2,0,P|180:158|159:178,1,50,10|2,0:0|0:0,0:0:0:0:
150,243,25834,1,2,0:0:0:0:
302,123,26125,38,0,P|371:95|443:74,1,119.999996337891,2|10,1:2|0:0,0:0:0:0:
426,94,26562,1,0,1:0:0:0:
243,5,26853,1,0,1:0:0:0:
228,24,26999,6,0,P|141:50|58:84,1,179.999994506836,2|0,1:2|0:0,0:0:0:0:
17,151,27581,1,10,0:0:0:0:
74,0,27872,1,2,0:0:0:0:
155,180,28164,1,2,0:0:0:0:
127,171,28309,1,0,0:0:0:0:
200,127,28455,38,0,P|183:194|172:251,1,119.999996337891,0|2,1:0|0:0,0:0:0:0:
77,333,28892,1,0,1:0:0:0:
136,375,29037,2,0,P|107:366|85:347,1,59.9999981689454,0|0,0:0|1:0,0:0:0:0:
274,222,29329,6,0,P|270:280|160:294,1,135.000000514984,2|0,1:2|0:0,0:0:0:0:
97,252,29766,1,0,0:0:0:0:
97,252,29911,2,0,P|104:187|162:158,1,135.000000514984,10|2,0:0|0:0,0:0:0:0:
354,84,30494,38,0,P|329:102|306:110,1,29.9999990844727,2|0,0:0|0:0,0:0:0:0:
376,166,30785,2,0,P|315:119|222:92,1,135.000000514984,2|10,1:2|0:0,0:0:0:0:
243,108,31222,1,0,1:0:0:0:
83,0,31513,1,0,1:0:0:0:
100,76,31659,5,2,1:2:0:0:
259,9,31950,1,2,0:0:0:0:
247,191,32241,37,10,0:0:0:0:
183,40,32533,1,2,0:0:0:0:
70,211,32824,1,2,0:0:0:0:
106,196,32969,1,0,0:0:0:0:
15,132,33115,6,0,P|29:187|43:283,1,135.000000514984,0|10,1:0|0:0,0:0:0:0:
185,373,33552,1,0,1:0:0:0:
185,373,33843,1,0,1:0:0:0:
116,289,33989,38,0,P|212:271|284:260,1,135.000000514984,2|2,1:2|0:0,0:0:0:0:
329,296,34571,1,10,0:0:0:0:
188,187,34863,1,2,0:0:0:0:
341,304,35154,1,2,0:0:0:0:
461,66,35445,6,0,P|404:82|317:96,1,135.000000514984,2|10,1:2|0:0,0:0:0:0:
310,87,35882,1,0,1:0:0:0:
427,275,36173,1,0,1:0:0:0:
501,186,36319,37,2,1:2:0:0:
257,18,38067,5,2,0:0:0:0:
257,18,38358,1,2,0:0:0:0:
257,18,38649,38,0,P|199:8|143:5,1,100,2|2,0:0|0:0,0:0:0:0:
23,145,39523,2,0,P|46:134|81:124,1,37.5000014305115,2|0,0:0|0:0,0:0:0:0:
75,126,39814,2,0,P|63:169|59:251,2,100,2|2|2,0:0|0:0|0:0,0:0:0:0:
279,363,40979,6,0,P|271:318|263:295,1,50,2|2,0:0|0:0,0:0:0:0:
395,266,41562,2,0,P|403:221|411:198,1,50,2|2,0:0|0:0,0:0:0:0:
248,131,42144,1,2,0:0:0:0:
311,171,42435,1,0,0:0:0:0:
197,227,42727,2,0,L|133:213,1,50,2|2,0:0|0:0,0:0:0:0:
12,380,43309,38,0,L|83:363,1,50,2|2,0:0|0:0,0:0:0:0:
158,306,43892,2,0,L|206:317,1,50,2|2,0:0|0:0,0:0:0:0:
58,232,44474,2,0,L|9:243,2,50,2|0|2,0:0|0:0|0:0,0:0:0:0:
303,36,45639,38,0,P|310:68|314:100,1,50,2|2,0:0|0:0,0:0:0:0:
214,108,46222,2,0,P|208:83|204:58,1,50,2|2,0:0|0:0,0:0:0:0:
395,144,46804,37,2,0:0:0:0:
295,175,47096,1,0,0:0:0:0:
331,277,47387,1,2,0:0:0:0:
431,246,47679,1,2,0:0:0:0:
228,379,47969,22,0,P|171:366|52:352,1,150.000005722046,2|10,0:0|0:0,0:0:0:0:
415,171,49134,5,2,0:0:0:0:
396,283,49426,1,2,0:0:0:0:
418,162,49717,2,0,P|451:148|519:136,1,75.0000028610231,10|2,0:0|0:0,0:0:0:0:
258,6,50300,38,0,P|241:40|244:110,1,75.0000028610231,2|2,0:0|0:0,0:0:0:0:
352,118,50882,2,0,P|368:84|373:47,1,75.0000028610231,10|2,0:0|0:0,0:0:0:0:
196,204,51465,6,0,P|135:188|144:84,1,150.000005722046,2|8,0:0|0:0,0:0:0:0:
246,9,52338,1,2,0:0:0:0:
295,154,52630,38,0,P|285:189|269:253,1,75.0000028610231,2|0,0:0|0:0,0:0:0:0:
404,147,53212,2,0,P|394:110|384:74,1,75.0000028610231,8|0,0:0|0:0,0:0:0:0:
261,26,53795,1,2,0:0:0:0:
384,74,54086,1,2,0:0:0:0:
269,151,54377,2,0,P|271:188|275:230,1,75.0000028610231,10|2,0:0|0:0,0:0:0:0:
490,376,54960,5,2,0:0:0:0:
490,376,55542,1,2,0:0:0:0:
490,376,56125,1,2,0:0:0:0:
490,376,56707,38,0,L|498:310,1,65.6250025033952,2|0,0:0|0:0,0:0:0:0:
461,238,57290,6,0,B|335:201|335:201|390:346,1,195.000000743866,0|0,1:0|1:0,0:0:0:0:
361,269,57727,1,0,0:0:0:0:
262,370,57872,38,0,P|223:348|206:314,1,62.5,10|0,0:0|0:0,0:0:0:0:
205,254,58164,1,2,0:0:0:0:
349,350,58455,1,2,0:0:0:0:
94,377,58746,6,0,P|81:235|65:163,1,195.000000743866,2|10,1:2|0:0,0:0:0:0:
28,124,59183,1,0,0:0:0:0:
195,47,59329,2,0,P|175:92|98:77,1,97.500000371933,2|0,1:2|0:0,0:0:0:0:
5,309,59620,38,0,P|77:261|212:261,2,195.000000743866,2|2|10,1:2|0:0|0:0,0:0:0:0:
71,351,60348,1,0,0:0:0:0:
15,209,60494,2,0,P|17:133|24:38,1,146.250000557899,2|0,1:2|0:0,0:0:0:0:
32,55,60785,6,0,B|108:48|77:108|152:102,1,125,2|0,1:2|1:0,0:0:0:0:
202,59,61222,1,0,0:0:0:0:
321,182,61367,37,8,0:0:0:0:
323,162,61513,1,0,0:0:0:0:
248,195,61659,5,0,0:0:0:0:
402,161,61804,1,0,0:0:0:0:
412,158,61950,38,0,L|417:100,1,50,0|0,1:0|1:0,0:0:0:0:
244,0,62533,6,0,L|250:74,1,62.5,10|0,0:0|0:0,0:0:0:0:
318,93,62824,1,2,0:0:0:0:
146,18,63115,1,2,0:0:0:0:
28,221,63406,38,0,P|116:174|235:144,1,195.000000743866,2|10,1:2|0:0,0:0:0:0:
281,166,63843,1,0,0:0:0:0:
211,316,63989,2,0,P|205:280|269:241,1,97.500000371933,2|0,1:2|0:0,0:0:0:0:
72,80,64280,6,0,P|105:153|121:266,2,195.000000743866,2|2|10,1:2|0:0|0:0,0:0:0:0:
10,123,65008,1,0,0:0:0:0:
177,20,65154,2,0,P|259:38|345:47,1,146.250000557899,2|0,1:2|0:0,0:0:0:0:
338,51,65445,38,0,P|266:55|200:69,1,125,2|0,1:2|1:0,0:0:0:0:
381,326,66028,5,8,0:0:0:0:
429,315,66173,1,0,0:0:0:0:
440,269,66319,1,0,0:0:0:0:
347,242,66465,1,0,0:0:0:0:
489,366,66610,37,2,0:0:0:0:
389,126,70105,5,2,0:0:0:0:
371,136,70251,1,0,0:0:0:0:
362,79,70397,38,0,P|411:97|473:111,1,100,0|10,0:0|0:0,0:0:0:0:
473,108,70834,1,8,0:0:0:0:
498,174,70979,2,0,B|488:199|488:199|468:177,1,55.0000016784668,8|0,0:0|1:0,0:0:0:0:
315,31,71270,6,0,P|264:50|114:87,1,179.999994506836,2|0,1:2|0:0,0:0:0:0:
66,70,71853,2,0,P|51:50|47:25,1,50,10|2,0:0|0:0,0:0:0:0:
119,14,72435,1,2,0:0:0:0:
19,180,72727,38,0,P|5:229|-5:306,1,119.999996337891,2|10,1:2|0:0,0:0:0:0:
1,309,73164,1,0,1:0:0:0:
195,367,73455,1,0,1:0:0:0:
210,374,73601,6,0,P|195:270|190:175,1,179.999994506836,2|0,1:2|0:0,0:0:0:0:
220,126,74183,1,10,0:0:0:0:
110,227,74474,1,2,0:0:0:0:
316,265,74766,1,2,0:0:0:0:
310,248,74911,1,0,0:0:0:0:
389,265,75057,38,0,P|330:278|259:317,1,119.999996337891,0|2,1:0|0:0,0:0:0:0:
140,380,75494,1,0,1:0:0:0:
140,380,75785,1,0,1:0:0:0:
42,325,75931,6,0,P|37:263|3:179,1,135.000000514984,2|0,1:2|0:0,0:0:0:0:
133,93,76367,1,0,0:0:0:0:
141,101,76513,38,0,P|130:134|125:151,1,29.9999990844727,10|0,0:0|0:0,0:0:0:0:
58,134,76804,1,2,0:0:0:0:
220,72,77096,1,2,0:0:0:0:
418,213,77387,6,0,L|429:139,1,67.5000002574921,2|0,1:2|0:0,0:0:0:0:
350,166,77678,1,10,0:0:0:0:
502,120,77824,1,0,1:0:0:0:
502,120,78115,1,0,1:0:0:0:
321,60,78261,38,0,P|266:69|154:97,1,135.000000514984,2|2,1:2|0:0,0:0:0:0:
180,89,78698,1,0,0:0:0:0:
86,28,78843,6,0,L|79:-2,1,29.9999990844727,10|0,0:0|0:0,0:0:0:0:
107,121,79134,2,0,L|114:151,1,29.9999990844727,2|0,0:0|0:0,0:0:0:0:
29,94,79426,1,2,0:0:0:0:
210,215,79717,38,0,P|143:229|31:274,1,135.000000514984,0|10,1:0|0:0,0:0:0:0:
8,357,80154,1,0,1:0:0:0:
8,357,80445,1,0,1:0:0:0:
80,250,80591,6,0,P|143:228|210:215,1,135.000000514984,2|2,1:2|0:0,0:0:0:0:
304,267,81028,1,0,0:0:0:0:
313,271,81173,38,0,L|308:313,1,29.9999990844727,10|0,0:0|0:0,0:0:0:0:
246,344,81465,1,2,0:0:0:0:
391,265,81756,1,2,0:0:0:0:
198,137,82047,6,0,P|206:98|213:49,1,67.5000002574921,2|0,1:2|0:0,0:0:0:0:
281,120,82338,1,10,0:0:0:0:
141,29,82484,1,0,1:0:0:0:
141,29,82775,1,0,1:0:0:0:
281,120,82921,38,0,L|327:112,1,37.5000014305115,2|2,1:2|0:0,0:0:0:0:
492,20,83503,6,0,B|414:42|348:122|449:218|495:113,2,250,2|2|2,0:0|0:0|0:0,0:0:0:0:
498,25,84960,1,2,0:0:0:0:
498,25,85251,38,0,L|507:100,1,75.0000028610231,2|2,0:0|0:0,0:0:0:0:
433,208,86416,2,0,L|438:253,3,37.5000014305115,2|2|2|2,0:0|0:0|0:0|0:0,0:0:0:0:
354,328,87581,6,0,L|363:253,1,75.0000028610231,2|2,0:0|0:0,0:0:0:0:
289,145,88746,2,0,L|294:100,3,37.5000014305115,2|2|2|2,0:0|0:0|0:0|0:0,0:0:0:0:
209,22,89911,38,0,L|218:97,1,75.0000028610231,2|2,0:0|0:0,0:0:0:0:
144,205,91076,2,0,L|149:250,3,37.5000014305115,2|0|2|2,0:0|0:0|0:0|0:0,0:0:0:0:
65,325,92241,38,0,L|74:250,1,75.0000028610231,2|2,0:0|0:0,0:0:0:0:
0,142,93406,2,0,L|5:97,1,37.5000014305115,2|0,0:0|1:0,0:0:0:0:
59,46,93989,1,2,1:2:0:0:
59,46,94280,1,2,1:2:0:0:
173,174,94571,6,0,P|185:112|199:56,1,100,2|2,1:2|0:0,0:0:0:0:
198,66,95736,5,2,0:0:0:0:
238,21,96028,1,2,0:0:0:0:
292,45,96319,1,2,0:0:0:0:
286,105,96610,1,2,0:0:0:0:
160,190,96901,38,0,P|114:201|46:213,1,100,2|2,0:0|0:0,0:0:0:0:
12,151,97775,1,2,0:0:0:0:
61,219,98067,2,0,P|50:259|47:283,1,50,2|2,0:0|0:0,0:0:0:0:
115,317,98649,2,0,P|122:293|127:268,1,50,2|2,0:0|0:0,0:0:0:0:
258,140,99232,6,0,P|310:129|365:125,1,100,2|2,0:0|0:0,0:0:0:0:
367,129,100397,1,2,0:0:0:0:
398,162,100688,1,2,0:0:0:0:
438,142,100979,1,2,0:0:0:0:
432,98,101270,1,2,0:0:0:0:
256,20,101562,37,2,0:0:0:0:
256,20,102144,1,2,0:0:0:0:
256,20,102727,1,2,0:0:0:0:
256,18,103309,6,0,B|304:78|265:68|308:132,1,112.500004291535,2|0,0:0|0:0,0:0:0:0:
237,165,103601,6,0,B|189:225|228:215|185:279,1,112.500004291535,2|0,0:0|0:0,0:0:0:0:
106,306,103892,6,0,B|5:322|5:322|37:202,1,195.000000743866,2|0,1:2|1:0,0:0:0:0:
33,222,104329,1,0,0:0:0:0:
166,351,104474,38,0,P|183:301|179:279,1,62.5,10|0,0:0|0:0,0:0:0:0:
132,232,104766,1,2,0:0:0:0:
331,170,105057,1,2,0:0:0:0:
182,33,105348,6,0,P|204:90|244:239,1,195.000000743866,2|10,1:2|0:0,0:0:0:0:
307,260,105785,1,0,0:0:0:0:
248,353,105931,2,0,P|293:318|270:262,1,97.500000371933,2|0,1:2|0:0,0:0:0:0:
127,156,106222,38,0,P|204:126|349:57,2,195.000000743866,2|2|10,1:2|0:0|0:0,0:0:0:0:
172,218,106950,1,0,0:0:0:0:
129,35,107096,2,0,P|66:38|34:133,1,146.250000557899,2|0,1:2|0:0,0:0:0:0:
37,106,107387,6,0,P|47:183|53:251,1,125,2|0,1:2|1:0,0:0:0:0:
0,284,107824,1,0,0:0:0:0:
196,362,107969,1,8,0:0:0:0:
193,342,108115,1,2,0:0:0:0:
122,363,108261,37,2,0:0:0:0:
264,340,108406,1,0,0:0:0:0:
278,337,108552,6,0,L|288:280,1,50,0|0,1:0|1:0,0:0:0:0:
123,227,109134,38,0,L|131:288,1,62.5,10|0,0:0|0:0,0:0:0:0:
200,319,109426,1,2,0:0:0:0:
50,240,109717,1,2,0:0:0:0:
258,162,110008,6,0,P|346:115|465:85,1,195.000000743866,2|10,1:2|0:0,0:0:0:0:
511,107,110445,1,0,0:0:0:0:
441,257,110591,2,0,P|435:221|499:182,1,97.500000371933,2|0,1:2|0:0,0:0:0:0:
302,21,110882,38,0,P|335:94|351:207,2,195.000000743866,2|2|10,1:2|0:0|0:0,0:0:0:0:
71,97,111756,2,0,P|114:152|207:136,1,146.250000557899,2|0,1:2|0:0,0:0:0:0:
201,145,112047,6,0,P|146:142|93:213,1,125,2|0,1:2|1:0,0:0:0:0:
95,201,112484,1,0,0:0:0:0:
245,327,112630,37,10,0:0:0:0:
259,246,112775,1,0,0:0:0:0:
175,231,112921,1,2,0:0:0:0:
161,312,113066,1,0,0:0:0:0:
325,194,113212,6,0,B|446:178|345:106|502:86,1,195.000000743866,2|0,1:2|0:0,0:0:0:0:
476,90,113649,1,2,0:0:0:0:
269,25,113795,2,0,P|269:64|305:97,1,62.5,10|0,1:2|0:0,0:0:0:0:
362,65,114086,2,0,P|364:29|347:6,1,62.5,2|0,0:0|0:0,0:0:0:0:
160,157,114377,38,0,P|85:108|26:92,1,125,2|2,1:2|0:0,0:0:0:0:
47,236,114960,1,10,1:2:0:0:
176,42,115251,1,2,0:0:0:0:
45,243,115542,6,0,P|109:221|251:202,1,195.000000743866,2|0,1:2|0:0,0:0:0:0:
234,202,115979,1,2,0:0:0:0:
123,384,116125,2,0,P|93:367|85:329,1,62.5,10|0,1:2|0:0,0:0:0:0:
138,293,116416,2,0,P|165:306|177:335,1,62.5,2|0,0:0|0:0,0:0:0:0:
341,218,116707,38,0,P|325:264|240:280,1,125,2|2,1:2|0:0,0:0:0:0:
22,144,117290,1,10,1:2:0:0:
93,111,117435,1,0,0:0:0:0:
167,87,117581,1,2,0:0:0:0:
243,70,117726,1,0,0:0:0:0:
321,62,117872,5,2,1:2:0:0:
167,87,118164,1,2,0:0:0:0:
243,70,118455,1,10,1:2:0:0:
93,111,118746,1,2,0:0:0:0:
22,144,119037,37,2,1:2:0:0:
167,87,119329,1,2,0:0:0:0:
93,111,119620,1,10,1:2:0:0:
243,70,119912,1,2,0:0:0:0:
22,144,120202,5,2,1:2:0:0:
93,111,120494,37,2,0:0:0:0:
167,87,120785,5,2,0:0:0:0:
243,70,121076,5,2,0:0:0:0:
321,62,121367,5,2,0:0:0:0:
