osu file format v14

[General]
AudioFilename: audio.mp3
AudioLeadIn: 0
PreviewTime: 99929
Countdown: 0
SampleSet: Soft
StackLeniency: 0.7
Mode: 2
LetterboxInBreaks: 0
WidescreenStoryboard: 1

[Editor]
Bookmarks: 31897,62865,87639,109317,134091,160526,180388,202525,227231,241348
DistanceSpacing: 0.8
BeatDivisor: 4
GridSize: 4
TimelineZoom: 3.099999

[Metadata]
Title:Moonlight Sonata 3rd Movement (meganeko remix)
TitleUnicode:Moonlight Sonata 3rd Movement (meganeko remix)
Artist:Beethoven
ArtistUnicode:Beethoven
Creator:Dapuluous
Version:Hyperion's Platter
Source:
Tags:electronic instrumental classical classic featured artist fa jbh jbhyperion sololiquy
BeatmapID:3550346
BeatmapSetID:1734804

[Difficulty]
HPDrainRate:4
CircleSize:3.5
OverallDifficulty:8
ApproachRate:8
SliderMultiplier:1.9
SliderTickRate:2

[Events]
//Background and Video events
0,0,"Moonlight.jpg",0,0
//Break Periods
2,88413,93083
2,180802,186258
2,222995,225819
//Storyboard Layer 0 (Background)
//Storyboard Layer 1 (Fail)
//Storyboard Layer 2 (Pass)
//Storyboard Layer 3 (Foreground)
//Storyboard Layer 4 (Overlay)
//Storyboard Sound Samples

[TimingPoints]
930,387.096774193548,4,2,1,40,1,0
930,-100,4,2,1,55,0,0
3639,-100,4,2,2,40,0,0
3833,-100,4,2,1,55,0,0
4026,-100,4,2,1,40,0,0
6736,-100,4,2,2,40,0,0
6929,-100,4,2,1,55,0,0
7123,-100,4,2,1,40,0,0
9833,-100,4,2,2,40,0,0
10026,-100,4,2,1,55,0,0
10220,-100,4,2,1,40,0,0
11381,-100,4,2,2,40,0,0
11575,-100,4,2,1,55,0,0
11768,-100,4,2,1,40,0,0
13317,-100,4,2,1,50,0,0
16413,-100,4,2,2,50,0,0
20478,-100,4,2,2,45,0,0
21059,-100,4,2,1,50,0,0
21833,-100,4,2,2,50,0,0
22220,-100,4,2,69,30,0,0
22607,-100,4,2,1,55,0,0
22704,-100,4,2,3,55,0,0
25317,-100,4,2,2,55,0,0
25704,-100,4,2,3,55,0,0
28413,-100,4,2,2,55,0,0
28800,-100,4,2,3,55,0,0
33446,-80,4,2,3,55,0,0
33833,-100,4,2,3,55,0,0
38284,-80,4,2,3,55,0,0
38671,-100,4,2,3,55,0,0
44284,-100,4,2,1,55,0,0
44381,-100,4,2,3,55,0,0
44671,-100,4,2,3,55,0,0
50478,-75.187969924812,4,2,2,55,0,0
50526,-75.187969924812,4,2,1,55,0,0
51252,-100,4,2,3,55,0,0
54542,-100,4,2,1,45,0,0
55123,-100,4,2,1,60,0,0
56671,-100,4,2,2,60,0,0
57059,-100,4,2,1,60,0,0
57446,-100,4,2,3,60,0,0
61317,-100,4,2,1,60,0,0
61704,-100,4,2,3,60,0,0
62865,-100,4,2,1,70,0,0
64413,-100,4,2,2,70,0,0
65188,-100,4,2,2,50,0,0
65962,-100,4,2,1,70,0,0
66349,-100,4,2,3,70,0,0
69059,-100,4,2,1,70,0,0
69446,-100,4,2,3,70,0,0
72155,-100,4,2,3,55,0,0
75059,-100,4,2,69,30,0,0
75252,-100,4,2,3,70,0,0
78349,-100,4,2,1,70,0,0
78736,-100,4,2,3,70,0,0
81446,-100,4,2,3,60,0,0
82026,-100,4,2,3,70,0,0
93833,-100,4,2,3,55,0,0
96929,-100,4,2,1,60,0,0
97123,-100,4,2,3,60,0,0
97897,-80,4,2,3,60,0,0
98284,-100,4,2,3,60,0,0
100026,-100,4,2,3,70,0,1
100607,-100,4,2,3,70,0,1
102736,-100,4,2,2,70,0,1
103123,-100,4,2,3,70,0,1
105833,-100,4,2,2,70,0,1
106220,-100,4,2,3,70,0,1
107381,-100,4,2,2,70,0,1
107768,-100,4,2,3,70,0,1
108929,-100,4,2,2,70,0,1
109317,-100,4,2,1,55,0,0
115123,-100,4,2,3,55,0,0
117059,-100,4,2,3,70,0,0
126349,-100,4,2,3,55,0,0
127897,-80,4,2,1,70,0,0
128091,-80,4,2,3,70,0,0
128284,-100,4,2,3,70,0,0
129446,-80,4,2,3,70,0,0
129833,-100,4,2,3,70,0,0
130994,-80,4,2,3,60,0,0
131381,-100,4,2,3,60,0,0
132542,-100,4,2,3,50,0,0
134091,-100,4,2,1,40,0,0
135639,-76.9230769230769,4,2,1,40,0,0
136026,-100,4,2,1,40,0,0
136413,-86.9565217391304,4,2,1,40,0,0
136800,-100,4,2,1,40,0,0
140671,-100,4,2,1,55,0,0
144929,-100,4,2,3,60,0,0
152671,-100,4,2,3,55,0,0
153833,-100,4,2,1,55,0,0
154220,375,4,2,1,70,1,0
154220,-133.333333333333,4,2,1,70,0,0
155721,387.096774193548,4,2,1,70,1,0
157270,400,4,2,1,70,1,0
157270,-133.333333333333,4,2,1,70,0,0
158871,413.793103448276,4,2,1,70,1,0
160422,-100,4,2,3,55,0,0
160526,-80,4,2,69,55,0,0
160733,-100,4,2,3,55,0,0
161353,-100,4,2,1,60,0,0
161457,-100,4,2,3,60,0,0
163422,-100,4,2,69,55,0,0
164250,-100,4,2,1,60,0,0
164457,-100,4,2,3,60,0,0
166733,-100,4,2,69,55,0,0
167353,-100,4,2,1,60,0,0
167767,-100,4,2,3,60,0,0
170043,-100,4,2,69,55,0,0
170664,-100,4,2,1,60,0,0
171077,-100,4,2,3,60,0,0
172112,-100,4,2,69,55,0,0
172319,-100,4,2,3,60,0,0
173767,-100,4,2,1,55,0,0
173871,-100,4,2,3,55,0,0
176250,-100,4,2,69,55,0,0
176302,-100,4,2,1,55,0,0
176560,-100,4,2,1,55,0,0
176664,-100,4,2,3,55,0,0
177077,-100,4,2,1,55,0,0
177284,-100,4,2,3,55,0,0
179560,-100,4,2,1,55,0,0
179664,-100,4,2,1,40,0,0
180388,-100,4,2,3,40,0,0
180491,-100,4,2,1,40,0,0
181215,-100,4,2,3,40,0,0
181319,-100,4,2,1,40,0,0
182043,-100,4,2,3,40,0,0
182302,-100,4,2,1,40,0,0
182457,-100,4,2,3,40,0,0
183905,-100,4,2,1,40,0,0
184526,-100,4,2,3,40,0,0
184629,-100,4,2,1,40,0,0
185353,-100,4,2,3,40,0,0
185974,-100,4,2,1,40,0,0
186181,-100,4,2,3,40,0,0
187008,-100,4,2,3,55,0,0
190320,400,4,2,3,55,1,0
192520,-100,4,2,3,70,0,0
193520,387.096774193548,4,2,3,60,1,0
193520,-100,4,2,3,70,0,0
193907,-75.187969924812,4,2,3,60,0,0
194294,-100,4,2,3,60,0,0
196616,375,4,2,3,60,1,0
196616,-75.187969924812,4,2,3,70,0,0
196991,-100,4,2,3,60,0,0
199522,-100,4,2,1,55,0,0
199616,363.636363636364,4,2,1,55,1,0
199616,-100,4,2,1,70,0,0
199797,-100,4,2,3,55,0,0
200343,-100,4,2,1,55,0,0
200525,-100,4,2,3,55,0,0
201797,-100,4,2,1,55,0,0
201888,-100,4,2,3,55,0,0
202525,352.941176470588,4,2,1,55,1,0
202642,-100,4,2,3,60,0,0
213819,-100,4,2,1,60,0,0
221584,352.941176470588,4,2,1,60,1,0
224407,-100,4,2,1,40,0,0
226878,-100,4,2,1,55,0,0
227231,-100,4,2,1,60,0,0
227319,-100,4,2,3,60,0,0
228995,-100,4,2,1,45,0,0
230054,-80,4,2,3,60,0,0
230407,-100,4,2,3,60,0,0
231819,-100,4,2,1,60,0,0
232878,-80,4,2,3,60,0,0
233231,-100,4,2,3,60,0,0
235701,-100,4,2,3,70,0,0
239936,-80,4,2,1,70,0,0
240289,-100,4,2,1,70,0,0

[Colours]
Combo1 : 108,114,210
Combo2 : 30,90,150
Combo3 : 147,45,88

[HitObjects]
296,192,929,6,0,P|298:114|236:24,1,190,8|8,0:0|0:0,0:0:0:0:
148,24,1510,1,0,0:0:0:0:
56,24,1704,1,8,0:0:0:0:
208,128,2091,2,0,L|212:224,1,95,8|0,0:0|0:0,0:0:0:0:
104,276,2478,1,8,0:0:0:0:
256,244,2865,6,0,L|352:244,1,95,8|0,0:0|0:0,0:0:0:0:
244,244,3252,2,0,L|240:136,1,95,8|0,0:0|0:0,0:0:0:0:
432,116,3639,1,8,0:0:0:0:
432,116,3833,1,8,0:0:0:0:
348,116,4026,6,0,P|296:132|232:244,1,190,8|8,0:0|0:0,0:0:0:0:
316,244,4607,1,0,0:0:0:0:
400,244,4800,2,0,L|480:192,2,95,8|0|8,0:0|0:0|0:0,0:0:0:0:
248,248,5575,6,0,L|244:360,1,95,8|0,0:0|0:0,0:0:0:0:
328,296,5962,2,0,L|324:188,1,95,8|0,0:0|0:0,0:0:0:0:
229,201,6349,2,0,L|329:201,1,95,8|0,0:0|0:0,0:0:0:0:
132,192,6736,1,8,0:0:0:0:
132,192,6930,1,8,0:0:0:0:
228,192,7123,6,0,P|284:128|228:52,1,190,8|8,0:0|0:0,0:0:0:0:
136,52,7704,1,0,0:0:0:0:
232,52,7897,1,8,0:0:0:0:
60,52,8284,2,0,L|56:172,1,95,8|0,0:0|0:0,0:0:0:0:
152,192,8671,1,8,0:0:0:0:
324,192,9059,6,0,L|220:192,1,95,8|0,0:0|0:0,0:0:0:0:
324,192,9446,2,0,L|428:192,1,95,8|0,0:0|0:0,0:0:0:0:
228,192,9833,1,8,0:0:0:0:
228,192,10027,1,8,0:0:0:0:
324,192,10220,6,0,L|328:88,1,95,8|0,0:0|0:0,0:0:0:0:
232,80,10607,2,0,L|228:176,1,95,8|0,0:0|0:0,0:0:0:0:
132,48,10994,2,0,L|130:104,2,47.5,8|0|0,0:0|0:0|0:0,0:0:0:0:
324,192,11381,1,8,0:0:0:0:
324,192,11575,1,8,0:0:0:0:
228,192,11768,6,0,L|124:192,1,95,8|0,0:0|0:0,0:0:0:0:
38,192,12155,2,0,L|150:192,1,95,8|0,0:0|0:0,0:0:0:0:
236,192,12542,2,0,L|240:248,2,47.5,8|0|0,0:0|0:0|0:0,0:0:0:0:
44,296,12929,1,8,0:0:0:0:
44,296,13123,1,0,0:0:0:0:
316,192,13317,6,0,L|416:192,2,95,4|0|2,0:0|0:0|0:0,0:0:0:0:
212,192,13897,1,0,0:0:0:0:
108,192,14091,2,0,L|194:142,1,95,2|0,0:0|0:0,0:0:0:0:
100,192,14478,2,0,L|190:140,1,95,2|0,0:0|0:0,0:0:0:0:
288,192,14865,2,0,L|201:142,1,95,2|0,0:0|0:0,0:0:0:0:
396,192,15252,5,2,0:0:0:0:
492,176,15446,1,0,0:0:0:0:
492,81,15639,1,2,0:0:0:0:
396,65,15833,1,0,0:0:0:0:
492,81,16026,2,0,L|492:181,1,95,2|0,0:0|0:0,0:0:0:0:
220,192,16413,6,0,L|124:192,1,95,2|0,0:0|0:0,0:0:0:0:
228,192,16800,2,0,L|232:292,1,95,2|0,0:0|0:0,0:0:0:0:
336,288,17188,1,2,0:0:0:0:
240,288,17381,1,0,0:0:0:0:
124,288,17575,1,2,0:0:0:0:
228,288,17768,1,0,0:0:0:0:
112,288,17962,1,2,0:0:0:0:
216,288,18155,1,0,0:0:0:0:
408,288,18349,6,0,L|404:184,1,95,2|0,0:0|0:0,0:0:0:0:
212,192,18736,1,2,0:0:0:0:
304,176,18929,1,0,0:0:0:0:
360,100,19123,1,2,0:0:0:0:
368,4,19316,1,2,0:0:0:0:
100,8,19510,6,0,L|96:112,1,95,2|0,0:0|0:0,0:0:0:0:
200,144,19897,1,2,0:0:0:0:
198,191,19993,1,0,0:0:0:0:
196,238,20090,1,2,0:0:0:0:
390,195,20284,2,0,L|441:225,2,47.5,2|2|2,0:0|0:0|0:0,0:0:0:0:
198,191,20671,1,2,0:0:0:0:
302,191,20865,1,2,0:0:0:0:
36,192,21059,5,2,0:0:0:0:
148,192,21446,1,2,0:0:0:0:
404,192,21833,1,8,0:0:0:0:
44,192,22220,2,0,L|40:296,1,95,4|0,0:0|0:0,0:0:0:0:
312,344,22607,6,0,L|420:344,1,95,4|0,0:0|0:0,0:0:0:0:
304,344,22994,2,0,L|300:228,1,95,8|0,0:0|0:0,0:0:0:0:
108,192,23381,2,0,B|60:192|60:192|112:192,1,95,2|0,0:0|0:0,0:0:0:0:
160,192,23671,1,0,0:0:0:0:
212,192,23768,2,0,L|216:80,1,95,8|0,0:0|0:0,0:0:0:0:
408,192,24155,6,0,L|508:192,1,95,2|0,0:0|0:0,0:0:0:0:
456,192,24446,1,0,0:0:0:0:
408,192,24542,2,0,L|404:136,1,47.5,8|0,0:0|0:0,0:0:0:0:
456,192,24736,1,0,0:0:0:0:
192,192,24929,2,0,L|136:192,2,47.5,2|0|0,0:0|0:0|0:0,0:0:0:0:
384,192,25317,6,0,L|384:80,1,95,8|0,0:0|0:0,0:0:0:0:
100,192,25704,6,0,L|96:88,1,95,2|0,0:0|0:0,0:0:0:0:
200,96,26091,1,8,0:0:0:0:
148,96,26187,1,0,0:0:0:0:
96,96,26284,1,0,0:0:0:0:
288,96,26478,2,0,B|336:96|336:96|284:96,1,95,2|0,0:0|0:0,0:0:0:0:
234,96,26768,1,0,0:0:0:0:
179,96,26865,2,0,L|119:96,2,47.5,8|0|0,0:0|0:0|0:0,0:0:0:0:
368,96,27252,6,0,L|372:160,2,47.5,2|0|0,0:0|0:0|0:0,0:0:0:0:
176,244,27639,1,8,0:0:0:0:
228,244,27736,1,0,0:0:0:0:
280,244,27833,1,0,0:0:0:0:
16,192,28026,1,2,0:0:0:0:
20,252,28122,1,0,0:0:0:0:
56,304,28219,1,0,0:0:0:0:
104,344,28316,1,0,0:0:0:0:
164,352,28413,6,0,L|52:352,1,95,8|0,0:0|0:0,0:0:0:0:
336,352,28800,6,0,L|436:352,1,95,2|0,0:0|0:0,0:0:0:0:
324,352,29188,2,0,L|320:244,1,95,8|0,0:0|0:0,0:0:0:0:
128,192,29575,2,0,L|124:80,1,95,2|0,0:0|0:0,0:0:0:0:
180,84,29865,1,0,0:0:0:0:
236,68,29962,2,0,L|128:68,1,95,8|0,0:0|0:0,0:0:0:0:
332,68,30349,6,0,L|336:172,1,95,2|0,0:0|0:0,0:0:0:0:
144,192,30736,2,0,L|88:192,2,47.5,8|0|2,0:0|0:0|0:0,0:0:0:0:
336,163,31123,1,2,0:0:0:0:
392,184,31219,1,0,0:0:0:0:
408,244,31316,1,2,0:0:0:0:
371,296,31413,1,0,0:0:0:0:
312,296,31510,2,0,L|256:296,2,47.5,2|0|2,0:0|0:0|0:0,0:0:0:0:
44,296,31897,6,0,L|40:188,1,95,2|0,0:0|0:0,0:0:0:0:
232,192,32284,2,0,P|284:160|224:76,1,190,8|2,0:0|0:0,0:0:0:0:
128,76,32865,1,0,0:0:0:0:
320,76,33059,2,0,L|472:76,1,142.5,8|0,0:0|0:0,0:0:0:0:
462,76,33446,6,0,P|412:80|320:224,1,237.5,2|8,0:0|0:0,0:0:0:0:
416,224,34026,2,0,L|420:328,1,95,0|2,0:0|0:0,0:0:0:0:
316,320,34413,1,0,0:0:0:0:
124,320,34607,2,0,P|64:296|40:224,1,142.5,8|0,0:0|0:0,0:0:0:0:
104,192,34994,6,0,L|300:192,1,190,2|8,0:0|0:0,0:0:0:0:
388,192,35575,2,0,L|392:88,1,95,0|2,0:0|0:0,0:0:0:0:
276,64,35962,1,2,0:0:0:0:
334,82,36059,1,0,0:0:0:0:
392,96,36155,1,8,0:0:0:0:
200,192,36349,1,2,0:0:0:0:
144,192,36446,1,0,0:0:0:0:
88,192,36542,6,0,L|84:88,1,95,8|2,0:0|0:0,0:0:0:0:
276,192,36929,1,8,0:0:0:0:
220,192,37026,1,0,0:0:0:0:
164,192,37123,1,2,0:0:0:0:
356,192,37317,1,8,0:0:0:0:
387,192,37381,1,0,0:0:0:0:
380,192,37446,1,0,0:0:0:0:
344,192,37510,1,2,0:0:0:0:
152,268,37704,2,0,L|252:268,1,95,8|0,0:0|0:0,0:0:0:0:
144,268,38091,1,2,0:0:0:0:
428,268,38284,6,0,P|484:240|424:116,1,237.5,0|0,0:0|0:0,0:0:0:0:
320,116,38865,1,2,0:0:0:0:
423,115,39059,1,0,0:0:0:0:
232,116,39252,2,0,L|136:116,1,95,8|0,0:0|0:0,0:0:0:0:
328,116,39639,5,2,0:0:0:0:
424,116,39833,2,0,P|440:168|348:252,1,190,0|0,0:0|0:0,0:0:0:0:
256,252,40413,2,0,L|252:152,1,95,2|0,0:0|0:0,0:0:0:0:
60,192,40800,2,0,L|156:192,1,95,8|0,0:0|0:0,0:0:0:0:
348,192,41188,5,2,0:0:0:0:
244,192,41381,2,0,P|188:152|244:68,1,190,0|0,0:0|0:0,0:0:0:0:
348,68,41962,1,2,0:0:0:0:
244,68,42155,1,0,0:0:0:0:
436,68,42349,2,0,L|440:168,1,95,8|0,0:0|0:0,0:0:0:0:
248,192,42736,5,2,0:0:0:0:
352,192,42929,2,0,P|435:226|457:316,1,190,0|0,0:0|0:0,0:0:0:0:
320,328,43510,1,2,0:0:0:0:
424,328,43704,1,2,0:0:0:0:
236,236,43897,1,8,0:0:0:0:
352,236,44091,1,2,0:0:0:0:
80,236,44284,6,0,P|-1:192|26:113,1,190,4|8,0:0|0:0,0:0:0:0:
107,110,44865,1,0,0:0:0:0:
297,230,45059,2,0,P|311:306|228:364,1,190,2|8,0:0|0:0,0:0:0:0:
124,364,45639,1,0,0:0:0:0:
400,364,45833,5,2,0:0:0:0:
422,323,45929,1,0,0:0:0:0:
417,276,46026,1,0,0:0:0:0:
386,242,46123,1,0,0:0:0:0:
336,228,46220,2,0,P|296:204|352:104,1,190,8|2,0:0|0:0,0:0:0:0:
452,104,46800,1,0,0:0:0:0:
336,104,46994,2,0,L|332:0,1,95,8|0,0:0|0:0,0:0:0:0:
144,8,47381,6,0,P|68:60|88:144,1,190,2|8,0:0|0:0,0:0:0:0:
192,192,47962,1,0,0:0:0:0:
382,192,48155,2,0,L|186:192,1,190,2|8,0:0|0:0,0:0:0:0:
96,192,48736,1,0,0:0:0:0:
284,192,48929,5,2,0:0:0:0:
308,236,49026,1,0,0:0:0:0:
304,288,49123,1,0,0:0:0:0:
276,324,49220,1,0,0:0:0:0:
233,339,49317,2,0,L|40:340,1,190,8|2,0:0|0:0,0:0:0:0:
140,340,49897,1,0,0:0:0:0:
36,340,50091,2,0,L|32:232,1,95,8|0,0:0|0:0,0:0:0:0:
320,296,50478,6,0,P|336:132|276:296,1,505.399979178162,4|2,0:0|0:0,0:0:0:0:
332,296,51349,1,0,0:0:0:0:
388,296,51446,1,0,0:0:0:0:
284,296,51639,1,8,0:0:0:0:
240,296,51736,1,0,0:0:0:0:
196,296,51833,1,0,0:0:0:0:
388,296,52026,6,0,L|392:188,1,95,2|0,0:0|0:0,0:0:0:0:
284,192,52413,1,8,0:0:0:0:
329,165,52510,1,0,0:0:0:0:
375,139,52607,1,0,0:0:0:0:
184,192,52800,6,0,B|132:192|132:192|188:192,1,95,2|0,0:0|0:0,0:0:0:0:
228,192,53091,1,0,0:0:0:0:
276,168,53188,1,8,0:0:0:0:
276,116,53284,1,0,0:0:0:0:
228,92,53381,1,0,0:0:0:0:
484,192,53575,6,0,P|503:138|488:96,1,95,2|0,0:0|0:0,0:0:0:0:
448,68,53865,1,0,0:0:0:0:
392,68,53962,2,0,L|340:68,1,47.5,8|0,0:0|0:0,0:0:0:0:
400,68,54155,1,0,0:0:0:0:
140,68,54349,6,0,L|44:68,1,95,2|2,0:0|0:0,0:0:0:0:
104,68,54639,1,2,0:0:0:0:
160,68,54736,1,2,0:0:0:0:
104,68,54833,1,2,0:0:0:0:
160,68,54929,1,2,0:0:0:0:
424,68,55123,6,0,P|488:140|376:252,1,285,4|0,0:0|0:0,0:0:0:0:
112,256,55897,2,0,P|96:212|160:276,1,332.5,4|0,0:0|0:0,0:0:0:0:
92,372,56671,2,0,L|88:268,1,95,2|0,0:0|0:0,0:0:0:0:
356,276,57059,6,0,P|424:224|372:152,1,190,4|8,0:0|0:0,0:0:0:0:
328,152,57542,1,0,0:0:0:0:
280,152,57639,1,0,0:0:0:0:
88,64,57833,1,2,0:0:0:0:
144,64,57929,1,0,0:0:0:0:
200,64,58026,1,0,0:0:0:0:
308,152,58220,5,8,0:0:0:0:
260,152,58317,1,0,0:0:0:0:
212,152,58413,1,0,0:0:0:0:
400,64,58607,2,0,L|448:64,2,47.5,2|0|0,0:0|0:0|0:0,0:0:0:0:
288,152,58994,5,8,0:0:0:0:
340,152,59091,1,0,0:0:0:0:
392,152,59187,1,0,0:0:0:0:
200,152,59381,1,2,0:0:0:0:
154,188,59477,1,0,0:0:0:0:
145,245,59574,1,0,0:0:0:0:
178,294,59671,1,0,0:0:0:0:
234,308,59768,5,8,0:0:0:0:
42,356,59962,1,0,0:0:0:0:
146,356,60155,1,2,0:0:0:0:
192,320,60251,1,0,0:0:0:0:
201,263,60348,1,0,0:0:0:0:
168,214,60445,1,0,0:0:0:0:
112,200,60542,6,0,L|50:200,2,47.5,8|0|0,0:0|0:0|0:0,0:0:0:0:
304,192,60929,1,2,0:0:0:0:
351,192,61025,1,0,0:0:0:0:
399,192,61122,1,0,0:0:0:0:
132,200,61317,6,0,L|128:88,1,95,4|0,0:0|0:0,0:0:0:0:
244,40,61704,2,0,P|292:68|244:168,1,190,2|8,0:0|0:0,0:0:0:0:
196,152,62187,1,0,0:0:0:0:
176,104,62284,1,0,0:0:0:0:
196,56,62381,1,0,0:0:0:0:
244,40,62478,1,2,0:0:0:0:
196,56,62575,1,0,0:0:0:0:
148,72,62671,1,0,0:0:0:0:
416,40,62865,6,0,L|420:232,1,190,4|0,0:0|0:0,0:0:0:0:
88,72,63639,2,0,L|84:264,1,190,4|0,0:0|0:0,0:0:0:0:
400,340,64413,6,0,P|416:288|336:192,1,190,4|0,0:0|0:0,0:0:0:0:
44,192,65188,1,6,0:0:0:0:
24,101,65381,1,2,0:0:0:0:
73,22,65575,1,2,0:0:0:0:
163,0,65768,1,2,0:0:0:0:
432,0,65962,6,0,L|436:112,1,95,4|0,0:0|0:0,0:0:0:0:
340,140,66349,1,8,0:0:0:0:
245,98,66542,1,0,0:0:0:0:
348,140,66736,1,2,0:0:0:0:
253,98,66929,1,2,0:0:0:0:
150,98,67123,2,0,L|250:98,1,95,8|0,0:0|0:0,0:0:0:0:
56,96,67510,6,0,L|52:216,1,95,2|2,0:0|0:0,0:0:0:0:
244,288,67897,1,8,0:0:0:0:
149,246,68090,1,2,0:0:0:0:
252,288,68284,1,2,0:0:0:0:
157,246,68477,1,2,0:0:0:0:
260,288,68671,1,8,0:0:0:0:
165,246,68864,1,0,0:0:0:0:
436,288,69059,6,0,P|476:228|396:160,1,190,4|8,0:0|0:0,0:0:0:0:
308,160,69639,1,0,0:0:0:0:
412,160,69833,1,2,0:0:0:0:
316,160,70026,1,2,0:0:0:0:
213,160,70220,2,0,L|313:160,1,95,8|0,0:0|0:0,0:0:0:0:
116,160,70607,6,0,L|112:64,1,95,2|2,0:0|0:0,0:0:0:0:
304,36,70994,1,8,0:0:0:0:
208,36,71188,1,2,0:0:0:0:
16,65,71381,1,2,0:0:0:0:
112,65,71575,1,2,0:0:0:0:
304,152,71768,1,8,0:0:0:0:
188,152,71962,1,0,0:0:0:0:
452,152,72155,6,0,L|456:264,1,95,2|2,0:0|0:0,0:0:0:0:
264,328,72542,2,0,L|164:328,1,95,8|2,0:0|0:0,0:0:0:0:
169,328,72929,1,0,0:0:0:0:
284,328,73123,1,2,0:0:0:0:
92,192,73317,6,0,L|188:192,1,95,8|2,0:0|0:0,0:0:0:0:
187,192,73704,1,0,0:0:0:0:
84,192,73897,1,2,0:0:0:0:
276,192,74091,6,0,L|280:92,1,95,8|2,0:0|0:0,0:0:0:0:
279,97,74478,1,0,0:0:0:0:
184,96,74671,1,2,0:0:0:0:
376,96,74865,2,0,L|380:204,1,95,8|4,0:0|0:0,0:0:0:0:
124,192,75252,6,0,L|16:192,1,95,4|0,0:0|0:0,0:0:0:0:
220,192,75639,1,8,0:0:0:0:
124,192,75833,1,0,0:0:0:0:
28,192,76026,1,2,0:0:0:0:
124,192,76220,1,2,0:0:0:0:
316,192,76413,1,8,0:0:0:0:
220,192,76607,1,0,0:0:0:0:
484,192,76800,6,0,L|488:92,1,95,2|2,0:0|0:0,0:0:0:0:
296,56,77188,1,8,0:0:0:0:
192,56,77381,1,2,0:0:0:0:
308,56,77575,1,2,0:0:0:0:
204,56,77768,1,2,0:0:0:0:
396,56,77962,2,0,L|400:164,1,95,8|0,0:0|0:0,0:0:0:0:
128,192,78349,6,0,L|124:304,1,95,4|0,0:0|0:0,0:0:0:0:
312,288,78736,1,8,0:0:0:0:
408,288,78930,1,0,0:0:0:0:
504,288,79123,1,2,0:0:0:0:
408,288,79317,1,2,0:0:0:0:
216,288,79510,1,8,0:0:0:0:
320,288,79704,1,0,0:0:0:0:
56,288,79897,6,0,L|52:188,1,95,2|2,0:0|0:0,0:0:0:0:
244,152,80285,1,8,0:0:0:0:
140,152,80478,1,2,0:0:0:0:
256,152,80672,1,2,0:0:0:0:
152,152,80865,1,2,0:0:0:0:
340,152,81059,2,0,L|436:152,1,95,8|0,0:0|0:0,0:0:0:0:
172,48,81446,6,0,L|68:48,2,95,2|2|8,0:0|0:0|0:0,0:0:0:0:
440,48,82026,2,0,L|444:144,1,95,2|0,0:0|0:0,0:0:0:0:
402,166,82317,1,0,0:0:0:0:
361,190,82414,1,2,0:0:0:0:
476,196,82607,1,8,0:0:0:0:
212,192,82800,6,0,L|116:192,1,95,2|0,0:0|0:0,0:0:0:0:
308,192,83188,1,2,0:0:0:0:
196,192,83381,1,8,0:0:0:0:
300,192,83575,2,0,L|304:292,1,95,2|0,0:0|0:0,0:0:0:0:
112,328,83962,1,2,0:0:0:0:
216,328,84155,1,8,0:0:0:0:
408,288,84349,6,0,L|412:176,1,95,2|2,0:0|0:0,0:0:0:0:
308,192,84736,1,2,0:0:0:0:
420,192,84929,1,8,0:0:0:0:
160,192,85123,2,0,L|64:192,1,95,2|0,0:0|0:0,0:0:0:0:
256,192,85510,1,2,0:0:0:0:
152,192,85704,1,8,0:0:0:0:
408,192,85897,6,0,L|504:192,1,95,2|2,0:0|0:0,0:0:0:0:
456,192,86188,1,0,0:0:0:0:
408,192,86284,1,2,0:0:0:0:
216,192,86478,1,2,0:0:0:0:
320,192,86671,2,0,L|324:92,1,95,2|2,0:0|0:0,0:0:0:0:
220,96,87059,1,2,0:0:0:0:
332,96,87252,2,0,L|428:96,1,95,2|2,0:0|0:0,0:0:0:0:
156,96,87639,6,0,P|96:160|152:232,1,190,4|0,0:0|0:0,0:0:0:0:
96,192,93833,6,0,L|92:88,1,95,2|2,0:0|0:0,0:0:0:0:
196,240,94220,2,0,L|192:128,1,95,2|2,0:0|0:0,0:0:0:0:
384,68,94607,2,0,L|297:18,3,95,2|2|2|2,0:0|0:0|0:0|0:0,0:0:0:0:
112,104,95381,6,0,L|108:168,2,47.5,2|2|2,0:0|0:0|0:0,0:0:0:0:
220,184,95768,2,0,L|268:184,2,47.5,2|2|2,0:0|0:0|0:0,0:0:0:0:
28,184,96155,1,2,0:0:0:0:
41,236,96251,1,2,0:0:0:0:
88,262,96348,1,2,0:0:0:0:
139,245,96445,1,2,0:0:0:0:
161,196,96542,1,2,0:0:0:0:
141,146,96638,1,2,0:0:0:0:
90,127,96735,1,2,0:0:0:0:
356,192,96929,5,4,0:0:0:0:
452,192,97123,2,0,P|512:136|448:76,1,190,2|2,0:0|0:0,0:0:0:0:
400,76,97607,1,2,0:0:0:0:
352,76,97704,1,8,0:0:0:0:
152,80,97897,2,0,P|80:120|100:256,1,237.5,2|2,0:0|0:0,0:0:0:0:
288,336,98478,6,0,L|292:236,1,95,8|2,0:0|0:0,0:0:0:0:
184,196,98865,2,0,L|284:192,1,95,2|2,0:0|0:0,0:0:0:0:
392,192,99252,1,2,0:0:0:0:
407,149,99348,1,2,0:0:0:0:
381,111,99445,1,2,0:0:0:0:
335,112,99542,1,2,0:0:0:0:
310,150,99639,1,2,0:0:0:0:
327,193,99735,1,2,0:0:0:0:
372,202,99832,1,2,0:0:0:0:
112,204,100026,6,0,L|8:204,1,95,2|0,0:0|0:0,0:0:0:0:
132,204,100413,2,0,L|136:156,2,47.5,8|0|0,0:0|0:0|0:0,0:0:0:0:
324,332,100800,1,2,0:0:0:0:
353,295,100897,1,0,0:0:0:0:
356,249,100994,1,2,0:0:0:0:
331,209,101091,1,0,0:0:0:0:
287,192,101188,2,0,L|188:192,1,95,8|0,0:0|0:0,0:0:0:0:
384,192,101575,5,2,0:0:0:0:
332,166,101671,1,0,0:0:0:0:
316,110,101768,1,0,0:0:0:0:
346,61,101865,1,0,0:0:0:0:
402,50,101962,2,0,L|464:52,2,47.5,8|0|0,0:0|0:0|0:0,0:0:0:0:
212,52,102349,1,2,0:0:0:0:
160,52,102445,1,0,0:0:0:0:
108,52,102542,1,2,0:0:0:0:
364,192,102736,5,8,0:0:0:0:
268,192,102929,1,8,0:0:0:0:
460,192,103123,6,0,L|464:296,1,95,2|0,0:0|0:0,0:0:0:0:
356,352,103510,1,8,0:0:0:0:
354,304,103606,1,0,0:0:0:0:
352,257,103703,1,0,0:0:0:0:
160,192,103897,1,2,0:0:0:0:
153,133,103993,1,0,0:0:0:0:
175,79,104090,1,2,0:0:0:0:
221,42,104187,1,0,0:0:0:0:
279,31,104284,2,0,L|176:32,1,95,8|0,0:0|0:0,0:0:0:0:
372,304,104671,5,2,0:0:0:0:
316,296,104769,1,0,0:0:0:0:
280,252,104866,1,0,0:0:0:0:
276,196,104963,1,0,0:0:0:0:
316,156,105059,2,0,L|411:156,1,95,8|0,0:0|0:0,0:0:0:0:
220,76,105446,1,2,0:0:0:0:
272,76,105542,1,0,0:0:0:0:
324,76,105639,1,2,0:0:0:0:
64,156,105833,5,8,0:0:0:0:
164,156,106026,1,8,0:0:0:0:
356,192,106220,6,0,L|420:192,2,47.5,2|0|0,0:0|0:0|0:0,0:0:0:0:
248,192,106607,2,0,L|244:136,1,47.5,8|0,0:0|0:0,0:0:0:0:
308,92,106800,2,0,L|304:148,1,47.5,0|0,0:0|0:0,0:0:0:0:
240,144,106994,2,0,L|184:144,2,47.5,2|0|2,0:0|0:0|0:0,0:0:0:0:
496,192,107381,5,8,0:0:0:0:
384,192,107574,1,8,0:0:0:0:
192,272,107768,6,0,L|88:272,1,95,2|0,0:0|0:0,0:0:0:0:
212,272,108155,2,0,L|216:216,1,47.5,8|0,0:0|0:0,0:0:0:0:
284,192,108348,2,0,L|288:136,1,47.5,0|0,0:0|0:0,0:0:0:0:
356,192,108542,2,0,L|412:192,2,47.5,2|0|2,0:0|0:0|0:0,0:0:0:0:
68,192,108929,1,8,0:0:0:0:
68,192,109317,6,0,L|260:192,1,190,4|8,0:0|0:0,0:0:0:0:
258,192,110091,1,0,0:0:0:0:
448,192,110478,2,0,L|304:192,1,142.5,8|0,0:0|0:0,0:0:0:0:
258,192,110865,6,0,P|200:144|256:64,1,190,2|8,0:0|0:0,0:0:0:0:
304,64,111639,1,0,0:0:0:0:
400,64,111833,1,2,0:0:0:0:
208,64,112026,2,0,L|60:64,1,142.5,8|0,0:0|0:0,0:0:0:0:
112,64,112413,6,0,P|164:80|228:192,1,190,2|8,0:0|0:0,0:0:0:0:
227,191,113188,1,0,0:0:0:0:
132,190,113381,1,2,0:0:0:0:
323,191,113575,2,0,L|467:191,1,142.5,8|0,0:0|0:0,0:0:0:0:
419,191,113962,6,0,L|319:191,1,95,2|0,0:0|0:0,0:0:0:0:
227,191,114349,2,0,L|223:303,1,95,8|0,0:0|0:0,0:0:0:0:
223,285,114736,1,0,0:0:0:0:
328,284,114929,1,2,0:0:0:0:
136,284,115123,2,0,P|92:240|140:192,1,142.5,8|0,0:0|0:0,0:0:0:0:
256,192,115510,6,0,L|356:192,1,95,2|0,0:0|0:0,0:0:0:0:
248,192,115897,2,0,L|244:92,1,95,8|0,0:0|0:0,0:0:0:0:
148,168,116284,2,0,L|144:68,1,95,2|2,0:0|0:0,0:0:0:0:
48,144,116671,2,0,L|44:44,1,95,8|0,0:0|0:0,0:0:0:0:
236,48,117059,6,0,L|332:48,1,95,2|0,0:0|0:0,0:0:0:0:
216,48,117446,2,0,L|220:148,1,95,8|0,0:0|0:0,0:0:0:0:
324,140,117833,1,2,0:0:0:0:
272,141,117929,1,0,0:0:0:0:
220,143,118026,1,2,0:0:0:0:
324,140,118220,2,0,L|320:236,1,95,8|0,0:0|0:0,0:0:0:0:
128,356,118607,6,0,L|28:356,1,95,2|0,0:0|0:0,0:0:0:0:
224,380,118994,2,0,L|220:280,1,95,8|0,0:0|0:0,0:0:0:0:
124,356,119381,1,2,0:0:0:0:
122,308,119477,1,0,0:0:0:0:
120,261,119574,1,2,0:0:0:0:
24,332,119768,2,0,L|20:232,1,95,8|0,0:0|0:0,0:0:0:0:
280,192,120155,6,0,L|376:192,1,95,2|0,0:0|0:0,0:0:0:0:
268,192,120542,2,0,L|264:92,1,95,8|0,0:0|0:0,0:0:0:0:
72,36,120929,2,0,L|172:36,1,95,2|2,0:0|0:0,0:0:0:0:
64,36,121317,2,0,L|52:96,2,47.5,8|0|0,0:0|0:0|0:0,0:0:0:0:
332,32,121704,6,0,P|384:104|320:160,1,190,2|8,0:0|0:0,0:0:0:0:
216,160,122284,1,0,0:0:0:0:
112,160,122478,2,0,L|216:160,1,95,2|2,0:0|0:0,0:0:0:0:
104,160,122865,2,0,L|200:160,1,95,8|0,0:0|0:0,0:0:0:0:
392,192,123252,6,0,L|292:192,1,95,2|0,0:0|0:0,0:0:0:0:
108,296,123639,2,0,L|208:296,1,95,8|0,0:0|0:0,0:0:0:0:
96,216,124026,1,2,0:0:0:0:
143,216,124122,1,0,0:0:0:0:
191,216,124219,1,2,0:0:0:0:
296,216,124413,2,0,L|392:216,1,95,8|0,0:0|0:0,0:0:0:0:
128,216,124800,6,0,L|32:216,1,95,2|0,0:0|0:0,0:0:0:0:
224,216,125188,2,0,P|288:192|304:80,1,190,8|2,0:0|0:0,0:0:0:0:
222,39,125768,1,2,0:0:0:0:
120,40,125962,2,0,L|216:40,1,95,8|0,0:0|0:0,0:0:0:0:
24,40,126349,6,0,L|20:148,1,95,2|0,0:0|0:0,0:0:0:0:
288,192,126736,2,0,B|336:192|336:192|284:192,1,95,8|0,0:0|0:0,0:0:0:0:
184,192,127123,2,0,L|180:256,2,47.5,2|0|0,0:0|0:0|0:0,0:0:0:0:
300,192,127510,1,2,0:0:0:0:
192,240,127704,1,2,0:0:0:0:
464,192,127897,6,0,P|500:260|400:360,1,237.5,4|8,0:0|0:0,0:0:0:0:
296,360,128478,1,0,0:0:0:0:
108,192,128671,2,0,L|204:192,1,95,2|0,0:0|0:0,0:0:0:0:
256,192,128962,1,0,0:0:0:0:
308,192,129059,1,8,0:0:0:0:
196,192,129252,1,0,0:0:0:0:
472,192,129446,6,0,P|508:124|408:24,1,237.5,2|8,0:0|0:0,0:0:0:0:
352,24,129929,1,0,0:0:0:0:
296,24,130026,1,0,0:0:0:0:
104,24,130220,2,0,L|100:144,1,95,2|0,0:0|0:0,0:0:0:0:
292,132,130607,2,0,L|296:252,1,95,8|0,0:0|0:0,0:0:0:0:
40,284,130994,6,0,P|16:212|128:116,1,237.5,2|8,0:0|0:0,0:0:0:0:
178,118,131478,1,0,0:0:0:0:
230,122,131575,1,0,0:0:0:0:
420,192,131768,1,2,0:0:0:0:
316,192,131962,1,0,0:0:0:0:
428,192,132155,1,8,0:0:0:0:
376,192,132252,1,0,0:0:0:0:
324,192,132349,1,0,0:0:0:0:
136,192,132542,5,2,0:0:0:0:
95,233,132638,1,0,0:0:0:0:
89,291,132735,1,0,0:0:0:0:
120,340,132832,1,0,0:0:0:0:
175,360,132929,2,0,L|284:360,1,95,8|0,0:0|0:0,0:0:0:0:
156,360,133317,1,2,0:0:0:0:
210,340,133413,1,0,0:0:0:0:
241,290,133510,1,0,0:0:0:0:
233,233,133607,1,0,0:0:0:0:
190,193,133704,2,0,L|92:192,1,95,8|0,0:0|0:0,0:0:0:0:
356,192,134091,6,0,P|400:112|352:32,1,190,4|8,0:0|0:0,0:0:0:0:
204,36,134865,1,0,0:0:0:0:
204,36,135252,2,0,L|304:36,1,95,8|8,0:0|0:0,0:0:0:0:
116,36,135639,6,0,P|32:60|56:192,1,246.999988693238,2|8,0:0|0:0,0:0:0:0:
172,192,136220,1,8,0:0:0:0:
392,192,136413,2,0,P|400:116|292:40,1,218.500004167557,2|8,0:0|0:0,0:0:0:0:
188,40,136994,1,8,0:0:0:0:
380,40,137188,6,0,P|468:100|468:184,1,190,2|8,0:0|0:0,0:0:0:0:
380,228,137768,1,8,0:0:0:0:
196,228,137962,2,0,P|129:248|84:356,1,190,2|8,0:0|0:0,0:0:0:0:
188,352,138542,1,8,0:0:0:0:
292,352,138736,6,0,L|488:352,1,190,2|8,0:0|0:0,0:0:0:0:
292,192,139510,2,0,L|96:192,1,190,8|8,0:0|0:0,0:0:0:0:
312,192,140284,1,8,0:0:0:0:
28,192,140671,6,0,P|16:124|108:56,1,190,2|8,0:0|0:0,0:0:0:0:
208,56,141252,1,0,0:0:0:0:
92,56,141446,2,0,L|88:164,1,95,8|8,0:0|0:0,0:0:0:0:
280,192,141833,6,0,L|359:125,1,95,2|0,0:0|0:0,0:0:0:0:
240,132,142220,1,8,0:0:0:0:
344,132,142413,1,8,0:0:0:0:
240,252,142607,2,0,L|161:185,1,95,2|0,0:0|0:0,0:0:0:0:
280,192,142994,1,8,0:0:0:0:
176,192,143187,1,8,0:0:0:0:
368,192,143381,6,0,L|464:192,1,95,2|0,0:0|0:0,0:0:0:0:
352,192,143768,1,8,0:0:0:0:
467,192,143962,1,8,0:0:0:0:
276,192,144155,1,2,0:0:0:0:
380,191,144349,1,0,0:0:0:0:
192,192,144542,2,0,L|96:192,1,95,8|8,0:0|0:0,0:0:0:0:
356,192,144929,6,0,P|416:176|468:68,1,190,2|2,0:0|0:0,0:0:0:0:
364,68,145510,1,0,0:0:0:0:
174,68,145704,2,0,L|366:68,1,190,2|2,0:0|0:0,0:0:0:0:
248,68,146284,1,0,0:0:0:0:
440,68,146478,6,0,L|444:176,1,95,8|0,0:0|0:0,0:0:0:0:
332,192,146865,1,2,0:0:0:0:
379,192,146961,1,0,0:0:0:0:
427,192,147058,1,0,0:0:0:0:
312,192,147252,2,0,L|308:288,1,95,2|0,0:0|0:0,0:0:0:0:
116,324,147639,2,0,L|112:224,1,95,2|0,0:0|0:0,0:0:0:0:
372,192,148026,6,0,L|468:192,1,95,8|0,0:0|0:0,0:0:0:0:
364,192,148413,2,0,L|440:127,1,95,2|0,0:0|0:0,0:0:0:0:
248,192,148800,2,0,L|171:127,1,95,2|0,0:0|0:0,0:0:0:0:
256,192,149188,2,0,L|160:192,1,95,2|0,0:0|0:0,0:0:0:0:
352,192,149575,6,0,P|412:120|352:64,1,190,8|2,0:0|0:0,0:0:0:0:
252,64,150155,1,0,0:0:0:0:
148,64,150349,2,0,L|144:184,1,95,2|0,0:0|0:0,0:0:0:0:
252,192,150736,1,2,0:0:0:0:
136,160,150929,1,2,0:0:0:0:
396,192,151123,6,0,L|492:192,1,95,8|0,0:0|0:0,0:0:0:0:
384,192,151510,2,0,L|488:192,1,95,2|2,0:0|0:0,0:0:0:0:
288,192,151897,2,0,L|192:192,1,95,8|0,0:0|0:0,0:0:0:0:
300,280,152284,2,0,L|404:280,1,95,2|2,0:0|0:0,0:0:0:0:
128,280,152671,6,0,L|36:280,1,63.3333333333333,8|0,0:0|0:0,0:0:0:0:
136,280,152929,2,0,L|228:280,1,63.3333333333333,8|0,0:0|0:0,0:0:0:0:
272,280,153188,2,0,L|276:196,1,63.3333333333333,8|0,0:0|0:0,0:0:0:0:
132,192,153446,1,8,0:0:0:0:
77,162,153575,1,8,0:0:0:0:
53,105,153704,1,8,0:0:0:0:
69,45,153833,1,8,0:0:0:0:
120,9,153962,1,8,0:0:0:0:
184,8,154091,1,8,0:0:0:0:
400,8,154220,6,0,P|504:128|328:360,1,498.750019025803,4|0,0:0|0:0,0:0:0:0:
132,360,155721,2,0,P|256:120|380:360,1,665,4|0,0:0|0:0,0:0:0:0:
196,360,157270,6,0,P|12:200|128:20,1,498.750019025803,4|0,0:0|0:0,0:0:0:0:
256,192,158870,12,0,160112,0:0:0:0:
396,192,160526,6,0,B|456:192|456:192|392:192,1,118.75,8|0,0:0|0:0,0:0:0:0:
292,192,160939,1,2,0:0:0:0:
388,192,161146,1,2,0:0:0:0:
120,192,161353,2,0,L|60:192,2,47.5,4|0|0,0:0|0:0|0:0,0:0:0:0:
236,192,161767,1,2,0:0:0:0:
132,192,161974,2,0,L|128:256,1,47.5,0|0,0:0|0:0,0:0:0:0:
192,284,162181,5,2,0:0:0:0:
239,284,162284,1,0,0:0:0:0:
287,284,162387,1,0,0:0:0:0:
172,284,162595,1,2,0:0:0:0:
128,240,162698,1,0,0:0:0:0:
132,192,162802,1,0,0:0:0:0:
184,168,162905,1,0,0:0:0:0:
296,168,163008,2,0,L|348:168,2,47.5,8|0|0,0:0|0:0|0:0,0:0:0:0:
104,192,163422,2,0,L|104:96,1,95,8|0,0:0|0:0,0:0:0:0:
376,168,163836,6,0,L|476:168,1,95,8|0,0:0|0:0,0:0:0:0:
280,76,164250,1,4,0:0:0:0:
336,76,164353,1,0,0:0:0:0:
392,76,164456,1,0,0:0:0:0:
200,76,164664,1,8,0:0:0:0:
143,91,164767,1,0,0:0:0:0:
106,136,164870,1,0,0:0:0:0:
102,194,164974,1,0,0:0:0:0:
132,244,165077,2,0,L|200:244,2,47.5,2|0|0,0:0|0:0|0:0,0:0:0:0:
324,348,165491,5,2,0:0:0:0:
325,300,165594,1,0,0:0:0:0:
327,253,165697,1,0,0:0:0:0:
136,336,165905,2,0,L|80:336,2,47.5,2|0|0,0:0|0:0|0:0,0:0:0:0:
327,253,166319,2,0,L|216:252,1,95,8|0,0:0|0:0,0:0:0:0:
424,252,166733,2,0,L|424:152,1,95,8|0,0:0|0:0,0:0:0:0:
156,192,167146,6,0,L|56:192,1,95,8|0,0:0|0:0,0:0:0:0:
256,320,167560,2,0,L|320:320,1,47.5,4|0,0:0|0:0,0:0:0:0:
244,320,167767,2,0,L|240:268,1,47.5,0|0,0:0|0:0,0:0:0:0:
304,192,167974,1,8,0:0:0:0:
416,192,168181,1,0,0:0:0:0:
368,192,168284,1,0,0:0:0:0:
344,192,168387,1,2,0:0:0:0:
368,192,168491,1,0,0:0:0:0:
416,192,168595,1,0,0:0:0:0:
224,192,168802,5,2,0:0:0:0:
176,192,168905,1,0,0:0:0:0:
129,192,169008,1,0,0:0:0:0:
320,100,169215,1,2,0:0:0:0:
367,100,169318,1,0,0:0:0:0:
415,100,169421,1,0,0:0:0:0:
224,192,169629,1,8,0:0:0:0:
276,192,169732,1,0,0:0:0:0:
328,192,169835,1,0,0:0:0:0:
56,192,170043,2,0,L|56:92,1,95,8|0,0:0|0:0,0:0:0:0:
324,192,170456,6,0,L|424:192,1,95,8|0,0:0|0:0,0:0:0:0:
224,192,170871,2,0,L|168:192,1,47.5,4|0,0:0|0:0,0:0:0:0:
232,192,171077,2,0,L|236:128,1,47.5,0|0,0:0|0:0,0:0:0:0:
168,192,171284,2,0,L|108:192,2,47.5,8|0|0,0:0|0:0|0:0,0:0:0:0:
364,192,171698,2,0,L|368:128,1,47.5,2|0,0:0|0:0,0:0:0:0:
304,104,171905,1,0,0:0:0:0:
36,104,172112,6,0,L|36:208,1,95,8|0,0:0|0:0,0:0:0:0:
228,320,172526,2,0,L|224:272,1,47.5,2|0,0:0|0:0,0:0:0:0:
160,320,172733,2,0,L|112:292,1,47.5,0|0,0:0|0:0,0:0:0:0:
56,192,172939,1,8,0:0:0:0:
103,192,173042,1,0,0:0:0:0:
151,192,173145,1,0,0:0:0:0:
344,192,173353,1,2,0:0:0:0:
228,192,173560,1,2,0:0:0:0:
496,192,173767,6,0,L|496:96,1,95,4|0,0:0|0:0,0:0:0:0:
440,96,174077,1,0,0:0:0:0:
384,96,174181,2,0,L|328:96,2,47.5,2|0|0,0:0|0:0|0:0,0:0:0:0:
192,192,174595,1,8,0:0:0:0:
150,147,174698,1,0,0:0:0:0:
161,87,174801,1,0,0:0:0:0:
215,59,174905,1,0,0:0:0:0:
272,60,175008,2,0,L|340:60,2,47.5,2|0|0,0:0|0:0|0:0,0:0:0:0:
161,87,175422,6,0,L|148:152,2,47.5,2|0|0,0:0|0:0|0:0,0:0:0:0:
215,59,175733,1,0,0:0:0:0:
272,60,175836,2,0,L|220:60,1,47.5,2|0,0:0|0:0,0:0:0:0:
152,134,176043,1,0,0:0:0:0:
420,192,176250,2,0,B|468:192|468:192|416:192,1,95,8|8,0:0|0:0,0:0:0:0:
364,192,176560,1,8,0:0:0:0:
308,192,176664,2,0,L|260:192,2,47.5,2|0|2,0:0|0:0|0:0,0:0:0:0:
40,192,177077,6,0,L|40:292,1,95,4|0,0:0|0:0,0:0:0:0:
96,288,177388,1,0,0:0:0:0:
152,288,177491,1,2,0:0:0:0:
96,288,177595,1,0,0:0:0:0:
40,288,177698,1,0,0:0:0:0:
232,288,177905,1,8,0:0:0:0:
273,243,178008,1,0,0:0:0:0:
262,183,178111,1,0,0:0:0:0:
208,155,178215,1,0,0:0:0:0:
152,156,178318,2,0,L|84:156,2,47.5,2|0|0,0:0|0:0|0:0,0:0:0:0:
344,88,178733,6,0,L|348:152,1,47.5,2|0,0:0|0:0,0:0:0:0:
280,156,178939,2,0,L|276:220,1,47.5,0|0,0:0|0:0,0:0:0:0:
347,136,179146,2,0,L|411:136,2,47.5,2|0|0,0:0|0:0|0:0,0:0:0:0:
76,192,179560,2,0,B|28:192|28:192|80:192,1,95,4|0,0:0|0:0,0:0:0:0:
132,192,179871,1,0,0:0:0:0:
180,160,179974,1,2,0:0:0:0:
132,132,180077,1,2,0:0:0:0:
76,132,180181,1,2,0:0:0:0:
76,76,180284,1,2,0:0:0:0:
192,52,180388,5,2,0:0:0:0:
156,192,187008,5,2,0:0:0:0:
108,192,187112,1,0,0:0:0:0:
60,192,187215,1,2,0:0:0:0:
252,192,187629,1,2,0:0:0:0:
444,192,187836,2,0,L|348:192,1,95,8|2,0:0|0:0,0:0:0:0:
244,296,188250,1,0,0:0:0:0:
291,296,188353,1,0,0:0:0:0:
339,296,188456,1,2,0:0:0:0:
148,192,188664,6,0,L|52:192,1,95,2|2,0:0|0:0,0:0:0:0:
156,192,189077,1,0,0:0:0:0:
40,192,189284,1,2,0:0:0:0:
232,192,189491,2,0,L|328:192,1,95,8|2,0:0|0:0,0:0:0:0:
220,192,189905,1,0,0:0:0:0:
336,192,190112,1,8,0:0:0:0:
56,192,190320,6,0,L|52:96,1,95,2|2,0:0|0:0,0:0:0:0:
168,148,190720,2,0,L|172:96,1,47.5,0|0,0:0|0:0,0:0:0:0:
104,72,190920,1,2,0:0:0:0:
296,148,191120,2,0,L|392:148,1,95,8|2,0:0|0:0,0:0:0:0:
276,312,191520,2,0,L|272:260,1,47.5,0|0,0:0|0:0,0:0:0:0:
340,236,191720,1,2,0:0:0:0:
148,192,191920,6,0,L|52:192,2,95,2|2|0,0:0|0:0|0:0,0:0:0:0:
260,192,192520,1,2,0:0:0:0:
316,192,192620,1,2,0:0:0:0:
432,192,192720,2,0,L|436:92,1,95,8|2,0:0|0:0,0:0:0:0:
332,96,193120,1,0,0:0:0:0:
448,96,193320,1,2,0:0:0:0:
172,96,193520,6,2,L|76:96,1,95,0|0,0:0|0:0,0:0:0:0:
268,96,193907,2,0,P|328:164|272:224,1,190,2|0,0:0|0:0,0:0:0:0:
216,224,194294,2,0,L|120:224,1,95,4|0,0:0|0:0,0:0:0:0:
312,308,194681,2,0,P|372:280|392:200,1,142.5,2|0,0:0|0:0,0:0:0:0:
328,212,195068,6,0,P|268:160|324:84,1,190,4|0,0:0|0:0,0:0:0:0:
428,84,195649,1,0,0:0:0:0:
316,84,195842,2,0,L|220:84,1,95,4|0,0:0|0:0,0:0:0:0:
412,84,196229,2,0,P|456:132|412:180,1,142.5,2|0,0:0|0:0,0:0:0:0:
340,180,196616,6,0,P|284:192|236:316,1,190,4|0,0:0|0:0,0:0:0:0:
284,304,196991,2,0,L|388:304,1,95,2|0,0:0|0:0,0:0:0:0:
484,212,197366,2,0,L|488:308,1,95,4|0,0:0|0:0,0:0:0:0:
292,304,197741,2,0,P|232:276|212:196,1,142.5,2|0,0:0|0:0,0:0:0:0:
276,168,198116,6,0,P|336:116|280:40,1,190,4|0,0:0|0:0,0:0:0:0:
188,40,198678,1,0,0:0:0:0:
288,40,198866,2,0,L|292:144,1,95,4|0,0:0|0:0,0:0:0:0:
100,192,199241,2,0,P|56:232|96:292,1,142.5,2|0,0:0|0:0,0:0:0:0:
208,292,199616,5,4,0:0:0:0:
282,273,199797,1,2,0:0:0:0:
318,206,199979,1,2,0:0:0:0:
292,134,200161,1,0,0:0:0:0:
100,192,200343,2,0,L|96:84,1,95,4|2,0:0|0:0,0:0:0:0:
192,88,200706,1,2,0:0:0:0:
88,100,200888,1,0,0:0:0:0:
280,288,201070,5,4,0:0:0:0:
372,264,201252,1,2,0:0:0:0:
372,168,201434,1,2,0:0:0:0:
280,144,201616,1,0,0:0:0:0:
88,192,201797,2,0,L|84:304,1,95,4|2,0:0|0:0,0:0:0:0:
280,288,202161,1,2,0:0:0:0:
176,264,202343,1,2,0:0:0:0:
452,192,202525,5,4,0:0:0:0:
476,128,202642,1,0,0:0:0:0:
444,64,202760,1,0,0:0:0:0:
376,48,202877,2,0,L|308:48,2,63.3333333333333,2|0|0,0:0|0:0|0:0,0:0:0:0:
444,64,203230,1,8,0:0:0:0:
476,128,203348,1,0,0:0:0:0:
452,192,203466,1,0,0:0:0:0:
392,224,203583,1,2,0:0:0:0:
204,328,203936,5,2,0:0:0:0:
172,288,204025,1,0,0:0:0:0:
168,236,204113,1,0,0:0:0:0:
188,188,204201,1,0,0:0:0:0:
232,164,204288,1,2,0:0:0:0:
424,192,204642,2,0,L|428:136,2,47.5,8|0|0,0:0|0:0|0:0,0:0:0:0:
232,164,204995,1,2,0:0:0:0:
184,164,205083,1,0,0:0:0:0:
137,164,205171,1,0,0:0:0:0:
404,244,205348,5,4,0:0:0:0:
432,180,205465,1,0,0:0:0:0:
420,112,205583,1,0,0:0:0:0:
380,56,205700,1,2,0:0:0:0:
320,20,205818,1,0,0:0:0:0:
252,16,205936,1,0,0:0:0:0:
320,20,206054,1,8,0:0:0:0:
252,16,206172,1,0,0:0:0:0:
192,52,206289,1,0,0:0:0:0:
184,120,206407,1,2,0:0:0:0:
372,136,206760,5,2,0:0:0:0:
412,156,206848,1,0,0:0:0:0:
436,208,206936,1,0,0:0:0:0:
432,260,207025,1,0,0:0:0:0:
400,300,207113,1,2,0:0:0:0:
296,304,207289,1,0,0:0:0:0:
104,304,207466,2,0,L|56:304,2,47.5,8|0|0,0:0|0:0|0:0,0:0:0:0:
296,208,207819,1,2,0:0:0:0:
344,208,207907,1,0,0:0:0:0:
391,208,207995,1,0,0:0:0:0:
116,192,208172,6,0,L|44:192,2,63.3333333333333,4|0|0,0:0|0:0|0:0,0:0:0:0:
192,192,208525,2,0,L|254:155,2,63.3333333333333,2|0|0,0:0|0:0|0:0,0:0:0:0:
124,192,208877,2,0,L|88:129,2,63.3333333333333,8|0|0,0:0|0:0|0:0,0:0:0:0:
188,192,209230,1,2,0:0:0:0:
368,36,209583,5,2,0:0:0:0:
379,81,209672,1,0,0:0:0:0:
371,128,209760,1,0,0:0:0:0:
345,167,209848,1,0,0:0:0:0:
305,191,209936,2,0,L|204:192,1,95,2|0,0:0|0:0,0:0:0:0:
395,359,210289,2,0,L|460:360,1,63.3333333333333,8|0,0:0|0:0,0:0:0:0:
380,360,210525,2,0,L|376:280,1,63.3333333333333,0|2,0:0|0:0,0:0:0:0:
452,300,210760,1,0,0:0:0:0:
100,256,210995,5,4,0:0:0:0:
62,190,211113,1,0,0:0:0:0:
100,124,211230,1,0,0:0:0:0:
176,124,211348,1,2,0:0:0:0:
214,190,211466,1,0,0:0:0:0:
176,256,211583,1,0,0:0:0:0:
100,256,211701,2,0,L|60:200,2,63.3333333333333,8|0|0,0:0|0:0|0:0,0:0:0:0:
164,256,212054,1,2,0:0:0:0:
196,256,212142,1,0,0:0:0:0:
164,256,212230,1,0,0:0:0:0:
236,228,212407,6,0,L|240:124,1,95,2|0,0:0|0:0,0:0:0:0:
224,40,212760,1,2,0:0:0:0:
176,40,212848,1,0,0:0:0:0:
128,40,212936,1,0,0:0:0:0:
300,192,213113,1,8,0:0:0:0:
260,192,213201,1,0,0:0:0:0:
220,192,213289,1,0,0:0:0:0:
116,288,213466,2,0,L|120:188,1,95,2|0,0:0|0:0,0:0:0:0:
300,192,213819,5,4,0:0:0:0:
256,192,213995,12,4,218054,0:0:0:0:
132,248,218525,5,2,0:0:0:0:
116,187,218642,1,2,0:0:0:0:
126,125,218760,1,2,0:0:0:0:
162,73,218877,1,2,0:0:0:0:
224,56,218995,2,0,L|292:56,2,63.3333333333333,2|2|2,0:0|0:0|0:0,0:0:0:0:
440,276,219466,6,0,L|444:196,1,63.3333333333333,2|2,0:0|0:0,0:0:0:0:
368,168,219701,2,0,L|304:168,1,63.3333333333333,2|2,0:0|0:0,0:0:0:0:
380,168,219936,2,0,L|384:88,1,63.3333333333333,2|2,0:0|0:0,0:0:0:0:
304,168,220172,1,2,0:0:0:0:
88,328,220407,5,2,0:0:0:0:
146,307,220524,1,2,0:0:0:0:
183,257,220642,1,2,0:0:0:0:
185,194,220759,1,2,0:0:0:0:
152,144,220877,2,0,L|80:144,1,63.3333333333333,2|2,0:0|0:0,0:0:0:0:
24,68,221113,2,0,L|79:21,1,63.3333333333333,2|2,0:0|0:0,0:0:0:0:
124,28,221348,1,2,0:0:0:0:
71,28,221466,1,2,0:0:0:0:
224,68,221584,5,0,0:0:0:0:
364,192,226878,6,0,L|368:92,1,95,8|8,0:0|0:0,0:0:0:0:
104,192,227231,6,0,P|44:136|104:64,1,190,4|8,0:0|0:0,0:0:0:0:
196,64,227760,1,0,0:0:0:0:
92,64,227936,2,0,L|88:160,1,95,2|0,0:0|0:0,0:0:0:0:
263,192,228289,2,0,B|359:192|359:192|359:240,1,142.5,8|2,0:0|0:0,0:0:0:0:
307,240,228642,6,0,L|211:240,1,95,2|0,0:0|0:0,0:0:0:0:
479,192,228995,2,0,L|483:84,1,95,4|0,0:0|0:0,0:0:0:0:
311,128,229348,2,0,L|307:28,1,95,4|0,0:0|0:0,0:0:0:0:
135,192,229701,2,0,L|139:92,1,95,4|0,0:0|0:0,0:0:0:0:
407,332,230054,6,0,P|431:280|331:156,1,237.5,4|8,0:0|0:0,0:0:0:0:
227,156,230584,1,0,0:0:0:0:
339,156,230760,2,0,L|343:56,1,95,2|0,0:0|0:0,0:0:0:0:
168,108,231113,2,0,B|72:108|72:108|72:156,1,142.5,8|2,0:0|0:0,0:0:0:0:
124,156,231466,6,0,L|220:156,1,95,2|0,0:0|0:0,0:0:0:0:
488,336,231819,2,0,L|484:228,1,95,4|0,0:0|0:0,0:0:0:0:
312,308,232172,2,0,L|258:223,1,95,4|0,0:0|0:0,0:0:0:0:
436,164,232525,2,0,L|347:117,1,95,4|0,0:0|0:0,0:0:0:0:
84,296,232878,6,0,P|60:244|160:120,1,237.5,4|2,0:0|0:0,0:0:0:0:
264,120,233408,1,0,0:0:0:0:
100,72,233584,2,0,L|297:124,1,190,4|0,0:0|0:0,0:0:0:0:
380,124,234113,1,0,0:0:0:0:
140,36,234289,6,0,P|76:92|140:152,1,190,4|0,0:0|0:0,0:0:0:0:
232,152,234819,1,0,0:0:0:0:
484,192,234995,2,0,L|380:192,1,95,4|0,0:0|0:0,0:0:0:0:
484,192,235348,1,8,0:0:0:0:
64,304,235701,5,2,0:0:0:0:
60,249,235789,1,0,0:0:0:0:
91,204,235877,1,0,0:0:0:0:
143,188,235965,1,0,0:0:0:0:
194,206,236053,1,2,0:0:0:0:
223,252,236142,1,0,0:0:0:0:
218,306,236230,1,0,0:0:0:0:
392,188,236407,5,2,0:0:0:0:
436,168,236495,1,0,0:0:0:0:
436,120,236584,1,0,0:0:0:0:
392,100,236672,1,0,0:0:0:0:
336,88,236760,1,2,0:0:0:0:
392,76,236848,1,0,0:0:0:0:
448,60,236936,1,0,0:0:0:0:
200,12,237113,5,2,0:0:0:0:
131,40,237201,1,0,0:0:0:0:
131,115,237289,1,0,0:0:0:0:
200,143,237377,1,0,0:0:0:0:
240,176,237466,1,2,0:0:0:0:
240,228,237554,1,0,0:0:0:0:
200,264,237642,1,0,0:0:0:0:
28,192,237819,5,2,0:0:0:0:
21,133,237907,1,0,0:0:0:0:
44,80,237995,1,0,0:0:0:0:
92,45,238083,1,0,0:0:0:0:
150,40,238171,1,2,0:0:0:0:
92,45,238260,1,0,0:0:0:0:
150,40,238348,1,0,0:0:0:0:
324,64,238525,6,0,L|380:64,2,47.5,2|0|0,0:0|0:0|0:0,0:0:0:0:
172,152,238878,2,0,L|120:122,2,47.5,2|0|0,0:0|0:0|0:0,0:0:0:0:
304,236,239231,2,0,L|336:180,2,47.5,2|0|0,0:0|0:0|0:0,0:0:0:0:
188,296,239584,1,2,0:0:0:0:
184,296,239672,1,0,0:0:0:0:
180,296,239760,1,0,0:0:0:0:
444,192,239936,6,0,P|500:128|412:32,1,237.5,4|0,0:0|0:0,0:0:0:0:
128,64,240642,6,0,L|328:64,1,190,4|0,0:0|0:0,0:0:0:0:
32,64,241348,6,0,L|28:180,1,95,4|0,0:0|0:0,0:0:0:0:
