osu file format v14

[General]
AudioFilename: delia.ogg
AudioLeadIn: 2
PreviewTime: 0
Countdown: 0
SampleSet: None
StackLeniency: 0.7
Mode: 3
LetterboxInBreaks: 0
SpecialStyle: 0
WidescreenStoryboard: 0

[Editor]
DistanceSpacing: 0.8
BeatDivisor: 4
GridSize: 8
TimelineZoom: 1

[Metadata]
Title:Oh Delia
TitleUnicode:Oh Delia
Artist:Beek
ArtistUnicode:Beek
Creator:LogicleG
Version:Hard
Source:
Tags:
BeatmapID:1419788
BeatmapSetID:671508

[Difficulty]
HPDrainRate:5
CircleSize:4
OverallDifficulty:7
ApproachRate:10
SliderMultiplier:1.4
SliderTickRate:1

[Events]
//Background and Video events
//Break Periods
//Storyboard Layer 0 (Background)
//Storyboard Layer 1 (Fail)
//Storyboard Layer 2 (Pass)
//Storyboard Layer 3 (Foreground)
//Storyboard Sound Samples

[TimingPoints]
0,260.6577,4,2,0,0,1,0
260.6577,260.6803,4,2,0,0,1,0
1564.059,260.6577,4,2,0,0,1,0
1824.717,260.6803,4,2,0,0,1,0
3388.798,260.6577,4,2,0,0,1,0
3649.456,260.6803,4,2,0,0,1,0
5213.539,260.6577,4,2,0,0,1,0
5474.196,260.6803,4,2,0,0,1,0
6777.598,260.6577,4,2,0,0,1,0
7038.255,260.6803,4,2,0,0,1,0
8602.335,260.6577,4,2,0,0,1,0
8862.991,260.6803,4,2,0,0,1,0
10427.07,260.6577,4,2,0,0,1,0
10687.73,260.6803,4,2,0,0,1,0
11991.12,260.6577,4,2,0,0,1,0
12251.78,260.6803,4,2,0,0,1,0
13815.86,260.6577,4,2,0,0,1,0
14076.51,260.6803,4,2,0,0,1,0
15640.59,260.6577,4,2,0,0,1,0
15901.25,260.6803,4,2,0,0,1,0
17465.33,260.6577,4,2,0,0,1,0
17725.98,260.6803,4,2,0,0,1,0
19029.38,260.6577,4,2,0,0,1,0
19290.04,260.6803,4,2,0,0,1,0
20854.12,260.6577,4,2,0,0,1,0
21114.77,260.6803,4,2,0,0,1,0
22678.85,260.6577,4,2,0,0,1,0
22939.51,260.6803,4,2,0,0,1,0
24242.91,260.6577,4,2,0,0,1,0
24503.56,260.6803,4,2,0,0,1,0
26067.64,260.6577,4,2,0,0,1,0
26328.3,260.6803,4,2,0,0,1,0
27892.38,260.6577,4,2,0,0,1,0
28153.03,260.6803,4,2,0,0,1,0
29717.11,260.6577,4,2,0,0,1,0
29977.77,260.6803,4,2,0,0,1,0
31281.16,260.6577,4,2,0,0,1,0
31541.82,260.6803,4,2,0,0,1,0
33105.91,260.6577,4,2,0,0,1,0
33366.57,260.6803,4,2,0,0,1,0
34930.69,260.6577,4,2,0,0,1,0
35191.35,260.6803,4,2,0,0,1,0
36494.79,260.6577,4,2,0,0,1,0
36755.44,260.6803,4,2,0,0,1,0
38319.57,260.6577,4,2,0,0,1,0
38580.22,260.6803,4,2,0,0,1,0
40144.35,260.6577,4,2,0,0,1,0
40405,260.6803,4,2,0,0,1,0
41708.44,260.6577,4,2,0,0,1,0
41969.1,260.6803,4,2,0,0,1,0
43533.22,260.6577,4,2,0,0,1,0
43793.88,260.6803,4,2,0,0,1,0
45358,260.6577,4,2,0,0,1,0
45618.66,260.6803,4,2,0,0,1,0
47182.79,260.6577,4,2,0,0,1,0
47443.44,260.6803,4,2,0,0,1,0
48746.88,260.6577,4,2,0,0,1,0
49007.54,260.6803,4,2,0,0,1,0
50571.66,260.6577,4,2,0,0,1,0
50832.32,260.6803,4,2,0,0,1,0
52396.44,260.6577,4,2,0,0,1,0
52657.1,260.6803,4,2,0,0,1,0
53960.54,260.6577,4,2,0,0,1,0
54221.19,260.6803,4,2,0,0,1,0
55785.32,260.6577,4,2,0,0,1,0
56045.97,260.6803,4,2,0,0,1,0
57610.1,260.6577,4,2,0,0,1,0
57870.75,260.6803,4,2,0,0,1,0
59434.88,260.6577,4,2,0,0,1,0
59695.54,260.6803,4,2,0,0,1,0
60998.97,260.6577,4,2,0,0,1,0
61259.63,260.6803,4,2,0,0,1,0
62823.75,260.6577,4,2,0,0,1,0
63084.41,260.6803,4,2,0,0,1,0
64648.54,260.6577,4,2,0,0,1,0
64909.19,260.6803,4,2,0,0,1,0
66212.63,260.6577,4,2,0,0,1,0
66473.28,260.6803,4,2,0,0,1,0
68037.41,260.6577,4,2,0,0,1,0
68298.06,260.6803,4,2,0,0,1,0
69862.19,260.6577,4,2,0,0,1,0
70122.84,260.6803,4,2,0,0,1,0
71426.28,260.6577,4,2,0,0,1,0
71686.94,260.6803,4,2,0,0,1,0
73251.06,260.6577,4,2,0,0,1,0
73511.72,260.6803,4,2,0,0,1,0
75075.84,260.6577,4,2,0,0,1,0
75336.5,260.6803,4,2,0,0,1,0
76900.63,260.6577,4,2,0,0,1,0
77161.28,260.6803,4,2,0,0,1,0
78464.72,260.6577,4,2,0,0,1,0
78725.38,260.6803,4,2,0,0,1,0
80289.5,260.6577,4,2,0,0,1,0
80550.16,260.6803,4,2,0,0,1,0
82114.28,260.6577,4,2,0,0,1,0
82374.94,260.6803,4,2,0,0,1,0
83678.38,260.6577,4,2,0,0,1,0
83939.03,260.6803,4,2,0,0,1,0
85503.16,260.6577,4,2,0,0,1,0
85763.81,260.6803,4,2,0,0,1,0
87327.94,260.6577,4,2,0,0,1,0
87588.59,260.6803,4,2,0,0,1,0
89152.72,260.6577,4,2,0,0,1,0
89413.38,260.6803,4,2,0,0,1,0
90716.81,260.6577,4,2,0,0,1,0
90977.47,260.6803,4,2,0,0,1,0
92541.59,260.6577,4,2,0,0,1,0
92802.25,260.6803,4,2,0,0,1,0
94366.38,260.6577,4,2,0,0,1,0
94627.03,260.6803,4,2,0,0,1,0
95930.47,260.6577,4,2,0,0,1,0
96191.13,260.6803,4,2,0,0,1,0
97755.25,260.6577,4,2,0,0,1,0
98015.91,260.6803,4,2,0,0,1,0
99580.03,260.6577,4,2,0,0,1,0
99840.69,260.6803,4,2,0,0,1,0
101144.1,260.6577,4,2,0,0,1,0
101404.8,260.6803,4,2,0,0,1,0
102968.9,260.6577,4,2,0,0,1,0
103229.5,260.6803,4,2,0,0,1,0

[HitObjects]
448,192,0,5,0,0:0:0:0:
64,192,260,1,0,0:0:0:0:
192,192,521,1,0,0:0:0:0:
320,192,782,1,0,0:0:0:0:
192,192,912,1,0,0:0:0:0:
320,192,1303,1,0,0:0:0:0:
448,192,1564,1,0,0:0:0:0:
64,192,1824,1,0,0:0:0:0:
448,192,2085,1,0,0:0:0:0:
64,192,2346,1,0,0:0:0:0:
192,192,2606,1,0,0:0:0:0:
320,192,2867,1,0,0:0:0:0:
192,192,2997,1,0,0:0:0:0:
320,192,3388,1,0,0:0:0:0:
448,192,3649,1,0,0:0:0:0:
64,192,3910,1,0,0:0:0:0:
320,192,4170,1,0,0:0:0:0:
448,192,4170,1,0,0:0:0:0:
64,192,4431,1,0,0:0:0:0:
192,192,4692,1,0,0:0:0:0:
448,192,4692,1,0,0:0:0:0:
320,192,4952,1,0,0:0:0:0:
192,192,5083,1,0,0:0:0:0:
64,192,5213,1,0,0:0:0:0:
320,192,5474,1,0,0:0:0:0:
192,192,5734,1,0,0:0:0:0:
448,192,5734,1,0,0:0:0:0:
64,192,5995,1,0,0:0:0:0:
320,192,6256,1,0,0:0:0:0:
448,192,6256,1,0,0:0:0:0:
64,192,6516,1,0,0:0:0:0:
192,192,6777,1,0,0:0:0:0:
448,192,6777,1,0,0:0:0:0:
320,192,7038,1,0,0:0:0:0:
192,192,7168,1,0,0:0:0:0:
64,192,7298,1,0,0:0:0:0:
192,192,7559,1,0,0:0:0:0:
320,192,7559,1,0,0:0:0:0:
192,192,7689,1,0,0:0:0:0:
192,192,7820,1,0,0:0:0:0:
448,192,7820,1,0,0:0:0:0:
192,192,7950,1,0,0:0:0:0:
64,192,8080,1,0,0:0:0:0:
192,192,8080,1,0,0:0:0:0:
320,192,8146,1,0,0:0:0:0:
192,192,8211,1,0,0:0:0:0:
320,192,8276,1,0,0:0:0:0:
192,192,8341,1,0,0:0:0:0:
448,192,8341,1,0,0:0:0:0:
320,192,8406,1,0,0:0:0:0:
448,192,8471,1,0,0:0:0:0:
64,192,8602,1,0,0:0:0:0:
192,192,8602,1,0,0:0:0:0:
64,192,8732,1,0,0:0:0:0:
448,192,8732,1,0,0:0:0:0:
192,192,8797,1,0,0:0:0:0:
320,192,8862,1,0,0:0:0:0:
320,192,8993,1,0,0:0:0:0:
64,192,9123,1,0,0:0:0:0:
448,192,9123,1,0,0:0:0:0:
320,192,9188,1,0,0:0:0:0:
192,192,9254,1,0,0:0:0:0:
64,192,9384,1,0,0:0:0:0:
192,192,9384,1,0,0:0:0:0:
320,192,9449,1,0,0:0:0:0:
64,192,9514,1,0,0:0:0:0:
448,192,9514,1,0,0:0:0:0:
192,192,9645,1,0,0:0:0:0:
320,192,9775,1,0,0:0:0:0:
64,192,9905,1,0,0:0:0:0:
448,192,9905,1,0,0:0:0:0:
192,192,9970,1,0,0:0:0:0:
320,192,10036,1,0,0:0:0:0:
192,192,10166,1,0,0:0:0:0:
448,192,10166,1,0,0:0:0:0:
64,192,10296,1,0,0:0:0:0:
448,192,10296,1,0,0:0:0:0:
192,192,10427,1,0,0:0:0:0:
448,192,10427,1,0,0:0:0:0:
320,192,10492,1,0,0:0:0:0:
448,192,10557,1,0,0:0:0:0:
192,192,10687,1,0,0:0:0:0:
320,192,10687,1,0,0:0:0:0:
64,192,10818,1,0,0:0:0:0:
192,192,10883,1,0,0:0:0:0:
64,192,10948,1,0,0:0:0:0:
448,192,10948,1,0,0:0:0:0:
64,192,11078,1,0,0:0:0:0:
320,192,11209,1,0,0:0:0:0:
448,192,11209,1,0,0:0:0:0:
192,192,11274,1,0,0:0:0:0:
64,192,11339,1,0,0:0:0:0:
192,192,11469,1,0,0:0:0:0:
448,192,11469,1,0,0:0:0:0:
320,192,11534,1,0,0:0:0:0:
192,192,11600,1,0,0:0:0:0:
448,192,11600,1,0,0:0:0:0:
64,192,11730,1,0,0:0:0:0:
320,192,11730,1,0,0:0:0:0:
320,192,11860,1,0,0:0:0:0:
192,192,11991,1,0,0:0:0:0:
448,192,11991,1,0,0:0:0:0:
320,192,12056,1,0,0:0:0:0:
64,192,12121,1,0,0:0:0:0:
448,192,12121,1,0,0:0:0:0:
64,192,12251,1,0,0:0:0:0:
192,192,12251,1,0,0:0:0:0:
192,192,12382,1,0,0:0:0:0:
64,192,12512,1,0,0:0:0:0:
448,192,12512,1,0,0:0:0:0:
192,192,12577,1,0,0:0:0:0:
320,192,12642,1,0,0:0:0:0:
192,192,12773,1,0,0:0:0:0:
320,192,12773,1,0,0:0:0:0:
448,192,12903,1,0,0:0:0:0:
320,192,12968,1,0,0:0:0:0:
192,192,13033,1,0,0:0:0:0:
64,192,13164,1,0,0:0:0:0:
192,192,13294,1,0,0:0:0:0:
320,192,13294,1,0,0:0:0:0:
448,192,13359,1,0,0:0:0:0:
320,192,13424,1,0,0:0:0:0:
64,192,13555,1,0,0:0:0:0:
448,192,13555,1,0,0:0:0:0:
320,192,13620,1,0,0:0:0:0:
64,192,13685,1,0,0:0:0:0:
192,192,13685,1,0,0:0:0:0:
448,192,13815,1,0,0:0:0:0:
192,192,13946,1,0,0:0:0:0:
320,192,13946,1,0,0:0:0:0:
64,192,14076,1,0,0:0:0:0:
448,192,14076,1,0,0:0:0:0:
192,192,14141,1,0,0:0:0:0:
320,192,14206,1,0,0:0:0:0:
64,192,14337,1,0,0:0:0:0:
192,192,14337,1,0,0:0:0:0:
320,192,14597,1,0,0:0:0:0:
448,192,14597,1,0,0:0:0:0:
192,192,14663,1,0,0:0:0:0:
64,192,14728,1,0,0:0:0:0:
448,192,14858,1,0,0:0:0:0:
64,192,14988,1,0,0:0:0:0:
320,192,14988,1,0,0:0:0:0:
192,192,15054,1,0,0:0:0:0:
448,192,15119,1,0,0:0:0:0:
64,192,15249,1,0,0:0:0:0:
320,192,15379,1,0,0:0:0:0:
448,192,15379,1,0,0:0:0:0:
192,192,15445,1,0,0:0:0:0:
64,192,15510,1,0,0:0:0:0:
320,192,15510,1,0,0:0:0:0:
64,192,15640,1,0,0:0:0:0:
448,192,15640,1,0,0:0:0:0:
192,192,15705,1,0,0:0:0:0:
320,192,15770,1,0,0:0:0:0:
448,192,15770,1,0,0:0:0:0:
64,192,15901,1,0,0:0:0:0:
320,192,15901,1,0,0:0:0:0:
192,192,16031,1,0,0:0:0:0:
64,192,16161,1,0,0:0:0:0:
320,192,16161,1,0,0:0:0:0:
448,192,16227,1,0,0:0:0:0:
64,192,16292,1,0,0:0:0:0:
192,192,16292,1,0,0:0:0:0:
192,192,16422,1,0,0:0:0:0:
320,192,16422,1,0,0:0:0:0:
192,192,16552,1,0,0:0:0:0:
192,192,16683,1,0,0:0:0:0:
448,192,16683,1,0,0:0:0:0:
320,192,16748,1,0,0:0:0:0:
64,192,16813,1,0,0:0:0:0:
448,192,16813,1,0,0:0:0:0:
64,192,16943,1,0,0:0:0:0:
192,192,16943,1,0,0:0:0:0:
64,192,17074,1,0,0:0:0:0:
448,192,17074,1,0,0:0:0:0:
192,192,17139,1,0,0:0:0:0:
320,192,17204,1,0,0:0:0:0:
192,192,17334,1,0,0:0:0:0:
320,192,17334,1,0,0:0:0:0:
64,192,17465,1,0,0:0:0:0:
448,192,17465,1,0,0:0:0:0:
320,192,17530,1,0,0:0:0:0:
192,192,17595,1,0,0:0:0:0:
64,192,17725,1,0,0:0:0:0:
192,192,17725,1,0,0:0:0:0:
320,192,17791,1,0,0:0:0:0:
64,192,17856,1,0,0:0:0:0:
448,192,17856,1,0,0:0:0:0:
192,192,17986,1,0,0:0:0:0:
320,192,17986,1,0,0:0:0:0:
320,192,18117,1,0,0:0:0:0:
448,192,18117,1,0,0:0:0:0:
64,192,18247,1,0,0:0:0:0:
448,192,18247,1,0,0:0:0:0:
192,192,18312,1,0,0:0:0:0:
64,192,18377,1,0,0:0:0:0:
320,192,18377,1,0,0:0:0:0:
192,192,18508,1,0,0:0:0:0:
448,192,18508,1,0,0:0:0:0:
64,192,18638,1,0,0:0:0:0:
448,192,18638,1,0,0:0:0:0:
192,192,18768,1,0,0:0:0:0:
448,192,18768,1,0,0:0:0:0:
320,192,18833,1,0,0:0:0:0:
448,192,18899,1,0,0:0:0:0:
192,192,19029,1,0,0:0:0:0:
320,192,19029,1,0,0:0:0:0:
64,192,19159,1,0,0:0:0:0:
320,192,19159,1,0,0:0:0:0:
192,192,19224,1,0,0:0:0:0:
64,192,19290,1,0,0:0:0:0:
448,192,19290,1,0,0:0:0:0:
64,192,19420,1,0,0:0:0:0:
192,192,19420,1,0,0:0:0:0:
320,192,19550,1,0,0:0:0:0:
448,192,19550,1,0,0:0:0:0:
192,192,19615,1,0,0:0:0:0:
64,192,19681,1,0,0:0:0:0:
320,192,19681,1,0,0:0:0:0:
192,192,19811,1,0,0:0:0:0:
448,192,19811,1,0,0:0:0:0:
320,192,19876,1,0,0:0:0:0:
192,192,19941,1,0,0:0:0:0:
448,192,19941,1,0,0:0:0:0:
64,192,20072,1,0,0:0:0:0:
320,192,20072,1,0,0:0:0:0:
192,192,20202,1,0,0:0:0:0:
320,192,20202,1,0,0:0:0:0:
192,192,20332,1,0,0:0:0:0:
448,192,20332,1,0,0:0:0:0:
320,192,20397,1,0,0:0:0:0:
64,192,20463,1,0,0:0:0:0:
448,192,20463,1,0,0:0:0:0:
64,192,20593,1,0,0:0:0:0:
192,192,20593,1,0,0:0:0:0:
192,192,20723,1,0,0:0:0:0:
320,192,20723,1,0,0:0:0:0:
64,192,20854,1,0,0:0:0:0:
448,192,20854,1,0,0:0:0:0:
192,192,20919,1,0,0:0:0:0:
64,192,20984,1,0,0:0:0:0:
320,192,20984,1,0,0:0:0:0:
192,192,21114,1,0,0:0:0:0:
320,192,21114,1,0,0:0:0:0:
64,192,21245,1,0,0:0:0:0:
448,192,21245,1,0,0:0:0:0:
320,192,21310,1,0,0:0:0:0:
192,192,21375,1,0,0:0:0:0:
448,192,21375,1,0,0:0:0:0:
64,192,21505,1,0,0:0:0:0:
192,192,21505,1,0,0:0:0:0:
192,192,21636,1,0,0:0:0:0:
320,192,21636,1,0,0:0:0:0:
448,192,21701,1,0,0:0:0:0:
320,192,21766,1,0,0:0:0:0:
64,192,21896,1,0,0:0:0:0:
448,192,21896,1,0,0:0:0:0:
320,192,21961,1,0,0:0:0:0:
64,192,22027,1,0,0:0:0:0:
192,192,22027,1,0,0:0:0:0:
320,192,22157,1,0,0:0:0:0:
448,192,22157,1,0,0:0:0:0:
192,192,22287,1,0,0:0:0:0:
320,192,22287,1,0,0:0:0:0:
64,192,22418,1,0,0:0:0:0:
320,192,22418,1,0,0:0:0:0:
448,192,22418,1,0,0:0:0:0:
192,192,22483,1,0,0:0:0:0:
64,192,22548,1,0,0:0:0:0:
320,192,22548,1,0,0:0:0:0:
448,192,22548,1,0,0:0:0:0:
64,192,22678,1,0,0:0:0:0:
192,192,22678,1,0,0:0:0:0:
320,192,22678,1,0,0:0:0:0:
192,192,22809,1,0,0:0:0:0:
320,192,22809,1,0,0:0:0:0:
448,192,22809,1,0,0:0:0:0:
320,192,22939,1,0,0:0:0:0:
448,192,22939,1,0,0:0:0:0:
192,192,23004,1,0,0:0:0:0:
64,192,23069,1,0,0:0:0:0:
320,192,23200,1,0,0:0:0:0:
448,192,23200,1,0,0:0:0:0:
64,192,23330,1,0,0:0:0:0:
320,192,23330,1,0,0:0:0:0:
192,192,23395,1,0,0:0:0:0:
320,192,23460,1,0,0:0:0:0:
448,192,23460,1,0,0:0:0:0:
64,192,23591,1,0,0:0:0:0:
320,192,23721,1,0,0:0:0:0:
448,192,23721,1,0,0:0:0:0:
192,192,23786,1,0,0:0:0:0:
64,192,23851,1,0,0:0:0:0:
320,192,23851,1,0,0:0:0:0:
64,192,23982,1,0,0:0:0:0:
448,192,23982,1,0,0:0:0:0:
192,192,24047,1,0,0:0:0:0:
320,192,24112,1,0,0:0:0:0:
448,192,24112,1,0,0:0:0:0:
64,192,24242,1,0,0:0:0:0:
320,192,24242,1,0,0:0:0:0:
192,192,24373,1,0,0:0:0:0:
64,192,24503,1,0,0:0:0:0:
320,192,24503,1,0,0:0:0:0:
448,192,24568,1,0,0:0:0:0:
64,192,24633,1,0,0:0:0:0:
192,192,24633,1,0,0:0:0:0:
192,192,24764,1,0,0:0:0:0:
320,192,24764,1,0,0:0:0:0:
192,192,24894,1,0,0:0:0:0:
64,192,25024,1,0,0:0:0:0:
192,192,25024,1,0,0:0:0:0:
448,192,25024,1,0,0:0:0:0:
320,192,25090,1,0,0:0:0:0:
192,192,25155,1,0,0:0:0:0:
64,192,25220,1,0,0:0:0:0:
320,192,25285,1,0,0:0:0:0:
448,192,25285,1,0,0:0:0:0:
64,192,25350,1,0,0:0:0:0:
192,192,25415,1,0,0:0:0:0:
320,192,25481,1,0,0:0:0:0:
64,192,25546,1,0,0:0:0:0:
192,192,25546,1,0,0:0:0:0:
448,192,25546,1,0,0:0:0:0:
320,192,25611,1,0,0:0:0:0:
192,192,25676,1,0,0:0:0:0:
64,192,25741,1,0,0:0:0:0:
192,192,25806,1,0,0:0:0:0:
448,192,25806,1,0,0:0:0:0:
320,192,25872,1,0,0:0:0:0:
448,192,25937,1,0,0:0:0:0:
192,192,26002,1,0,0:0:0:0:
64,192,26067,1,0,0:0:0:0:
320,192,26067,1,0,0:0:0:0:
448,192,26067,1,0,0:0:0:0:
192,192,26132,1,0,0:0:0:0:
64,192,26197,1,0,0:0:0:0:
320,192,26263,1,0,0:0:0:0:
192,192,26328,1,0,0:0:0:0:
448,192,26328,1,0,0:0:0:0:
320,192,26393,1,0,0:0:0:0:
192,192,26458,1,0,0:0:0:0:
64,192,26523,1,0,0:0:0:0:
192,192,26588,1,0,0:0:0:0:
320,192,26588,1,0,0:0:0:0:
448,192,26588,1,0,0:0:0:0:
64,192,26654,1,0,0:0:0:0:
192,192,26719,1,0,0:0:0:0:
448,192,26719,1,0,0:0:0:0:
320,192,26784,1,0,0:0:0:0:
64,192,26849,1,0,0:0:0:0:
448,192,26849,1,0,0:0:0:0:
192,192,26914,1,0,0:0:0:0:
320,192,26979,1,0,0:0:0:0:
448,192,27045,1,0,0:0:0:0:
64,192,27110,1,0,0:0:0:0:
192,192,27110,1,0,0:0:0:0:
320,192,27110,1,0,0:0:0:0:
448,192,27175,1,0,0:0:0:0:
320,192,27240,1,0,0:0:0:0:
192,192,27305,1,0,0:0:0:0:
64,192,27371,1,0,0:0:0:0:
448,192,27371,1,0,0:0:0:0:
320,192,27436,1,0,0:0:0:0:
192,192,27501,1,0,0:0:0:0:
64,192,27566,1,0,0:0:0:0:
192,192,27631,1,0,0:0:0:0:
320,192,27631,1,0,0:0:0:0:
448,192,27631,1,0,0:0:0:0:
64,192,27696,1,0,0:0:0:0:
192,192,27762,1,0,0:0:0:0:
448,192,27762,1,0,0:0:0:0:
64,192,27827,1,0,0:0:0:0:
192,192,27892,1,0,0:0:0:0:
320,192,27892,1,0,0:0:0:0:
448,192,27957,1,0,0:0:0:0:
192,192,28022,1,0,0:0:0:0:
448,192,28087,1,0,0:0:0:0:
64,192,28153,1,0,0:0:0:0:
192,192,28153,1,0,0:0:0:0:
320,192,28153,1,0,0:0:0:0:
448,192,28218,1,0,0:0:0:0:
320,192,28283,1,0,0:0:0:0:
192,192,28348,1,0,0:0:0:0:
64,192,28413,1,0,0:0:0:0:
448,192,28413,1,0,0:0:0:0:
192,192,28478,1,0,0:0:0:0:
320,192,28544,1,0,0:0:0:0:
192,192,28609,1,0,0:0:0:0:
64,192,28674,1,0,0:0:0:0:
320,192,28674,1,0,0:0:0:0:
448,192,28674,1,0,0:0:0:0:
192,192,28739,1,0,0:0:0:0:
64,192,28804,1,0,0:0:0:0:
320,192,28804,1,0,0:0:0:0:
192,192,28869,1,0,0:0:0:0:
64,192,28935,1,0,0:0:0:0:
320,192,28935,1,0,0:0:0:0:
448,192,29000,1,0,0:0:0:0:
320,192,29065,1,0,0:0:0:0:
448,192,29130,1,0,0:0:0:0:
64,192,29195,1,0,0:0:0:0:
192,192,29195,1,0,0:0:0:0:
320,192,29195,1,0,0:0:0:0:
448,192,29260,1,0,0:0:0:0:
320,192,29326,1,0,0:0:0:0:
192,192,29391,1,0,0:0:0:0:
64,192,29456,1,0,0:0:0:0:
448,192,29456,1,0,0:0:0:0:
320,192,29521,1,0,0:0:0:0:
192,192,29586,1,0,0:0:0:0:
64,192,29651,1,0,0:0:0:0:
192,192,29717,1,0,0:0:0:0:
320,192,29717,1,0,0:0:0:0:
448,192,29717,1,0,0:0:0:0:
64,192,29782,1,0,0:0:0:0:
192,192,29847,1,0,0:0:0:0:
448,192,29847,1,0,0:0:0:0:
64,192,29912,1,0,0:0:0:0:
320,192,29977,1,0,0:0:0:0:
448,192,29977,1,0,0:0:0:0:
192,192,30042,1,0,0:0:0:0:
64,192,30108,1,0,0:0:0:0:
448,192,30173,1,0,0:0:0:0:
64,192,30238,1,0,0:0:0:0:
192,192,30238,1,0,0:0:0:0:
320,192,30238,1,0,0:0:0:0:
448,192,30303,1,0,0:0:0:0:
320,192,30368,1,0,0:0:0:0:
192,192,30433,1,0,0:0:0:0:
64,192,30499,1,0,0:0:0:0:
448,192,30499,1,0,0:0:0:0:
192,192,30564,1,0,0:0:0:0:
64,192,30629,1,0,0:0:0:0:
320,192,30629,1,0,0:0:0:0:
448,192,30629,1,0,0:0:0:0:
192,192,30694,1,0,0:0:0:0:
320,192,30759,1,0,0:0:0:0:
448,192,30759,1,0,0:0:0:0:
64,192,30824,1,0,0:0:0:0:
192,192,30890,1,0,0:0:0:0:
448,192,30890,1,0,0:0:0:0:
320,192,30955,1,0,0:0:0:0:
64,192,31020,1,0,0:0:0:0:
192,192,31020,1,0,0:0:0:0:
448,192,31020,1,0,0:0:0:0:
320,192,31085,1,0,0:0:0:0:
192,192,31150,1,0,0:0:0:0:
64,192,31215,1,0,0:0:0:0:
192,192,31281,1,0,0:0:0:0:
448,192,31281,1,0,0:0:0:0:
64,192,31346,1,0,0:0:0:0:
192,192,31411,1,0,0:0:0:0:
320,192,31476,1,0,0:0:0:0:
192,192,31541,1,0,0:0:0:0:
448,192,31541,1,0,0:0:0:0:
64,192,31606,1,0,0:0:0:0:
192,192,31672,1,0,0:0:0:0:
320,192,31737,1,0,0:0:0:0:
64,192,31802,1,0,0:0:0:0:
448,192,31802,1,0,0:0:0:0:
192,192,31867,1,0,0:0:0:0:
64,192,31932,1,0,0:0:0:0:
320,192,31932,1,0,0:0:0:0:
192,192,31998,1,0,0:0:0:0:
320,192,32063,1,0,0:0:0:0:
448,192,32063,1,0,0:0:0:0:
64,192,32128,1,0,0:0:0:0:
192,192,32193,1,0,0:0:0:0:
448,192,32258,1,0,0:0:0:0:
192,192,32323,1,0,0:0:0:0:
320,192,32323,1,0,0:0:0:0:
64,192,32389,1,0,0:0:0:0:
192,192,32454,1,0,0:0:0:0:
320,192,32519,1,0,0:0:0:0:
192,192,32584,1,0,0:0:0:0:
448,192,32584,1,0,0:0:0:0:
64,192,32649,1,0,0:0:0:0:
320,192,32714,1,0,0:0:0:0:
192,192,32780,1,0,0:0:0:0:
320,192,32845,1,0,0:0:0:0:
448,192,32845,1,0,0:0:0:0:
64,192,32910,1,0,0:0:0:0:
192,192,32975,1,0,0:0:0:0:
448,192,32975,1,0,0:0:0:0:
320,192,33040,1,0,0:0:0:0:
64,192,33105,1,0,0:0:0:0:
448,192,33105,1,0,0:0:0:0:
320,192,33171,1,0,0:0:0:0:
192,192,33236,1,0,0:0:0:0:
320,192,33301,1,0,0:0:0:0:
64,192,33366,1,0,0:0:0:0:
192,192,33366,1,0,0:0:0:0:
448,192,33366,1,0,0:0:0:0:
320,192,33431,1,0,0:0:0:0:
192,192,33496,1,0,0:0:0:0:
64,192,33562,1,0,0:0:0:0:
320,192,33627,1,0,0:0:0:0:
448,192,33627,1,0,0:0:0:0:
64,192,33692,1,0,0:0:0:0:
192,192,33757,1,0,0:0:0:0:
320,192,33822,1,0,0:0:0:0:
64,192,33887,1,0,0:0:0:0:
192,192,33887,1,0,0:0:0:0:
448,192,33887,1,0,0:0:0:0:
320,192,33953,1,0,0:0:0:0:
192,192,34018,1,0,0:0:0:0:
64,192,34083,1,0,0:0:0:0:
192,192,34148,1,0,0:0:0:0:
448,192,34148,1,0,0:0:0:0:
320,192,34213,1,0,0:0:0:0:
448,192,34278,1,0,0:0:0:0:
192,192,34344,1,0,0:0:0:0:
64,192,34409,1,0,0:0:0:0:
320,192,34409,1,0,0:0:0:0:
448,192,34409,1,0,0:0:0:0:
192,192,34474,1,0,0:0:0:0:
64,192,34539,1,0,0:0:0:0:
320,192,34604,1,0,0:0:0:0:
192,192,34670,1,0,0:0:0:0:
448,192,34670,1,0,0:0:0:0:
320,192,34735,1,0,0:0:0:0:
192,192,34800,1,0,0:0:0:0:
64,192,34865,1,0,0:0:0:0:
192,192,34930,1,0,0:0:0:0:
320,192,34930,1,0,0:0:0:0:
448,192,34930,1,0,0:0:0:0:
64,192,34995,1,0,0:0:0:0:
192,192,35061,1,0,0:0:0:0:
448,192,35061,1,0,0:0:0:0:
320,192,35126,1,0,0:0:0:0:
64,192,35191,1,0,0:0:0:0:
448,192,35191,1,0,0:0:0:0:
192,192,35256,1,0,0:0:0:0:
320,192,35321,1,0,0:0:0:0:
448,192,35386,1,0,0:0:0:0:
64,192,35452,1,0,0:0:0:0:
192,192,35452,1,0,0:0:0:0:
320,192,35452,1,0,0:0:0:0:
448,192,35517,1,0,0:0:0:0:
320,192,35582,1,0,0:0:0:0:
192,192,35647,1,0,0:0:0:0:
64,192,35712,1,0,0:0:0:0:
448,192,35712,1,0,0:0:0:0:
320,192,35777,1,0,0:0:0:0:
192,192,35843,1,0,0:0:0:0:
64,192,35908,1,0,0:0:0:0:
192,192,35973,1,0,0:0:0:0:
320,192,35973,1,0,0:0:0:0:
448,192,35973,1,0,0:0:0:0:
64,192,36038,1,0,0:0:0:0:
192,192,36103,1,0,0:0:0:0:
448,192,36103,1,0,0:0:0:0:
64,192,36168,1,0,0:0:0:0:
192,192,36234,1,0,0:0:0:0:
320,192,36234,1,0,0:0:0:0:
448,192,36299,1,0,0:0:0:0:
192,192,36364,1,0,0:0:0:0:
448,192,36429,1,0,0:0:0:0:
64,192,36494,1,0,0:0:0:0:
192,192,36494,1,0,0:0:0:0:
320,192,36494,1,0,0:0:0:0:
448,192,36559,1,0,0:0:0:0:
320,192,36625,1,0,0:0:0:0:
192,192,36690,1,0,0:0:0:0:
64,192,36755,1,0,0:0:0:0:
448,192,36755,1,0,0:0:0:0:
192,192,36820,1,0,0:0:0:0:
320,192,36885,1,0,0:0:0:0:
192,192,36950,1,0,0:0:0:0:
64,192,37016,1,0,0:0:0:0:
320,192,37016,1,0,0:0:0:0:
448,192,37016,1,0,0:0:0:0:
192,192,37081,1,0,0:0:0:0:
64,192,37146,1,0,0:0:0:0:
320,192,37146,1,0,0:0:0:0:
192,192,37211,1,0,0:0:0:0:
64,192,37276,1,0,0:0:0:0:
320,192,37276,1,0,0:0:0:0:
448,192,37341,1,0,0:0:0:0:
320,192,37407,1,0,0:0:0:0:
448,192,37472,1,0,0:0:0:0:
64,192,37537,1,0,0:0:0:0:
192,192,37537,1,0,0:0:0:0:
320,192,37537,1,0,0:0:0:0:
448,192,37602,1,0,0:0:0:0:
320,192,37667,1,0,0:0:0:0:
192,192,37733,1,0,0:0:0:0:
64,192,37798,1,0,0:0:0:0:
448,192,37798,1,0,0:0:0:0:
320,192,37863,1,0,0:0:0:0:
192,192,37928,1,0,0:0:0:0:
64,192,37993,1,0,0:0:0:0:
192,192,38058,1,0,0:0:0:0:
320,192,38058,1,0,0:0:0:0:
448,192,38058,1,0,0:0:0:0:
64,192,38124,1,0,0:0:0:0:
192,192,38189,1,0,0:0:0:0:
448,192,38189,1,0,0:0:0:0:
64,192,38254,1,0,0:0:0:0:
320,192,38319,1,0,0:0:0:0:
448,192,38319,1,0,0:0:0:0:
192,192,38384,1,0,0:0:0:0:
64,192,38449,1,0,0:0:0:0:
448,192,38515,1,0,0:0:0:0:
64,192,38580,1,0,0:0:0:0:
192,192,38580,1,0,0:0:0:0:
320,192,38580,1,0,0:0:0:0:
448,192,38645,1,0,0:0:0:0:
320,192,38710,1,0,0:0:0:0:
192,192,38775,1,0,0:0:0:0:
64,192,38840,1,0,0:0:0:0:
448,192,38840,1,0,0:0:0:0:
192,192,38906,1,0,0:0:0:0:
64,192,38971,1,0,0:0:0:0:
320,192,38971,1,0,0:0:0:0:
448,192,38971,1,0,0:0:0:0:
192,192,39036,1,0,0:0:0:0:
320,192,39101,1,0,0:0:0:0:
448,192,39101,1,0,0:0:0:0:
64,192,39166,1,0,0:0:0:0:
192,192,39231,1,0,0:0:0:0:
448,192,39231,1,0,0:0:0:0:
320,192,39297,1,0,0:0:0:0:
64,192,39362,1,0,0:0:0:0:
192,192,39362,1,0,0:0:0:0:
448,192,39362,1,0,0:0:0:0:
320,192,39427,1,0,0:0:0:0:
192,192,39492,1,0,0:0:0:0:
64,192,39557,1,0,0:0:0:0:
192,192,39622,1,0,0:0:0:0:
448,192,39622,1,0,0:0:0:0:
64,192,39688,1,0,0:0:0:0:
192,192,39753,1,0,0:0:0:0:
320,192,39818,1,0,0:0:0:0:
192,192,39883,1,0,0:0:0:0:
448,192,39883,1,0,0:0:0:0:
64,192,39948,1,0,0:0:0:0:
192,192,40014,1,0,0:0:0:0:
320,192,40079,1,0,0:0:0:0:
64,192,40144,1,0,0:0:0:0:
448,192,40144,1,0,0:0:0:0:
192,192,40209,1,0,0:0:0:0:
64,192,40274,1,0,0:0:0:0:
320,192,40274,1,0,0:0:0:0:
192,192,40339,1,0,0:0:0:0:
320,192,40405,1,0,0:0:0:0:
448,192,40405,1,0,0:0:0:0:
64,192,40470,1,0,0:0:0:0:
192,192,40535,1,0,0:0:0:0:
448,192,40600,1,0,0:0:0:0:
192,192,40665,1,0,0:0:0:0:
320,192,40665,1,0,0:0:0:0:
64,192,40730,1,0,0:0:0:0:
192,192,40796,1,0,0:0:0:0:
320,192,40861,1,0,0:0:0:0:
192,192,40926,1,0,0:0:0:0:
448,192,40926,1,0,0:0:0:0:
64,192,40991,1,0,0:0:0:0:
320,192,41056,1,0,0:0:0:0:
192,192,41121,1,0,0:0:0:0:
320,192,41187,1,0,0:0:0:0:
448,192,41187,1,0,0:0:0:0:
64,192,41252,1,0,0:0:0:0:
192,192,41317,1,0,0:0:0:0:
448,192,41317,1,0,0:0:0:0:
320,192,41382,1,0,0:0:0:0:
64,192,41447,1,0,0:0:0:0:
448,192,41447,1,0,0:0:0:0:
192,192,41512,1,0,0:0:0:0:
320,192,41578,1,0,0:0:0:0:
192,192,41643,1,0,0:0:0:0:
64,192,41708,1,0,0:0:0:0:
448,192,41708,1,0,0:0:0:0:
320,192,41773,1,0,0:0:0:0:
448,192,41838,1,0,0:0:0:0:
64,192,41969,1,0,0:0:0:0:
192,192,41969,1,0,0:0:0:0:
64,192,42099,1,0,0:0:0:0:
448,192,42099,1,0,0:0:0:0:
192,192,42164,1,0,0:0:0:0:
320,192,42229,1,0,0:0:0:0:
320,192,42360,1,0,0:0:0:0:
64,192,42490,1,0,0:0:0:0:
448,192,42490,1,0,0:0:0:0:
320,192,42555,1,0,0:0:0:0:
192,192,42620,1,0,0:0:0:0:
64,192,42751,1,0,0:0:0:0:
192,192,42751,1,0,0:0:0:0:
320,192,42816,1,0,0:0:0:0:
64,192,42881,1,0,0:0:0:0:
448,192,42881,1,0,0:0:0:0:
192,192,43011,1,0,0:0:0:0:
320,192,43142,1,0,0:0:0:0:
64,192,43272,1,0,0:0:0:0:
448,192,43272,1,0,0:0:0:0:
192,192,43337,1,0,0:0:0:0:
320,192,43402,1,0,0:0:0:0:
192,192,43533,1,0,0:0:0:0:
448,192,43533,1,0,0:0:0:0:
64,192,43663,1,0,0:0:0:0:
448,192,43663,1,0,0:0:0:0:
192,192,43793,1,0,0:0:0:0:
448,192,43793,1,0,0:0:0:0:
320,192,43859,1,0,0:0:0:0:
448,192,43924,1,0,0:0:0:0:
192,192,44054,1,0,0:0:0:0:
320,192,44054,1,0,0:0:0:0:
64,192,44184,1,0,0:0:0:0:
192,192,44250,1,0,0:0:0:0:
64,192,44315,1,0,0:0:0:0:
448,192,44315,1,0,0:0:0:0:
64,192,44445,1,0,0:0:0:0:
320,192,44575,1,0,0:0:0:0:
448,192,44575,1,0,0:0:0:0:
192,192,44641,1,0,0:0:0:0:
64,192,44706,1,0,0:0:0:0:
192,192,44836,1,0,0:0:0:0:
448,192,44836,1,0,0:0:0:0:
320,192,44901,1,0,0:0:0:0:
192,192,44966,1,0,0:0:0:0:
448,192,44966,1,0,0:0:0:0:
64,192,45097,1,0,0:0:0:0:
320,192,45097,1,0,0:0:0:0:
320,192,45227,1,0,0:0:0:0:
192,192,45358,1,0,0:0:0:0:
448,192,45358,1,0,0:0:0:0:
320,192,45423,1,0,0:0:0:0:
64,192,45488,1,0,0:0:0:0:
448,192,45488,1,0,0:0:0:0:
64,192,45618,1,0,0:0:0:0:
192,192,45618,1,0,0:0:0:0:
192,192,45749,1,0,0:0:0:0:
64,192,45879,1,0,0:0:0:0:
448,192,45879,1,0,0:0:0:0:
192,192,45944,1,0,0:0:0:0:
320,192,46009,1,0,0:0:0:0:
192,192,46140,1,0,0:0:0:0:
320,192,46140,1,0,0:0:0:0:
448,192,46270,1,0,0:0:0:0:
320,192,46335,1,0,0:0:0:0:
192,192,46400,1,0,0:0:0:0:
64,192,46531,1,0,0:0:0:0:
192,192,46661,1,0,0:0:0:0:
320,192,46661,1,0,0:0:0:0:
448,192,46726,1,0,0:0:0:0:
320,192,46791,1,0,0:0:0:0:
64,192,46922,1,0,0:0:0:0:
448,192,46922,1,0,0:0:0:0:
320,192,46987,1,0,0:0:0:0:
64,192,47052,1,0,0:0:0:0:
192,192,47052,1,0,0:0:0:0:
320,192,47182,1,0,0:0:0:0:
448,192,47182,1,0,0:0:0:0:
192,192,47313,1,0,0:0:0:0:
320,192,47313,1,0,0:0:0:0:
64,192,47443,1,0,0:0:0:0:
448,192,47443,1,0,0:0:0:0:
192,192,47508,1,0,0:0:0:0:
320,192,47573,1,0,0:0:0:0:
64,192,47704,1,0,0:0:0:0:
192,192,47704,1,0,0:0:0:0:
320,192,47964,1,0,0:0:0:0:
448,192,47964,1,0,0:0:0:0:
192,192,48029,1,0,0:0:0:0:
64,192,48095,1,0,0:0:0:0:
448,192,48225,1,0,0:0:0:0:
64,192,48355,1,0,0:0:0:0:
320,192,48355,1,0,0:0:0:0:
192,192,48421,1,0,0:0:0:0:
448,192,48486,1,0,0:0:0:0:
64,192,48616,1,0,0:0:0:0:
320,192,48746,1,0,0:0:0:0:
448,192,48746,1,0,0:0:0:0:
192,192,48812,1,0,0:0:0:0:
64,192,48877,1,0,0:0:0:0:
320,192,48877,1,0,0:0:0:0:
64,192,49007,1,0,0:0:0:0:
448,192,49007,1,0,0:0:0:0:
192,192,49072,1,0,0:0:0:0:
320,192,49137,1,0,0:0:0:0:
448,192,49137,1,0,0:0:0:0:
64,192,49268,1,0,0:0:0:0:
320,192,49268,1,0,0:0:0:0:
192,192,49398,1,0,0:0:0:0:
64,192,49528,1,0,0:0:0:0:
320,192,49528,1,0,0:0:0:0:
448,192,49594,1,0,0:0:0:0:
64,192,49659,1,0,0:0:0:0:
192,192,49659,1,0,0:0:0:0:
192,192,49789,1,0,0:0:0:0:
320,192,49789,1,0,0:0:0:0:
192,192,49919,1,0,0:0:0:0:
192,192,50050,1,0,0:0:0:0:
448,192,50050,1,0,0:0:0:0:
320,192,50115,1,0,0:0:0:0:
64,192,50180,1,0,0:0:0:0:
448,192,50180,1,0,0:0:0:0:
64,192,50310,1,0,0:0:0:0:
192,192,50310,1,0,0:0:0:0:
64,192,50441,1,0,0:0:0:0:
448,192,50441,1,0,0:0:0:0:
192,192,50506,1,0,0:0:0:0:
320,192,50571,1,0,0:0:0:0:
192,192,50701,1,0,0:0:0:0:
320,192,50701,1,0,0:0:0:0:
64,192,50832,1,0,0:0:0:0:
448,192,50832,1,0,0:0:0:0:
320,192,50897,1,0,0:0:0:0:
192,192,50962,1,0,0:0:0:0:
64,192,51093,1,0,0:0:0:0:
192,192,51093,1,0,0:0:0:0:
320,192,51158,1,0,0:0:0:0:
64,192,51223,1,0,0:0:0:0:
448,192,51223,1,0,0:0:0:0:
192,192,51353,1,0,0:0:0:0:
320,192,51353,1,0,0:0:0:0:
320,192,51484,1,0,0:0:0:0:
448,192,51484,1,0,0:0:0:0:
64,192,51614,1,0,0:0:0:0:
448,192,51614,1,0,0:0:0:0:
192,192,51679,1,0,0:0:0:0:
64,192,51744,1,0,0:0:0:0:
320,192,51744,1,0,0:0:0:0:
192,192,51875,1,0,0:0:0:0:
448,192,51875,1,0,0:0:0:0:
64,192,52005,1,0,0:0:0:0:
448,192,52005,1,0,0:0:0:0:
192,192,52135,1,0,0:0:0:0:
448,192,52135,1,0,0:0:0:0:
320,192,52200,1,0,0:0:0:0:
448,192,52266,1,0,0:0:0:0:
192,192,52396,1,0,0:0:0:0:
320,192,52396,1,0,0:0:0:0:
64,192,52526,1,0,0:0:0:0:
320,192,52526,1,0,0:0:0:0:
192,192,52591,1,0,0:0:0:0:
64,192,52657,1,0,0:0:0:0:
448,192,52657,1,0,0:0:0:0:
64,192,52787,1,0,0:0:0:0:
192,192,52787,1,0,0:0:0:0:
320,192,52917,1,0,0:0:0:0:
448,192,52917,1,0,0:0:0:0:
192,192,52982,1,0,0:0:0:0:
64,192,53048,1,0,0:0:0:0:
320,192,53048,1,0,0:0:0:0:
192,192,53178,1,0,0:0:0:0:
448,192,53178,1,0,0:0:0:0:
320,192,53243,1,0,0:0:0:0:
192,192,53308,1,0,0:0:0:0:
448,192,53308,1,0,0:0:0:0:
64,192,53439,1,0,0:0:0:0:
320,192,53439,1,0,0:0:0:0:
192,192,53569,1,0,0:0:0:0:
320,192,53569,1,0,0:0:0:0:
192,192,53699,1,0,0:0:0:0:
448,192,53699,1,0,0:0:0:0:
320,192,53765,1,0,0:0:0:0:
64,192,53830,1,0,0:0:0:0:
448,192,53830,1,0,0:0:0:0:
64,192,53960,1,0,0:0:0:0:
192,192,53960,1,0,0:0:0:0:
192,192,54090,1,0,0:0:0:0:
320,192,54090,1,0,0:0:0:0:
64,192,54221,1,0,0:0:0:0:
448,192,54221,1,0,0:0:0:0:
192,192,54286,1,0,0:0:0:0:
64,192,54351,1,0,0:0:0:0:
320,192,54351,1,0,0:0:0:0:
192,192,54481,1,0,0:0:0:0:
320,192,54481,1,0,0:0:0:0:
64,192,54612,1,0,0:0:0:0:
448,192,54612,1,0,0:0:0:0:
320,192,54677,1,0,0:0:0:0:
192,192,54742,1,0,0:0:0:0:
448,192,54742,1,0,0:0:0:0:
64,192,54872,1,0,0:0:0:0:
192,192,54872,1,0,0:0:0:0:
192,192,55003,1,0,0:0:0:0:
320,192,55003,1,0,0:0:0:0:
448,192,55068,1,0,0:0:0:0:
320,192,55133,1,0,0:0:0:0:
64,192,55263,1,0,0:0:0:0:
448,192,55263,1,0,0:0:0:0:
320,192,55329,1,0,0:0:0:0:
64,192,55394,1,0,0:0:0:0:
192,192,55394,1,0,0:0:0:0:
320,192,55524,1,0,0:0:0:0:
448,192,55524,1,0,0:0:0:0:
192,192,55654,1,0,0:0:0:0:
320,192,55654,1,0,0:0:0:0:
64,192,55785,1,0,0:0:0:0:
320,192,55785,1,0,0:0:0:0:
448,192,55785,1,0,0:0:0:0:
192,192,55850,1,0,0:0:0:0:
64,192,55915,1,0,0:0:0:0:
320,192,55915,1,0,0:0:0:0:
448,192,55915,1,0,0:0:0:0:
64,192,56045,1,0,0:0:0:0:
192,192,56045,1,0,0:0:0:0:
320,192,56045,1,0,0:0:0:0:
192,192,56176,1,0,0:0:0:0:
320,192,56176,1,0,0:0:0:0:
448,192,56176,1,0,0:0:0:0:
320,192,56306,1,0,0:0:0:0:
448,192,56306,1,0,0:0:0:0:
192,192,56371,1,0,0:0:0:0:
64,192,56437,1,0,0:0:0:0:
320,192,56567,1,0,0:0:0:0:
448,192,56567,1,0,0:0:0:0:
64,192,56697,1,0,0:0:0:0:
320,192,56697,1,0,0:0:0:0:
192,192,56762,1,0,0:0:0:0:
320,192,56828,1,0,0:0:0:0:
448,192,56828,1,0,0:0:0:0:
64,192,56958,1,0,0:0:0:0:
320,192,57088,1,0,0:0:0:0:
448,192,57088,1,0,0:0:0:0:
192,192,57153,1,0,0:0:0:0:
64,192,57219,1,0,0:0:0:0:
320,192,57219,1,0,0:0:0:0:
64,192,57349,1,0,0:0:0:0:
448,192,57349,1,0,0:0:0:0:
192,192,57414,1,0,0:0:0:0:
64,192,57479,1,0,0:0:0:0:
320,192,57479,1,0,0:0:0:0:
448,192,57479,1,0,0:0:0:0:
64,192,57610,1,0,0:0:0:0:
192,192,57610,1,0,0:0:0:0:
320,192,57610,1,0,0:0:0:0:
192,192,57740,1,0,0:0:0:0:
320,192,57740,1,0,0:0:0:0:
448,192,57740,1,0,0:0:0:0:
64,192,57870,1,0,0:0:0:0:
192,192,57870,1,0,0:0:0:0:
320,192,57870,1,0,0:0:0:0:
448,192,57935,1,0,0:0:0:0:
64,192,58001,1,0,0:0:0:0:
192,192,58001,1,0,0:0:0:0:
320,192,58001,1,0,0:0:0:0:
192,192,58131,1,0,0:0:0:0:
320,192,58131,1,0,0:0:0:0:
448,192,58131,1,0,0:0:0:0:
64,192,58261,1,0,0:0:0:0:
192,192,58261,1,0,0:0:0:0:
320,192,58261,1,0,0:0:0:0:
64,192,58392,1,0,0:0:0:0:
192,192,58392,1,0,0:0:0:0:
448,192,58392,1,0,0:0:0:0:
320,192,58457,1,0,0:0:0:0:
192,192,58522,1,0,0:0:0:0:
448,192,58522,1,0,0:0:0:0:
64,192,58652,1,0,0:0:0:0:
192,192,58652,1,0,0:0:0:0:
320,192,58652,1,0,0:0:0:0:
64,192,58783,1,0,0:0:0:0:
448,192,58783,1,0,0:0:0:0:
192,192,58848,1,0,0:0:0:0:
64,192,58913,1,0,0:0:0:0:
320,192,58913,1,0,0:0:0:0:
448,192,58913,1,0,0:0:0:0:
192,192,59043,1,0,0:0:0:0:
320,192,59043,1,0,0:0:0:0:
64,192,59174,1,0,0:0:0:0:
192,192,59174,1,0,0:0:0:0:
448,192,59174,1,0,0:0:0:0:
320,192,59239,1,0,0:0:0:0:
192,192,59304,1,0,0:0:0:0:
64,192,59434,1,0,0:0:0:0:
192,192,59434,1,0,0:0:0:0:
448,192,59434,1,0,0:0:0:0:
320,192,59500,1,0,0:0:0:0:
64,192,59565,1,0,0:0:0:0:
448,192,59565,1,0,0:0:0:0:
64,192,59695,1,0,0:0:0:0:
192,192,59695,1,0,0:0:0:0:
192,192,59825,1,0,0:0:0:0:
320,192,59825,1,0,0:0:0:0:
64,192,59956,1,0,0:0:0:0:
320,192,59956,1,0,0:0:0:0:
448,192,59956,1,0,0:0:0:0:
192,192,60021,1,0,0:0:0:0:
320,192,60086,1,0,0:0:0:0:
192,192,60216,1,0,0:0:0:0:
320,192,60216,1,0,0:0:0:0:
448,192,60216,1,0,0:0:0:0:
64,192,60347,1,0,0:0:0:0:
320,192,60347,1,0,0:0:0:0:
448,192,60347,1,0,0:0:0:0:
64,192,60477,1,0,0:0:0:0:
192,192,60477,1,0,0:0:0:0:
448,192,60477,1,0,0:0:0:0:
320,192,60542,1,0,0:0:0:0:
64,192,60607,1,0,0:0:0:0:
448,192,60607,1,0,0:0:0:0:
192,192,60738,1,0,0:0:0:0:
320,192,60738,1,0,0:0:0:0:
448,192,60738,1,0,0:0:0:0:
64,192,60868,1,0,0:0:0:0:
320,192,60868,1,0,0:0:0:0:
192,192,60933,1,0,0:0:0:0:
64,192,60998,1,0,0:0:0:0:
320,192,60998,1,0,0:0:0:0:
448,192,60998,1,0,0:0:0:0:
64,192,61129,1,0,0:0:0:0:
448,192,61129,1,0,0:0:0:0:
64,192,61259,1,0,0:0:0:0:
320,192,61259,1,0,0:0:0:0:
448,192,61259,1,0,0:0:0:0:
192,192,61324,1,0,0:0:0:0:
64,192,61389,1,0,0:0:0:0:
320,192,61389,1,0,0:0:0:0:
192,192,61520,1,0,0:0:0:0:
448,192,61520,1,0,0:0:0:0:
320,192,61585,1,0,0:0:0:0:
192,192,61650,1,0,0:0:0:0:
448,192,61650,1,0,0:0:0:0:
64,192,61781,1,0,0:0:0:0:
320,192,61781,1,0,0:0:0:0:
448,192,61781,1,0,0:0:0:0:
192,192,61911,1,0,0:0:0:0:
320,192,61911,1,0,0:0:0:0:
64,192,62041,1,0,0:0:0:0:
192,192,62041,1,0,0:0:0:0:
448,192,62041,1,0,0:0:0:0:
320,192,62106,1,0,0:0:0:0:
64,192,62172,1,0,0:0:0:0:
448,192,62172,1,0,0:0:0:0:
64,192,62302,1,0,0:0:0:0:
192,192,62302,1,0,0:0:0:0:
448,192,62302,1,0,0:0:0:0:
192,192,62432,1,0,0:0:0:0:
320,192,62432,1,0,0:0:0:0:
64,192,62563,1,0,0:0:0:0:
320,192,62563,1,0,0:0:0:0:
448,192,62563,1,0,0:0:0:0:
192,192,62628,1,0,0:0:0:0:
64,192,62693,1,0,0:0:0:0:
320,192,62693,1,0,0:0:0:0:
448,192,62693,1,0,0:0:0:0:
192,192,62823,1,0,0:0:0:0:
320,192,62823,1,0,0:0:0:0:
448,192,62823,1,0,0:0:0:0:
192,192,62954,1,0,0:0:0:0:
448,192,62954,1,0,0:0:0:0:
320,192,63019,1,0,0:0:0:0:
64,192,63084,1,0,0:0:0:0:
192,192,63084,1,0,0:0:0:0:
448,192,63084,1,0,0:0:0:0:
64,192,63214,1,0,0:0:0:0:
320,192,63214,1,0,0:0:0:0:
64,192,63345,1,0,0:0:0:0:
192,192,63345,1,0,0:0:0:0:
320,192,63345,1,0,0:0:0:0:
448,192,63410,1,0,0:0:0:0:
192,192,63475,1,0,0:0:0:0:
320,192,63475,1,0,0:0:0:0:
64,192,63605,1,0,0:0:0:0:
192,192,63605,1,0,0:0:0:0:
448,192,63605,1,0,0:0:0:0:
320,192,63670,1,0,0:0:0:0:
64,192,63736,1,0,0:0:0:0:
192,192,63736,1,0,0:0:0:0:
192,192,63866,1,0,0:0:0:0:
320,192,63866,1,0,0:0:0:0:
448,192,63866,1,0,0:0:0:0:
64,192,63996,1,0,0:0:0:0:
192,192,63996,1,0,0:0:0:0:
320,192,63996,1,0,0:0:0:0:
64,192,64127,1,0,0:0:0:0:
448,192,64127,1,0,0:0:0:0:
192,192,64192,1,0,0:0:0:0:
320,192,64257,1,0,0:0:0:0:
448,192,64257,1,0,0:0:0:0:
64,192,64387,1,0,0:0:0:0:
192,192,64387,1,0,0:0:0:0:
448,192,64387,1,0,0:0:0:0:
192,192,64518,1,0,0:0:0:0:
64,192,64648,1,0,0:0:0:0:
320,192,64648,1,0,0:0:0:0:
448,192,64648,1,0,0:0:0:0:
192,192,64713,1,0,0:0:0:0:
64,192,64778,1,0,0:0:0:0:
320,192,64778,1,0,0:0:0:0:
192,192,64909,1,0,0:0:0:0:
448,192,64909,1,0,0:0:0:0:
64,192,65039,1,0,0:0:0:0:
320,192,65039,1,0,0:0:0:0:
192,192,65104,1,0,0:0:0:0:
64,192,65169,1,0,0:0:0:0:
448,192,65169,1,0,0:0:0:0:
64,192,65300,1,0,0:0:0:0:
192,192,65300,1,0,0:0:0:0:
320,192,65430,1,0,0:0:0:0:
448,192,65430,1,0,0:0:0:0:
192,192,65495,1,0,0:0:0:0:
64,192,65560,1,0,0:0:0:0:
320,192,65560,1,0,0:0:0:0:
64,192,65691,1,0,0:0:0:0:
448,192,65691,1,0,0:0:0:0:
192,192,65756,1,0,0:0:0:0:
320,192,65821,1,0,0:0:0:0:
448,192,65821,1,0,0:0:0:0:
64,192,65951,1,0,0:0:0:0:
320,192,65951,1,0,0:0:0:0:
448,192,65951,1,0,0:0:0:0:
192,192,66082,1,0,0:0:0:0:
64,192,66212,1,0,0:0:0:0:
192,192,66212,1,0,0:0:0:0:
320,192,66212,1,0,0:0:0:0:
448,192,66277,1,0,0:0:0:0:
64,192,66342,1,0,0:0:0:0:
192,192,66342,1,0,0:0:0:0:
192,192,66473,1,0,0:0:0:0:
320,192,66473,1,0,0:0:0:0:
448,192,66473,1,0,0:0:0:0:
192,192,66603,1,0,0:0:0:0:
448,192,66603,1,0,0:0:0:0:
64,192,66733,1,0,0:0:0:0:
192,192,66733,1,0,0:0:0:0:
448,192,66733,1,0,0:0:0:0:
320,192,66799,1,0,0:0:0:0:
64,192,66864,1,0,0:0:0:0:
192,192,66864,1,0,0:0:0:0:
448,192,66864,1,0,0:0:0:0:
64,192,66994,1,0,0:0:0:0:
192,192,66994,1,0,0:0:0:0:
320,192,66994,1,0,0:0:0:0:
64,192,67125,1,0,0:0:0:0:
448,192,67125,1,0,0:0:0:0:
192,192,67190,1,0,0:0:0:0:
64,192,67255,1,0,0:0:0:0:
320,192,67255,1,0,0:0:0:0:
448,192,67255,1,0,0:0:0:0:
192,192,67385,1,0,0:0:0:0:
320,192,67385,1,0,0:0:0:0:
64,192,67516,1,0,0:0:0:0:
192,192,67516,1,0,0:0:0:0:
448,192,67516,1,0,0:0:0:0:
320,192,67581,1,0,0:0:0:0:
192,192,67646,1,0,0:0:0:0:
448,192,67646,1,0,0:0:0:0:
64,192,67776,1,0,0:0:0:0:
192,192,67776,1,0,0:0:0:0:
448,192,67776,1,0,0:0:0:0:
320,192,67841,1,0,0:0:0:0:
64,192,67907,1,0,0:0:0:0:
448,192,67907,1,0,0:0:0:0:
64,192,68037,1,0,0:0:0:0:
192,192,68037,1,0,0:0:0:0:
320,192,68037,1,0,0:0:0:0:
320,192,68167,1,0,0:0:0:0:
448,192,68167,1,0,0:0:0:0:
64,192,68298,1,0,0:0:0:0:
448,192,68298,1,0,0:0:0:0:
192,192,68363,1,0,0:0:0:0:
64,192,68428,1,0,0:0:0:0:
320,192,68428,1,0,0:0:0:0:
192,192,68558,1,0,0:0:0:0:
320,192,68558,1,0,0:0:0:0:
448,192,68558,1,0,0:0:0:0:
64,192,68689,1,0,0:0:0:0:
320,192,68689,1,0,0:0:0:0:
448,192,68689,1,0,0:0:0:0:
64,192,68819,1,0,0:0:0:0:
192,192,68819,1,0,0:0:0:0:
448,192,68819,1,0,0:0:0:0:
320,192,68884,1,0,0:0:0:0:
192,192,68949,1,0,0:0:0:0:
448,192,68949,1,0,0:0:0:0:
64,192,69080,1,0,0:0:0:0:
192,192,69080,1,0,0:0:0:0:
320,192,69080,1,0,0:0:0:0:
64,192,69210,1,0,0:0:0:0:
320,192,69210,1,0,0:0:0:0:
192,192,69275,1,0,0:0:0:0:
64,192,69340,1,0,0:0:0:0:
320,192,69340,1,0,0:0:0:0:
448,192,69340,1,0,0:0:0:0:
64,192,69471,1,0,0:0:0:0:
192,192,69471,1,0,0:0:0:0:
64,192,69601,1,0,0:0:0:0:
320,192,69601,1,0,0:0:0:0:
448,192,69601,1,0,0:0:0:0:
192,192,69666,1,0,0:0:0:0:
64,192,69731,1,0,0:0:0:0:
320,192,69731,1,0,0:0:0:0:
192,192,69862,1,0,0:0:0:0:
448,192,69862,1,0,0:0:0:0:
320,192,69927,1,0,0:0:0:0:
192,192,69992,1,0,0:0:0:0:
448,192,69992,1,0,0:0:0:0:
64,192,70122,1,0,0:0:0:0:
320,192,70122,1,0,0:0:0:0:
448,192,70122,1,0,0:0:0:0:
192,192,70253,1,0,0:0:0:0:
320,192,70253,1,0,0:0:0:0:
64,192,70383,1,0,0:0:0:0:
192,192,70383,1,0,0:0:0:0:
448,192,70383,1,0,0:0:0:0:
320,192,70448,1,0,0:0:0:0:
64,192,70513,1,0,0:0:0:0:
448,192,70513,1,0,0:0:0:0:
64,192,70644,1,0,0:0:0:0:
192,192,70644,1,0,0:0:0:0:
320,192,70644,1,0,0:0:0:0:
192,192,70774,1,0,0:0:0:0:
320,192,70774,1,0,0:0:0:0:
64,192,70904,1,0,0:0:0:0:
320,192,70904,1,0,0:0:0:0:
448,192,70904,1,0,0:0:0:0:
192,192,70970,1,0,0:0:0:0:
64,192,71035,1,0,0:0:0:0:
320,192,71035,1,0,0:0:0:0:
448,192,71035,1,0,0:0:0:0:
192,192,71165,1,0,0:0:0:0:
320,192,71165,1,0,0:0:0:0:
448,192,71165,1,0,0:0:0:0:
64,192,71295,1,0,0:0:0:0:
192,192,71295,1,0,0:0:0:0:
448,192,71295,1,0,0:0:0:0:
320,192,71361,1,0,0:0:0:0:
64,192,71426,1,0,0:0:0:0:
192,192,71426,1,0,0:0:0:0:
448,192,71426,1,0,0:0:0:0:
64,192,71556,1,0,0:0:0:0:
192,192,71556,1,0,0:0:0:0:
64,192,71686,1,0,0:0:0:0:
192,192,71686,1,0,0:0:0:0:
320,192,71686,1,0,0:0:0:0:
448,192,71752,1,0,0:0:0:0:
320,192,71817,1,0,0:0:0:0:
64,192,71947,1,0,0:0:0:0:
448,192,71947,1,0,0:0:0:0:
320,192,72012,1,0,0:0:0:0:
64,192,72077,1,0,0:0:0:0:
192,192,72077,1,0,0:0:0:0:
64,192,72208,1,0,0:0:0:0:
320,192,72208,1,0,0:0:0:0:
448,192,72208,1,0,0:0:0:0:
192,192,72338,1,0,0:0:0:0:
320,192,72338,1,0,0:0:0:0:
64,192,72469,1,0,0:0:0:0:
320,192,72469,1,0,0:0:0:0:
448,192,72469,1,0,0:0:0:0:
192,192,72534,1,0,0:0:0:0:
64,192,72599,1,0,0:0:0:0:
320,192,72599,1,0,0:0:0:0:
448,192,72599,1,0,0:0:0:0:
64,192,72729,1,0,0:0:0:0:
192,192,72729,1,0,0:0:0:0:
320,192,72729,1,0,0:0:0:0:
192,192,72860,1,0,0:0:0:0:
320,192,72860,1,0,0:0:0:0:
448,192,72860,1,0,0:0:0:0:
320,192,72990,1,0,0:0:0:0:
448,192,72990,1,0,0:0:0:0:
192,192,73055,1,0,0:0:0:0:
64,192,73120,1,0,0:0:0:0:
320,192,73120,1,0,0:0:0:0:
320,192,73251,1,0,0:0:0:0:
448,192,73251,1,0,0:0:0:0:
64,192,73381,1,0,0:0:0:0:
320,192,73381,1,0,0:0:0:0:
192,192,73446,1,0,0:0:0:0:
64,192,73511,1,0,0:0:0:0:
320,192,73511,1,0,0:0:0:0:
448,192,73511,1,0,0:0:0:0:
64,192,73642,1,0,0:0:0:0:
64,192,73772,1,0,0:0:0:0:
320,192,73772,1,0,0:0:0:0:
448,192,73772,1,0,0:0:0:0:
192,192,73837,1,0,0:0:0:0:
64,192,73902,1,0,0:0:0:0:
320,192,73902,1,0,0:0:0:0:
64,192,74033,1,0,0:0:0:0:
320,192,74033,1,0,0:0:0:0:
448,192,74033,1,0,0:0:0:0:
192,192,74098,1,0,0:0:0:0:
320,192,74163,1,0,0:0:0:0:
448,192,74163,1,0,0:0:0:0:
64,192,74293,1,0,0:0:0:0:
320,192,74293,1,0,0:0:0:0:
448,192,74293,1,0,0:0:0:0:
192,192,74424,1,0,0:0:0:0:
64,192,74554,1,0,0:0:0:0:
192,192,74554,1,0,0:0:0:0:
320,192,74554,1,0,0:0:0:0:
448,192,74619,1,0,0:0:0:0:
64,192,74684,1,0,0:0:0:0:
192,192,74684,1,0,0:0:0:0:
192,192,74815,1,0,0:0:0:0:
320,192,74815,1,0,0:0:0:0:
448,192,74815,1,0,0:0:0:0:
192,192,74945,1,0,0:0:0:0:
320,192,74945,1,0,0:0:0:0:
64,192,75075,1,0,0:0:0:0:
192,192,75075,1,0,0:0:0:0:
448,192,75075,1,0,0:0:0:0:
320,192,75141,1,0,0:0:0:0:
192,192,75206,1,0,0:0:0:0:
448,192,75206,1,0,0:0:0:0:
64,192,75271,1,0,0:0:0:0:
320,192,75336,1,0,0:0:0:0:
448,192,75336,1,0,0:0:0:0:
64,192,75401,1,0,0:0:0:0:
192,192,75466,1,0,0:0:0:0:
448,192,75466,1,0,0:0:0:0:
320,192,75532,1,0,0:0:0:0:
64,192,75597,1,0,0:0:0:0:
192,192,75597,1,0,0:0:0:0:
448,192,75597,1,0,0:0:0:0:
320,192,75662,1,0,0:0:0:0:
192,192,75727,1,0,0:0:0:0:
448,192,75727,1,0,0:0:0:0:
64,192,75792,1,0,0:0:0:0:
192,192,75857,1,0,0:0:0:0:
448,192,75857,1,0,0:0:0:0:
320,192,75923,1,0,0:0:0:0:
64,192,75988,1,0,0:0:0:0:
448,192,75988,1,0,0:0:0:0:
192,192,76053,1,0,0:0:0:0:
64,192,76118,1,0,0:0:0:0:
320,192,76118,1,0,0:0:0:0:
448,192,76118,1,0,0:0:0:0:
192,192,76183,1,0,0:0:0:0:
64,192,76248,1,0,0:0:0:0:
448,192,76248,1,0,0:0:0:0:
320,192,76314,1,0,0:0:0:0:
192,192,76379,1,0,0:0:0:0:
448,192,76379,1,0,0:0:0:0:
320,192,76444,1,0,0:0:0:0:
192,192,76509,1,0,0:0:0:0:
448,192,76509,1,0,0:0:0:0:
64,192,76574,1,0,0:0:0:0:
192,192,76639,1,0,0:0:0:0:
320,192,76639,1,0,0:0:0:0:
448,192,76639,1,0,0:0:0:0:
64,192,76705,1,0,0:0:0:0:
192,192,76770,1,0,0:0:0:0:
448,192,76770,1,0,0:0:0:0:
320,192,76835,1,0,0:0:0:0:
64,192,76900,1,0,0:0:0:0:
448,192,76900,1,0,0:0:0:0:
192,192,76965,1,0,0:0:0:0:
64,192,77030,1,0,0:0:0:0:
320,192,77030,1,0,0:0:0:0:
448,192,77096,1,0,0:0:0:0:
64,192,77161,1,0,0:0:0:0:
192,192,77161,1,0,0:0:0:0:
320,192,77161,1,0,0:0:0:0:
448,192,77226,1,0,0:0:0:0:
64,192,77291,1,0,0:0:0:0:
320,192,77291,1,0,0:0:0:0:
192,192,77356,1,0,0:0:0:0:
64,192,77421,1,0,0:0:0:0:
448,192,77421,1,0,0:0:0:0:
320,192,77487,1,0,0:0:0:0:
192,192,77552,1,0,0:0:0:0:
448,192,77552,1,0,0:0:0:0:
64,192,77617,1,0,0:0:0:0:
192,192,77682,1,0,0:0:0:0:
320,192,77682,1,0,0:0:0:0:
448,192,77682,1,0,0:0:0:0:
64,192,77747,1,0,0:0:0:0:
192,192,77813,1,0,0:0:0:0:
448,192,77813,1,0,0:0:0:0:
64,192,77878,1,0,0:0:0:0:
192,192,77943,1,0,0:0:0:0:
320,192,77943,1,0,0:0:0:0:
448,192,78008,1,0,0:0:0:0:
64,192,78073,1,0,0:0:0:0:
192,192,78073,1,0,0:0:0:0:
448,192,78138,1,0,0:0:0:0:
64,192,78204,1,0,0:0:0:0:
192,192,78204,1,0,0:0:0:0:
320,192,78204,1,0,0:0:0:0:
448,192,78269,1,0,0:0:0:0:
64,192,78334,1,0,0:0:0:0:
320,192,78334,1,0,0:0:0:0:
192,192,78399,1,0,0:0:0:0:
64,192,78464,1,0,0:0:0:0:
448,192,78464,1,0,0:0:0:0:
192,192,78529,1,0,0:0:0:0:
320,192,78595,1,0,0:0:0:0:
448,192,78595,1,0,0:0:0:0:
192,192,78660,1,0,0:0:0:0:
64,192,78725,1,0,0:0:0:0:
320,192,78725,1,0,0:0:0:0:
448,192,78725,1,0,0:0:0:0:
192,192,78790,1,0,0:0:0:0:
64,192,78855,1,0,0:0:0:0:
320,192,78855,1,0,0:0:0:0:
192,192,78920,1,0,0:0:0:0:
64,192,78986,1,0,0:0:0:0:
320,192,78986,1,0,0:0:0:0:
448,192,79051,1,0,0:0:0:0:
192,192,79116,1,0,0:0:0:0:
320,192,79116,1,0,0:0:0:0:
448,192,79181,1,0,0:0:0:0:
64,192,79246,1,0,0:0:0:0:
192,192,79246,1,0,0:0:0:0:
320,192,79246,1,0,0:0:0:0:
448,192,79311,1,0,0:0:0:0:
64,192,79377,1,0,0:0:0:0:
320,192,79377,1,0,0:0:0:0:
192,192,79442,1,0,0:0:0:0:
64,192,79507,1,0,0:0:0:0:
448,192,79507,1,0,0:0:0:0:
320,192,79572,1,0,0:0:0:0:
192,192,79637,1,0,0:0:0:0:
448,192,79637,1,0,0:0:0:0:
64,192,79702,1,0,0:0:0:0:
192,192,79768,1,0,0:0:0:0:
320,192,79768,1,0,0:0:0:0:
448,192,79768,1,0,0:0:0:0:
64,192,79833,1,0,0:0:0:0:
192,192,79898,1,0,0:0:0:0:
448,192,79898,1,0,0:0:0:0:
64,192,79963,1,0,0:0:0:0:
320,192,80028,1,0,0:0:0:0:
448,192,80028,1,0,0:0:0:0:
192,192,80093,1,0,0:0:0:0:
64,192,80159,1,0,0:0:0:0:
320,192,80159,1,0,0:0:0:0:
448,192,80224,1,0,0:0:0:0:
64,192,80289,1,0,0:0:0:0:
192,192,80289,1,0,0:0:0:0:
320,192,80289,1,0,0:0:0:0:
448,192,80354,1,0,0:0:0:0:
64,192,80419,1,0,0:0:0:0:
320,192,80419,1,0,0:0:0:0:
192,192,80484,1,0,0:0:0:0:
64,192,80550,1,0,0:0:0:0:
448,192,80550,1,0,0:0:0:0:
192,192,80615,1,0,0:0:0:0:
64,192,80680,1,0,0:0:0:0:
320,192,80680,1,0,0:0:0:0:
448,192,80680,1,0,0:0:0:0:
192,192,80745,1,0,0:0:0:0:
320,192,80810,1,0,0:0:0:0:
448,192,80810,1,0,0:0:0:0:
64,192,80876,1,0,0:0:0:0:
192,192,80941,1,0,0:0:0:0:
448,192,80941,1,0,0:0:0:0:
320,192,81006,1,0,0:0:0:0:
64,192,81071,1,0,0:0:0:0:
192,192,81071,1,0,0:0:0:0:
448,192,81071,1,0,0:0:0:0:
320,192,81136,1,0,0:0:0:0:
192,192,81201,1,0,0:0:0:0:
448,192,81201,1,0,0:0:0:0:
64,192,81267,1,0,0:0:0:0:
192,192,81332,1,0,0:0:0:0:
448,192,81332,1,0,0:0:0:0:
64,192,81397,1,0,0:0:0:0:
192,192,81462,1,0,0:0:0:0:
448,192,81462,1,0,0:0:0:0:
320,192,81527,1,0,0:0:0:0:
192,192,81592,1,0,0:0:0:0:
448,192,81592,1,0,0:0:0:0:
64,192,81658,1,0,0:0:0:0:
192,192,81723,1,0,0:0:0:0:
448,192,81723,1,0,0:0:0:0:
320,192,81788,1,0,0:0:0:0:
64,192,81853,1,0,0:0:0:0:
448,192,81853,1,0,0:0:0:0:
192,192,81918,1,0,0:0:0:0:
64,192,81983,1,0,0:0:0:0:
320,192,81983,1,0,0:0:0:0:
192,192,82049,1,0,0:0:0:0:
320,192,82114,1,0,0:0:0:0:
448,192,82114,1,0,0:0:0:0:
64,192,82179,1,0,0:0:0:0:
192,192,82244,1,0,0:0:0:0:
320,192,82244,1,0,0:0:0:0:
448,192,82309,1,0,0:0:0:0:
192,192,82374,1,0,0:0:0:0:
320,192,82374,1,0,0:0:0:0:
64,192,82440,1,0,0:0:0:0:
192,192,82505,1,0,0:0:0:0:
448,192,82505,1,0,0:0:0:0:
320,192,82570,1,0,0:0:0:0:
192,192,82635,1,0,0:0:0:0:
448,192,82635,1,0,0:0:0:0:
64,192,82700,1,0,0:0:0:0:
320,192,82765,1,0,0:0:0:0:
448,192,82765,1,0,0:0:0:0:
192,192,82831,1,0,0:0:0:0:
320,192,82896,1,0,0:0:0:0:
448,192,82896,1,0,0:0:0:0:
64,192,82961,1,0,0:0:0:0:
192,192,83026,1,0,0:0:0:0:
448,192,83026,1,0,0:0:0:0:
320,192,83091,1,0,0:0:0:0:
64,192,83157,1,0,0:0:0:0:
448,192,83157,1,0,0:0:0:0:
320,192,83222,1,0,0:0:0:0:
64,192,83287,1,0,0:0:0:0:
192,192,83287,1,0,0:0:0:0:
320,192,83352,1,0,0:0:0:0:
64,192,83417,1,0,0:0:0:0:
192,192,83417,1,0,0:0:0:0:
448,192,83417,1,0,0:0:0:0:
320,192,83482,1,0,0:0:0:0:
192,192,83548,1,0,0:0:0:0:
448,192,83548,1,0,0:0:0:0:
64,192,83613,1,0,0:0:0:0:
320,192,83678,1,0,0:0:0:0:
448,192,83678,1,0,0:0:0:0:
64,192,83743,1,0,0:0:0:0:
192,192,83808,1,0,0:0:0:0:
448,192,83808,1,0,0:0:0:0:
320,192,83873,1,0,0:0:0:0:
64,192,83939,1,0,0:0:0:0:
192,192,83939,1,0,0:0:0:0:
448,192,83939,1,0,0:0:0:0:
320,192,84004,1,0,0:0:0:0:
192,192,84069,1,0,0:0:0:0:
448,192,84069,1,0,0:0:0:0:
64,192,84134,1,0,0:0:0:0:
192,192,84199,1,0,0:0:0:0:
448,192,84199,1,0,0:0:0:0:
320,192,84264,1,0,0:0:0:0:
64,192,84330,1,0,0:0:0:0:
448,192,84330,1,0,0:0:0:0:
192,192,84395,1,0,0:0:0:0:
64,192,84460,1,0,0:0:0:0:
320,192,84460,1,0,0:0:0:0:
448,192,84460,1,0,0:0:0:0:
192,192,84525,1,0,0:0:0:0:
64,192,84590,1,0,0:0:0:0:
448,192,84590,1,0,0:0:0:0:
320,192,84655,1,0,0:0:0:0:
192,192,84721,1,0,0:0:0:0:
448,192,84721,1,0,0:0:0:0:
320,192,84786,1,0,0:0:0:0:
192,192,84851,1,0,0:0:0:0:
448,192,84851,1,0,0:0:0:0:
64,192,84916,1,0,0:0:0:0:
192,192,84981,1,0,0:0:0:0:
320,192,84981,1,0,0:0:0:0:
448,192,84981,1,0,0:0:0:0:
64,192,85046,1,0,0:0:0:0:
192,192,85112,1,0,0:0:0:0:
448,192,85112,1,0,0:0:0:0:
320,192,85177,1,0,0:0:0:0:
64,192,85242,1,0,0:0:0:0:
448,192,85242,1,0,0:0:0:0:
192,192,85307,1,0,0:0:0:0:
64,192,85372,1,0,0:0:0:0:
320,192,85372,1,0,0:0:0:0:
448,192,85437,1,0,0:0:0:0:
64,192,85503,1,0,0:0:0:0:
192,192,85503,1,0,0:0:0:0:
320,192,85503,1,0,0:0:0:0:
448,192,85568,1,0,0:0:0:0:
64,192,85633,1,0,0:0:0:0:
320,192,85633,1,0,0:0:0:0:
192,192,85698,1,0,0:0:0:0:
64,192,85763,1,0,0:0:0:0:
448,192,85763,1,0,0:0:0:0:
320,192,85828,1,0,0:0:0:0:
192,192,85894,1,0,0:0:0:0:
448,192,85894,1,0,0:0:0:0:
64,192,85959,1,0,0:0:0:0:
192,192,86024,1,0,0:0:0:0:
320,192,86024,1,0,0:0:0:0:
448,192,86024,1,0,0:0:0:0:
64,192,86089,1,0,0:0:0:0:
192,192,86154,1,0,0:0:0:0:
448,192,86154,1,0,0:0:0:0:
64,192,86220,1,0,0:0:0:0:
192,192,86285,1,0,0:0:0:0:
320,192,86285,1,0,0:0:0:0:
448,192,86350,1,0,0:0:0:0:
64,192,86415,1,0,0:0:0:0:
192,192,86415,1,0,0:0:0:0:
448,192,86480,1,0,0:0:0:0:
64,192,86545,1,0,0:0:0:0:
192,192,86545,1,0,0:0:0:0:
320,192,86545,1,0,0:0:0:0:
448,192,86611,1,0,0:0:0:0:
64,192,86676,1,0,0:0:0:0:
320,192,86676,1,0,0:0:0:0:
192,192,86741,1,0,0:0:0:0:
64,192,86806,1,0,0:0:0:0:
448,192,86806,1,0,0:0:0:0:
192,192,86871,1,0,0:0:0:0:
320,192,86936,1,0,0:0:0:0:
448,192,86936,1,0,0:0:0:0:
192,192,87002,1,0,0:0:0:0:
64,192,87067,1,0,0:0:0:0:
320,192,87067,1,0,0:0:0:0:
448,192,87067,1,0,0:0:0:0:
192,192,87132,1,0,0:0:0:0:
64,192,87197,1,0,0:0:0:0:
320,192,87197,1,0,0:0:0:0:
192,192,87262,1,0,0:0:0:0:
64,192,87327,1,0,0:0:0:0:
320,192,87327,1,0,0:0:0:0:
448,192,87393,1,0,0:0:0:0:
192,192,87458,1,0,0:0:0:0:
320,192,87458,1,0,0:0:0:0:
448,192,87523,1,0,0:0:0:0:
64,192,87588,1,0,0:0:0:0:
192,192,87588,1,0,0:0:0:0:
320,192,87588,1,0,0:0:0:0:
448,192,87653,1,0,0:0:0:0:
64,192,87718,1,0,0:0:0:0:
320,192,87718,1,0,0:0:0:0:
192,192,87784,1,0,0:0:0:0:
64,192,87849,1,0,0:0:0:0:
448,192,87849,1,0,0:0:0:0:
320,192,87914,1,0,0:0:0:0:
192,192,87979,1,0,0:0:0:0:
448,192,87979,1,0,0:0:0:0:
64,192,88044,1,0,0:0:0:0:
192,192,88109,1,0,0:0:0:0:
320,192,88109,1,0,0:0:0:0:
448,192,88109,1,0,0:0:0:0:
64,192,88175,1,0,0:0:0:0:
192,192,88240,1,0,0:0:0:0:
448,192,88240,1,0,0:0:0:0:
64,192,88305,1,0,0:0:0:0:
320,192,88370,1,0,0:0:0:0:
448,192,88370,1,0,0:0:0:0:
192,192,88435,1,0,0:0:0:0:
64,192,88501,1,0,0:0:0:0:
320,192,88501,1,0,0:0:0:0:
448,192,88566,1,0,0:0:0:0:
64,192,88631,1,0,0:0:0:0:
192,192,88631,1,0,0:0:0:0:
320,192,88631,1,0,0:0:0:0:
448,192,88696,1,0,0:0:0:0:
64,192,88761,1,0,0:0:0:0:
320,192,88761,1,0,0:0:0:0:
192,192,88826,1,0,0:0:0:0:
64,192,88892,1,0,0:0:0:0:
448,192,88892,1,0,0:0:0:0:
192,192,88957,1,0,0:0:0:0:
64,192,89022,1,0,0:0:0:0:
320,192,89022,1,0,0:0:0:0:
448,192,89022,1,0,0:0:0:0:
192,192,89087,1,0,0:0:0:0:
320,192,89152,1,0,0:0:0:0:
448,192,89152,1,0,0:0:0:0:
64,192,89217,1,0,0:0:0:0:
192,192,89283,1,0,0:0:0:0:
448,192,89283,1,0,0:0:0:0:
320,192,89348,1,0,0:0:0:0:
64,192,89413,1,0,0:0:0:0:
192,192,89413,1,0,0:0:0:0:
448,192,89413,1,0,0:0:0:0:
320,192,89478,1,0,0:0:0:0:
192,192,89543,1,0,0:0:0:0:
448,192,89543,1,0,0:0:0:0:
64,192,89608,1,0,0:0:0:0:
192,192,89674,1,0,0:0:0:0:
448,192,89674,1,0,0:0:0:0:
64,192,89739,1,0,0:0:0:0:
192,192,89804,1,0,0:0:0:0:
448,192,89804,1,0,0:0:0:0:
320,192,89869,1,0,0:0:0:0:
192,192,89934,1,0,0:0:0:0:
448,192,89934,1,0,0:0:0:0:
64,192,89999,1,0,0:0:0:0:
192,192,90065,1,0,0:0:0:0:
448,192,90065,1,0,0:0:0:0:
320,192,90130,1,0,0:0:0:0:
64,192,90195,1,0,0:0:0:0:
448,192,90195,1,0,0:0:0:0:
192,192,90260,1,0,0:0:0:0:
64,192,90325,1,0,0:0:0:0:
320,192,90325,1,0,0:0:0:0:
192,192,90390,1,0,0:0:0:0:
320,192,90456,1,0,0:0:0:0:
448,192,90456,1,0,0:0:0:0:
64,192,90521,1,0,0:0:0:0:
192,192,90586,1,0,0:0:0:0:
320,192,90586,1,0,0:0:0:0:
448,192,90651,1,0,0:0:0:0:
192,192,90716,1,0,0:0:0:0:
320,192,90716,1,0,0:0:0:0:
64,192,90781,1,0,0:0:0:0:
192,192,90847,1,0,0:0:0:0:
448,192,90847,1,0,0:0:0:0:
320,192,90912,1,0,0:0:0:0:
192,192,90977,1,0,0:0:0:0:
448,192,90977,1,0,0:0:0:0:
64,192,91042,1,0,0:0:0:0:
320,192,91107,1,0,0:0:0:0:
448,192,91107,1,0,0:0:0:0:
192,192,91172,1,0,0:0:0:0:
320,192,91238,1,0,0:0:0:0:
448,192,91238,1,0,0:0:0:0:
64,192,91303,1,0,0:0:0:0:
192,192,91368,1,0,0:0:0:0:
448,192,91368,1,0,0:0:0:0:
320,192,91433,1,0,0:0:0:0:
64,192,91498,1,0,0:0:0:0:
448,192,91498,1,0,0:0:0:0:
192,192,91564,1,0,0:0:0:0:
64,192,91629,1,0,0:0:0:0:
320,192,91629,1,0,0:0:0:0:
192,192,91694,1,0,0:0:0:0:
64,192,91759,1,0,0:0:0:0:
320,192,91759,1,0,0:0:0:0:
448,192,91759,1,0,0:0:0:0:
192,192,91824,1,0,0:0:0:0:
320,192,91889,1,0,0:0:0:0:
448,192,91955,1,0,0:0:0:0:
64,192,92020,1,0,0:0:0:0:
448,192,92085,1,0,0:0:0:0:
320,192,92150,1,0,0:0:0:0:
64,192,92215,1,0,0:0:0:0:
192,192,92280,1,0,0:0:0:0:
320,192,92346,1,0,0:0:0:0:
448,192,92411,1,0,0:0:0:0:
192,192,92476,1,0,0:0:0:0:
320,192,92541,1,0,0:0:0:0:
64,192,92606,1,0,0:0:0:0:
192,192,92671,1,0,0:0:0:0:
320,192,92737,1,0,0:0:0:0:
448,192,92802,1,0,0:0:0:0:
320,192,92867,1,0,0:0:0:0:
192,192,92932,1,0,0:0:0:0:
64,192,92997,1,0,0:0:0:0:
320,192,93062,1,0,0:0:0:0:
192,192,93128,1,0,0:0:0:0:
448,192,93193,1,0,0:0:0:0:
320,192,93258,1,0,0:0:0:0:
448,192,93323,1,0,0:0:0:0:
192,192,93388,1,0,0:0:0:0:
320,192,93453,1,0,0:0:0:0:
192,192,93519,1,0,0:0:0:0:
64,192,93584,1,0,0:0:0:0:
320,192,93649,1,0,0:0:0:0:
192,192,93714,1,0,0:0:0:0:
320,192,93779,1,0,0:0:0:0:
448,192,93845,1,0,0:0:0:0:
64,192,93910,1,0,0:0:0:0:
192,192,93975,1,0,0:0:0:0:
320,192,94040,1,0,0:0:0:0:
64,192,94105,1,0,0:0:0:0:
448,192,94170,1,0,0:0:0:0:
320,192,94236,1,0,0:0:0:0:
448,192,94301,1,0,0:0:0:0:
192,192,94366,1,0,0:0:0:0:
64,192,94431,1,0,0:0:0:0:
192,192,94496,1,0,0:0:0:0:
448,192,94561,1,0,0:0:0:0:
320,192,94627,1,0,0:0:0:0:
64,192,94692,1,0,0:0:0:0:
192,192,94757,1,0,0:0:0:0:
320,192,94822,1,0,0:0:0:0:
448,192,94887,1,0,0:0:0:0:
320,192,94952,1,0,0:0:0:0:
192,192,95018,1,0,0:0:0:0:
64,192,95083,1,0,0:0:0:0:
320,192,95148,1,0,0:0:0:0:
448,192,95213,1,0,0:0:0:0:
320,192,95278,1,0,0:0:0:0:
192,192,95343,1,0,0:0:0:0:
448,192,95409,1,0,0:0:0:0:
192,192,95474,1,0,0:0:0:0:
64,192,95539,1,0,0:0:0:0:
192,192,95604,1,0,0:0:0:0:
64,192,95669,1,0,0:0:0:0:
320,192,95734,1,0,0:0:0:0:
192,192,95800,1,0,0:0:0:0:
320,192,95865,1,0,0:0:0:0:
448,192,95930,1,0,0:0:0:0:
192,192,95995,1,0,0:0:0:0:
320,192,96060,1,0,0:0:0:0:
192,192,96125,1,0,0:0:0:0:
64,192,96191,1,0,0:0:0:0:
192,192,96256,1,0,0:0:0:0:
320,192,96321,1,0,0:0:0:0:
448,192,96386,1,0,0:0:0:0:
192,192,96451,1,0,0:0:0:0:
320,192,96516,1,0,0:0:0:0:
192,192,96582,1,0,0:0:0:0:
64,192,96647,1,0,0:0:0:0:
320,192,96712,1,0,0:0:0:0:
448,192,96777,1,0,0:0:0:0:
192,192,96842,1,0,0:0:0:0:
64,192,96908,1,0,0:0:0:0:
448,192,96973,1,0,0:0:0:0:
320,192,97038,1,0,0:0:0:0:
192,192,97103,1,0,0:0:0:0:
64,192,97168,1,0,0:0:0:0:
320,192,97233,1,0,0:0:0:0:
192,192,97299,1,0,0:0:0:0:
448,192,97364,1,0,0:0:0:0:
320,192,97429,1,0,0:0:0:0:
448,192,97494,1,0,0:0:0:0:
192,192,97559,1,0,0:0:0:0:
320,192,97624,1,0,0:0:0:0:
448,192,97690,1,0,0:0:0:0:
64,192,97755,1,0,0:0:0:0:
320,192,97820,1,0,0:0:0:0:
192,192,97885,1,0,0:0:0:0:
64,192,97950,1,0,0:0:0:0:
448,192,98015,1,0,0:0:0:0:
192,192,98081,1,0,0:0:0:0:
320,192,98146,1,0,0:0:0:0:
448,192,98211,1,0,0:0:0:0:
64,192,98276,1,0,0:0:0:0:
320,192,98341,1,0,0:0:0:0:
448,192,98406,1,0,0:0:0:0:
320,192,98472,1,0,0:0:0:0:
192,192,98537,1,0,0:0:0:0:
64,192,98602,1,0,0:0:0:0:
192,192,98667,1,0,0:0:0:0:
448,192,98732,1,0,0:0:0:0:
320,192,98797,1,0,0:0:0:0:
64,192,98863,1,0,0:0:0:0:
192,192,98928,1,0,0:0:0:0:
448,192,98993,1,0,0:0:0:0:
320,192,99058,1,0,0:0:0:0:
192,192,99123,1,0,0:0:0:0:
64,192,99189,1,0,0:0:0:0:
192,192,99254,1,0,0:0:0:0:
320,192,99319,1,0,0:0:0:0:
448,192,99384,1,0,0:0:0:0:
64,192,99449,1,0,0:0:0:0:
192,192,99514,1,0,0:0:0:0:
448,192,99580,1,0,0:0:0:0:
192,192,99645,1,0,0:0:0:0:
64,192,99710,1,0,0:0:0:0:
320,192,99775,1,0,0:0:0:0:
64,192,99840,1,0,0:0:0:0:
320,192,99905,1,0,0:0:0:0:
192,192,99971,1,0,0:0:0:0:
320,192,100036,1,0,0:0:0:0:
448,192,100101,1,0,0:0:0:0:
448,192,100492,1,0,0:0:0:0:
448,192,100883,1,0,0:0:0:0:
