osu file format v14

[General]
AudioFilename: audio.mp3
AudioLeadIn: 0
PreviewTime: 37582
Countdown: 0
SampleSet: Normal
StackLeniency: 0.7
Mode: 0
LetterboxInBreaks: 0
WidescreenStoryboard: 1
SamplesMatchPlaybackRate: 1

[Editor]
Bookmarks: 16082,26748,38748,49415,60082,70748,81415,93415,104082,114748,125415,136082,146748,157415,170748
DistanceSpacing: 1.2
BeatDivisor: 4
GridSize: 4
TimelineZoom: 1.5

[Metadata]
Title:La Respuesta
TitleUnicode:La Respuesta
Artist:Becky G, Maluma
ArtistUnicode:Becky G, Maluma
Creator:Kazuya
Version:Hard
Source:
Tags:reggaeton spanish latin kazuya-sama
BeatmapID:2082150
BeatmapSetID:965145

[Difficulty]
HPDrainRate:5
CircleSize:4
OverallDifficulty:6
ApproachRate:7
SliderMultiplier:2.47999990463257
SliderTickRate:1

[Events]
//Background and Video events
0,0,"background.jpg",0,0
//Break Periods
2,36282,37848
2,157262,159162
//Storyboard Layer 0 (Background)
//Storyboard Layer 1 (Fail)
//Storyboard Layer 2 (Pass)
//Storyboard Layer 3 (Foreground)
//Storyboard Sound Samples

[TimingPoints]
82,666.666666666667,4,2,1,60,1,0
82,-100,4,2,1,60,0,0
26748,-100,4,2,1,60,0,0
38748,-83.3333333333333,4,1,1,60,0,1
60082,-100,4,1,1,60,0,0
62748,-83.3333333333333,4,1,1,60,0,0
70748,-100,4,2,1,60,0,0
93415,-83.3333333333333,4,1,1,60,0,1
114748,-100,4,1,1,60,0,0
117415,-83.3333333333333,4,1,1,60,0,0
136081,-100,4,2,1,60,0,0
146053,451.977401129944,4,2,1,60,1,0
146279,468.75,4,2,1,60,1,0
146513,431.654676258993,4,2,1,60,1,0
146729,666.666666666667,4,2,1,60,1,0
162729,-83.3333333333333,4,1,1,60,0,0
170729,-100,4,2,1,60,0,0

[Colours]
Combo1 : 249,243,15
Combo2 : 145,107,91
Combo3 : 244,101,81
Combo4 : 98,138,132
SliderBorder : 255,255,255
SliderTrackOverride : 232,236,201

[HitObjects]
400,32,82,6,0,L|392:104,1,61.9999976158143
352,156,415,1,2,0:0:0:0:
352,156,582,2,0,P|432:152|496:228,1,185.999992847443
228,356,1748,1,2,0:0:0:0:
228,356,1915,2,0,P|138:355|84:284,1,185.999992847443
128,224,2582,1,0,0:0:0:0:
128,224,2748,6,0,L|116:96,1,123.999995231629,0|2,0:0|0:0,0:0:0:0:
60,52,3248,2,0,B|96:68|96:68|240:44,1,185.999992847443
488,208,4415,1,2,0:0:0:0:
488,208,4582,2,0,B|452:192|452:192|308:216,1,185.999992847443
88,332,5415,6,0,B|20:300,1,61.9999976158143,4|2,0:0|0:0,0:0:0:0:
3,185,5748,2,0,B|59:211,1,61.9999976158143,0|2,0:0|0:0,0:0:0:0:
156,132,6082,1,8,0:0:0:0:
216,88,6248,1,2,0:0:0:0:
276,132,6415,1,0,0:0:0:0:
336,88,6581,1,2,0:0:0:0:
452,136,6748,6,0,L|464:68,1,61.9999976158143,0|2,0:0|0:0,0:0:0:0:
375,164,7082,2,0,L|387:232,1,61.9999976158143,0|2,0:0|0:0,0:0:0:0:
440,276,7415,2,0,B|400:316|348:300|320:264|320:264|304:284|268:284,1,185.999992847443,8|2,0:0|0:0,0:0:0:0:
228,340,8082,6,0,L|243:216,1,123.999995231629
164,36,8748,2,0,L|287:20,1,123.999995231629,8|0,0:0|0:0,0:0:0:0:
468,104,9415,2,0,P|460:156|452:232,1,123.999995231629
304,360,10082,2,0,B|268:376|224:360|224:360|184:344,1,123.999995231629,8|0,0:0|0:0,0:0:0:0:
116,316,10582,1,0,0:0:0:0:
116,316,10748,6,0,L|120:384,1,61.9999976158143,0|2,0:0|0:0,0:0:0:0:
16,308,11082,2,0,P|20:272|36:248,1,61.9999976158143,0|2,0:0|0:0,0:0:0:0:
102,147,11415,1,8,0:0:0:0:
82,74,11582,1,2,0:0:0:0:
145,33,11748,1,0,0:0:0:0:
202,80,11915,1,2,0:0:0:0:
264,188,12082,6,0,P|294:183|336:172,1,61.9999976158143,0|2,0:0|0:0,0:0:0:0:
404,80,12415,2,0,P|396:109|392:140,1,61.9999976158143,0|2,0:0|0:0,0:0:0:0:
387,215,12748,2,0,B|432:268|495:251|495:251|460:308,1,185.999992847443,8|2,0:0|0:0,0:0:0:0:
400,348,13415,6,0,B|372:372|328:356|328:356|280:336,1,123.999995231629
144,196,14082,2,0,B|172:172|216:188|216:188|264:208,1,123.999995231629,8|0,0:0|0:0,0:0:0:0:
428,312,14748,2,0,P|440:248|456:188,1,123.999995231629
336,32,15415,2,0,P|351:91|363:152,1,123.999995231629,8|0,0:0|0:0,0:0:0:0:
335,222,15915,1,0,0:0:0:0:
335,222,16082,6,0,P|326:252|320:284,1,61.9999976158143,0|2,0:0|0:0,0:0:0:0:
239,376,16415,2,0,P|232:345|224:315,1,61.9999976158143,0|2,0:0|0:0,0:0:0:0:
192,196,16748,1,8,0:0:0:0:
132,240,16915,1,2,0:0:0:0:
72,284,17082,1,0,0:0:0:0:
31,222,17248,1,2,0:0:0:0:
102,120,17415,6,0,P|98:88|90:56,1,61.9999976158143,0|2,0:0|0:0,0:0:0:0:
205,10,17748,2,0,P|197:40|193:70,1,61.9999976158143,0|2,0:0|0:0,0:0:0:0:
236,188,18082,1,8,0:0:0:0:
279,249,18248,1,2,0:0:0:0:
350,226,18415,1,0,0:0:0:0:
350,151,18582,1,2,0:0:0:0:
279,128,18748,6,0,L|300:4,1,123.999995231629
484,80,19415,2,0,L|504:202,1,123.999995231629,8|0,0:0|0:0,0:0:0:0:
348,324,20082,2,0,P|304:328|224:344,1,123.999995231629
108,184,20748,2,0,P|168:196|230:203,1,123.999995231629,8|0,0:0|0:0,0:0:0:0:
288,156,21248,1,0,0:0:0:0:
288,156,21415,6,0,P|292:121|300:92,1,61.9999976158143,0|2,0:0|0:0,0:0:0:0:
400,168,21748,2,0,P|407:198|410:228,1,61.9999976158143,0|2,0:0|0:0,0:0:0:0:
316,312,22082,1,8,0:0:0:0:
256,356,22248,1,2,0:0:0:0:
196,312,22415,1,0,0:0:0:0:
256,268,22582,1,2,0:0:0:0:
364,208,22748,6,0,P|356:144|344:80,1,123.999995231629
288,36,23248,2,0,P|272:64|272:100,1,61.9999976158143,2|8,0:0|0:0,0:0:0:0:
231,157,23582,2,0,L|91:177,1,123.999995231629,2|2,0:0|0:0,0:0:0:0:
81,244,24082,2,0,P|72:183|54:124,1,123.999995231629
228,30,24748,2,0,P|209:89|200:150,1,123.999995231629,8|0,0:0|0:0,0:0:0:0:
276,334,25415,1,0,0:0:0:0:
72,320,25748,2,0,P|64:286|52:252,1,61.9999976158143,0|2,0:0|0:0,0:0:0:0:
16,168,26082,1,0,0:0:0:0:
16,168,26248,2,0,L|32:104,1,61.9999976158143,2|0,0:0|0:0,0:0:0:0:
216,36,26748,6,0,L|360:24,1,123.999995231629,4|0,0:0|0:0,0:0:0:0:
436,104,27248,1,8,0:1:0:0:
436,104,27415,2,0,P|425:133|420:172,1,61.9999976158143
366,215,27748,2,0,L|488:195,2,123.999995231629,8|0|0,0:1|0:0|0:0,0:0:0:0:
280,124,28582,1,8,0:1:0:0:
280,124,28748,2,0,P|247:119|168:160,1,123.999995231629,0|8,0:0|0:1,0:0:0:0:
132,224,29248,1,0,0:0:0:0:
132,224,29415,6,0,L|120:288,1,61.9999976158143,2|0,0:0|0:0,0:0:0:0:
212,369,29748,2,0,L|200:305,1,61.9999976158143,2|8,0:0|0:1,0:0:0:0:
240,244,30082,1,0,0:0:0:0:
300,288,30248,1,2,0:0:0:0:
372,268,30415,1,8,0:1:0:0:
392,196,30582,1,2,0:0:0:0:
332,152,30748,2,0,P|320:116|360:44,1,123.999995231629,2|2,0:0|0:0,0:0:0:0:
428,72,31248,1,8,0:1:0:0:
428,72,31415,2,0,L|492:56,2,61.9999976158143,0|0|8,0:0|0:0|0:1,0:0:0:0:
300,224,32082,6,0,B|216:244|216:244|180:236,1,123.999995231629,4|0,0:0|0:0,0:0:0:0:
116,196,32582,1,8,0:1:0:0:
116,196,32748,2,0,B|100:228|100:228|100:256,1,61.9999976158143
184,162,33082,2,0,B|184:135|184:135|168:103,1,61.9999976158143,8|0,0:1|0:0,0:0:0:0:
116,52,33415,2,0,L|240:76,1,123.999995231629
352,28,33915,1,8,0:1:0:0:
352,28,34082,2,0,P|364:76|376:160,1,123.999995231629,0|8,0:0|0:1,0:0:0:0:
324,204,34582,1,0,0:0:0:0:
324,204,34748,6,0,P|340:228|372:248,1,61.9999976158143,2|0,0:0|0:0,0:0:0:0:
314,374,35082,2,0,L|303:314,1,61.9999976158143,2|8,0:0|0:1,0:0:0:0:
209,314,35415,2,0,L|197:374,1,61.9999976158143,0|2,0:0|0:0,0:0:0:0:
144,246,35748,2,0,P|170:229|188:204,1,61.9999976158143,8|2,0:1|0:0,0:0:0:0:
256,139,36082,1,0,0:0:0:0:
464,36,38748,6,0,P|476:100|408:148,1,148.799989736939,4|8,0:0|0:0,0:0:0:0:
276,98,39248,1,8,0:0:0:0:
276,98,39415,2,0,L|296:250,1,148.799989736939,0|8,0:0|0:1,0:0:0:0:
92,340,40082,2,0,L|104:264,1,74.3999948684694
168,204,40415,2,0,P|164:164|144:132,1,74.3999948684694,8|8,0:0|0:0,0:0:0:0:
68,92,40748,2,0,P|73:52|96:24,2,74.3999948684694,0|0|8,0:0|0:0|0:0,0:0:0:0:
184,284,41415,6,0,L|332:304,1,148.799989736939,0|8,0:0|0:0,0:0:0:0:
452,216,41915,1,8,0:0:0:0:
452,216,42082,2,0,P|464:144|484:64,1,148.799989736939,0|8,0:0|0:0,0:0:0:0:
268,8,42748,2,0,P|280:40|288:88,1,74.3999948684694
212,128,43082,2,0,P|175:121|140:108,1,74.3999948684694,8|8,0:0|0:0,0:0:0:0:
79,43,43415,2,0,L|107:191,1,148.799989736939,0|8,0:0|0:0,0:0:0:0:
254,357,44082,6,0,P|246:293|310:237,1,148.799989736939,0|8,0:0|0:0,0:0:0:0:
443,187,44582,1,8,0:0:0:0:
443,187,44748,2,0,P|451:223|455:263,1,74.3999948684694
353,150,45082,2,0,P|356:113|364:76,1,74.3999948684694,8|0,0:0|0:0,0:0:0:0:
431,17,45415,2,0,L|283:41,1,148.799989736939,0|8,0:0|0:0,0:0:0:0:
135,26,45915,1,8,0:0:0:0:
135,26,46082,2,0,P|124:94|115:174,1,148.799989736939,0|8,0:0|0:0,0:0:0:0:
246,354,46748,6,0,P|319:345|393:334,1,148.799989736939,0|8,0:0|0:0,0:0:0:0:
455,199,47248,1,8,0:0:0:0:
455,199,47415,2,0,P|463:125|474:51,1,148.799989736939,0|8,0:0|0:0,0:0:0:0:
252,28,48082,2,0,P|264:61|272:105,1,74.3999948684694
202,156,48415,2,0,L|190:236,1,74.3999948684694,8|8,0:0|0:0,0:0:0:0:
132,297,48748,2,0,P|95:303|60:316,2,74.3999948684694,0|0|8,0:0|0:0|0:0,0:0:0:0:
328,188,49415,6,0,L|360:36,1,148.799989736939,4|8,0:0|0:0,0:0:0:0:
416,180,49915,1,8,0:0:0:0:
416,180,50082,2,0,P|392:264|336:280,1,148.799989736939,0|8,0:0|0:0,0:0:0:0:
120,320,50748,2,0,L|128:244,1,74.3999948684694
76,172,51082,2,0,P|76:140|100:104,1,74.3999948684694,8|8,0:0|0:0,0:0:0:0:
188,108,51415,2,0,L|176:32,2,74.3999948684694,0|0|8,0:0|0:0|0:0,0:0:0:0:
280,312,52082,6,0,P|312:324|412:280,1,148.799989736939,0|8,0:0|0:0,0:0:0:0:
488,152,52582,1,8,0:0:0:0:
488,152,52748,2,0,L|460:0,2,148.799989736939,0|8|0,0:0|0:0|0:0,0:0:0:0:
408,193,53582,1,0,0:0:0:0:
408,193,53748,2,0,L|324:176,1,74.3999948684694,8|8,0:0|0:0,0:0:0:0:
260,128,54082,2,0,P|304:180|292:264,1,148.799989736939,0|8,0:0|0:0,0:0:0:0:
108,376,54748,6,0,L|136:220,1,148.799989736939,0|8,0:0|0:0,0:0:0:0:
88,88,55248,1,8,0:0:0:0:
88,88,55415,2,0,P|122:82|176:76,1,74.3999948684694
277,172,55748,2,0,P|240:167|203:161,1,74.3999948684694,8|0,0:0|0:0,0:0:0:0:
329,80,56082,2,0,L|368:232,1,148.799989736939,0|8,0:0|0:0,0:0:0:0:
272,340,56582,1,8,0:0:0:0:
272,340,56748,2,0,B|240:360|240:360|120:340,1,148.799989736939,0|8,0:0|0:0,0:0:0:0:
20,148,57415,6,0,B|129:129|129:129|161:149,1,148.799989736939,0|8,0:0|0:0,0:0:0:0:
298,209,57915,1,8,0:0:0:0:
298,209,58082,2,0,L|274:53,1,148.799989736939,0|8,0:0|0:0,0:0:0:0:
424,228,58748,2,0,P|412:288|340:332,1,148.799989736939,0|8,0:0|0:0,0:0:0:0:
200,284,59248,1,8,0:0:0:0:
200,284,59415,2,0,L|52:304,2,148.799989736939,0|8|4,0:0|0:0|0:0,0:0:0:0:
388,52,60748,5,4,0:0:0:0:
488,332,61415,1,4,0:0:0:0:
396,216,61748,1,8,0:2:0:0:
276,304,62082,2,0,P|284:333|288:364,2,61.9999976158143,8|8|8,0:2|0:2|0:2,0:0:0:0:
208,92,62748,6,0,L|368:112,1,148.799989736939,4|8,0:0|0:0,0:0:0:0:
480,28,63248,1,8,0:0:0:0:
480,28,63415,2,0,P|493:94|504:188,1,148.799989736939,0|8,0:0|0:0,0:0:0:0:
428,304,63915,1,0,0:0:0:0:
428,304,64082,6,0,P|388:320|352:320,1,74.3999948684694
264,204,64415,2,0,L|344:212,1,74.3999948684694,8|8,0:0|0:0,0:0:0:0:
240,324,64748,2,0,P|204:331|104:284,1,148.799989736939,0|8,0:0|0:0,0:0:0:0:
20,80,65415,6,0,B|128:64|128:64|172:84,1,148.799989736939,4|8,0:0|0:0,0:0:0:0:
270,185,65915,1,8,0:0:0:0:
270,185,66082,2,0,L|294:33,1,148.799989736939,4|8,0:0|0:0,0:0:0:0:
412,128,66582,1,0,0:0:0:0:
412,128,66749,2,0,L|436:280,1,148.799989736939,4|8,0:0|0:0,0:0:0:0:
320,368,67248,1,8,0:0:0:0:
320,368,67415,2,0,P|268:376|188:316,1,148.799989736939,4|8,0:0|0:0,0:0:0:0:
148,182,67915,1,0,0:0:0:0:
148,182,68082,6,0,L|-8:162,1,148.799989736939,4|8,0:0|0:0,0:0:0:0:
91,45,68582,1,8,0:0:0:0:
91,45,68748,2,0,L|238:26,1,148.799989736939,0|8,0:0|0:0,0:0:0:0:
368,100,69248,1,0,0:0:0:0:
368,100,69415,6,0,P|324:152|344:232,1,148.799989736939,0|8,0:0|0:0,0:0:0:0:
460,313,69915,1,8,0:0:0:0:
460,313,70082,2,0,P|504:261|484:181,1,148.799989736939,0|8,0:0|0:0,0:0:0:0:
296,32,70748,5,4,0:0:0:0:
296,32,70915,2,0,P|280:64|276:96,2,61.9999976158143,0|0|8,0:0|0:0|0:0,0:0:0:0:
347,145,71415,2,0,L|223:165,1,123.999995231629,0|8,0:0|0:0,0:0:0:0:
48,112,72082,1,0,0:0:0:0:
48,112,72248,2,0,P|78:106|105:91,2,61.9999976158143,0|0|8,0:0|0:0|0:0,0:0:0:0:
146,36,72748,2,0,L|126:160,1,123.999995231629,0|8,0:0|0:0,0:0:0:0:
268,280,73415,6,0,L|396:264,1,123.999995231629
440,208,73915,1,8,0:0:0:0:
440,208,74082,2,0,P|444:172|452:144,1,61.9999976158143
352,72,74415,2,0,P|359:101|362:132,1,61.9999976158143,8|0,0:0|0:0,0:0:0:0:
255,196,74748,1,0,0:0:0:0:
255,196,74915,2,0,P|225:187|197:174,2,61.9999976158143,0|0|8,0:0|0:0|0:0,0:0:0:0:
159,117,75415,2,0,L|176:249,1,123.999995231629,0|8,0:0|0:0,0:0:0:0:
302,376,76082,5,4,0:0:0:0:
302,376,76248,2,0,P|334:364|374:356,1,61.9999976158143
484,380,76582,1,8,0:0:0:0:
484,380,76748,2,0,L|496:256,1,123.999995231629,0|8,0:0|0:0,0:0:0:0:
384,108,77415,1,0,0:0:0:0:
384,108,77582,2,0,P|355:101|316:80,1,61.9999976158143
223,18,77915,1,8,0:0:0:0:
223,18,78082,2,0,B|236:92|236:92|212:144,1,123.999995231629,0|8,0:0|0:0,0:0:0:0:
56,232,78748,5,0,0:0:0:0:
56,232,78915,2,0,P|48:264|48:300,1,61.9999976158143
108,336,79248,1,8,0:0:0:0:
108,336,79415,2,0,P|138:334|168:327,1,61.9999976158143
240,305,79748,2,0,P|228:336|231:365,1,61.9999976158143,8|0,0:0|0:0,0:0:0:0:
304,347,80082,5,0,0:0:0:0:
364,304,80248,1,2,0:0:0:0:
344,232,80415,1,0,0:0:0:0:
269,235,80582,1,2,0:0:0:0:
238,168,80748,2,0,P|226:107|208:40,1,123.999995231629,2|2,0:0|0:0,0:0:0:0:
64,248,81415,6,0,L|52:308,1,61.9999976158143,4|0,0:0|0:0,0:0:0:0:
102,364,81748,1,0,0:0:0:0:
162,320,81915,1,8,0:1:0:0:
215,372,82082,2,0,P|247:364|283:352,2,61.9999976158143,0|0|8,0:0|0:0|0:1,0:0:0:0:
162,320,82582,1,0,0:1:0:0:
212,264,82748,2,0,L|200:140,1,123.999995231629,8|8,0:0|0:0,0:0:0:0:
400,40,83582,2,0,L|388:112,1,61.9999976158143,0|8,0:0|0:1,0:0:0:0:
444,152,83915,1,0,0:0:0:0:
384,196,84082,6,0,P|376:224|372:256,1,61.9999976158143,4|0,0:0|0:0,0:0:0:0:
324,314,84415,1,0,0:0:0:0:
256,284,84582,1,8,0:1:0:0:
212,344,84748,2,0,P|181:340|151:331,2,61.9999976158143,0|0|8,0:0|0:0|0:1,0:0:0:0:
256,284,85248,1,0,0:0:0:0:
212,224,85415,2,0,P|204:160|232:108,1,123.999995231629,8|8,0:0|0:0,0:0:0:0:
504,52,86248,2,0,L|512:116,1,61.9999976158143,0|8,0:0|0:1,0:0:0:0:
456,164,86582,1,0,0:0:0:0:
396,120,86748,6,0,P|384:152|384:180,1,61.9999976158143,4|0,0:0|0:0,0:0:0:0:
428,240,87082,1,0,0:0:0:0:
368,284,87248,1,8,0:1:0:0:
324,224,87415,2,0,P|292:232|264:252,1,61.9999976158143
232,313,87748,2,0,L|164:305,1,61.9999976158143,8|0,0:1|0:0,0:0:0:0:
105,343,88082,2,0,P|118:301|79:235,1,123.999995231629
13,202,88582,1,8,0:1:0:0:
13,202,88748,2,0,L|1:74,1,123.999995231629,0|8,0:0|0:1,0:0:0:0:
56,28,89248,1,0,0:0:0:0:
56,28,89415,6,0,P|96:64|176:56,1,123.999995231629,4|0,0:0|0:0,0:0:0:0:
229,28,89915,1,8,0:1:0:0:
229,28,90082,2,0,P|240:56|245:100,1,61.9999976158143
305,196,90415,2,0,P|309:165|320:136,1,61.9999976158143,8|0,0:1|0:0,0:0:0:0:
364,76,90748,5,0,0:0:0:0:
476,268,91248,1,8,0:0:0:0:
416,312,91415,1,0,0:0:0:0:
272,276,91748,1,8,0:0:0:0:
144,352,92082,1,0,0:0:0:0:
200,136,92582,1,8,0:0:0:0:
260,180,92748,1,0,0:0:0:0:
116,220,93082,1,8,0:0:0:0:
308,332,93415,6,0,P|356:368|440:352,1,148.799989736939,4|8,0:0|0:0,0:0:0:0:
507,220,93915,1,8,0:0:0:0:
507,220,94082,2,0,L|480:68,1,148.799989736939,0|8,0:0|0:0,0:0:0:0:
292,192,94748,2,0,P|280:228|276:272,1,74.3999948684694
244,348,95082,2,0,L|164:360,1,74.3999948684694,8|8,0:0|0:0,0:0:0:0:
108,296,95415,2,0,P|69:290|32:280,2,74.3999948684694,0|0|8,0:0|0:0|0:0,0:0:0:0:
247,120,96082,6,0,P|335:120|371:168,1,148.799989736939,0|8,0:0|0:0,0:0:0:0:
456,284,96582,1,8,0:0:0:0:
456,284,96748,2,0,L|296:300,1,148.799989736939,0|8,0:0|0:0,0:0:0:0:
92,240,97415,2,0,P|84:204|68:164,1,74.3999948684694
108,88,97748,2,0,P|144:80|184:64,1,74.3999948684694,8|8,0:0|0:0,0:0:0:0:
248,9,98082,2,0,L|212:157,1,148.799989736939,0|8,0:0|0:0,0:0:0:0:
304,356,98748,6,0,P|368:368|432:320,1,148.799989736939,0|8,0:0|0:0,0:0:0:0:
500,188,99248,1,8,0:0:0:0:
500,188,99415,2,0,L|488:104,1,74.3999948684694
352,56,99748,2,0,L|362:129,1,74.3999948684694,8|0,0:0|0:0,0:0:0:0:
412,205,100082,2,0,B|364:185|364:185|260:209,1,148.799989736939,0|8,0:0|0:0,0:0:0:0:
158,305,100582,1,8,0:0:0:0:
158,305,100748,2,0,P|149:236|130:141,1,148.799989736939,0|8,0:0|0:0,0:0:0:0:
332,53,101415,6,0,P|317:126|307:199,1,148.799989736939,0|8,0:0|0:0,0:0:0:0:
376,332,101915,1,8,0:0:0:0:
376,332,102082,2,0,P|302:342|229:357,1,148.799989736939,0|8,0:0|0:0,0:0:0:0:
60,212,102748,2,0,L|140:220,1,74.3999948684694
208,168,103082,2,0,P|212:132|224:92,1,74.3999948684694,8|8,0:0|0:0,0:0:0:0:
296,44,103415,2,0,L|372:32,2,74.3999948684694,0|0|8,0:0|0:0|0:0,0:0:0:0:
72,64,104082,6,0,L|59:217,1,148.799989736939,4|8,0:0|0:0,0:0:0:0:
136,340,104582,1,8,0:0:0:0:
136,340,104748,2,0,P|180:348|268:296,1,148.799989736939,0|8,0:0|0:0,0:0:0:0:
416,132,105415,2,0,P|404:96|396:56,1,74.3999948684694
312,32,105748,2,0,P|276:44|236:52,1,74.3999948684694,8|8,0:0|0:0,0:0:0:0:
160,92,106082,2,0,P|124:80|84:72,2,74.3999948684694,0|0|8,0:0|0:0|0:0,0:0:0:0:
280,280,106748,6,0,P|328:292|412:240,1,148.799989736939,0|8,0:0|0:0,0:0:0:0:
488,120,107248,1,8,0:0:0:0:
488,120,107415,2,0,B|480:88|488:64|488:64|436:72|404:20,2,148.799989736939,0|8|0,0:0|0:0|0:0,0:0:0:0:
411,165,108248,1,0,0:0:0:0:
411,165,108415,2,0,P|372:160|328:136,1,74.3999948684694,8|8,0:0|0:0,0:0:0:0:
296,68,108748,2,0,P|316:112|260:192,1,148.799989736939,0|8,0:0|0:0,0:0:0:0:
46,228,109415,6,0,P|26:184|82:104,1,148.799989736939,0|8,0:0|0:0,0:0:0:0:
210,42,109915,1,8,0:0:0:0:
210,42,110082,2,0,L|222:118,1,74.3999948684694
320,228,110415,2,0,L|332:152,1,74.3999948684694,8|0,0:0|0:0,0:0:0:0:
452,67,110748,2,0,L|476:215,1,148.799989736939,0|8,0:0|0:0,0:0:0:0:
396,340,111248,1,8,0:0:0:0:
396,340,111415,2,0,P|328:348|244:368,1,148.799989736939,0|8,0:0|0:0,0:0:0:0:
88,212,112082,6,0,P|160:229|234:238,1,148.799989736939,0|8,0:0|0:0,0:0:0:0:
356,152,112582,1,8,0:0:0:0:
356,152,112748,2,0,P|365:78|382:5,1,148.799989736939,0|8,0:0|0:0,0:0:0:0:
464,292,113415,6,0,P|408:340|328:336,1,148.799989736939,0|8,0:0|0:0,0:0:0:0:
228,237,113915,1,8,0:0:0:0:
228,237,114082,2,0,B|188:225|188:225|124:241|124:241|80:225,2,148.799989736939,0|8|4,0:0|0:0|0:0,0:0:0:0:
500,356,115415,1,4,0:0:0:0:
412,72,116082,1,4,0:0:0:0:
292,160,116415,1,8,0:2:0:0:
164,84,116748,2,0,L|170:22,2,61.9999976158143,8|8|0,0:2|0:2|0:2,0:0:0:0:
88,296,117415,6,0,B|128:288|128:288|184:312|184:312|236:304,1,148.799989736939,4|8,0:0|0:0,0:0:0:0:
376,336,117915,1,8,0:0:0:0:
376,336,118082,2,0,P|388:256|392:184,1,148.799989736939,0|8,0:0|0:0,0:0:0:0:
404,40,118582,1,0,0:0:0:0:
404,40,118748,2,0,L|320:52,1,74.3999948684694
210,140,119082,2,0,L|283:150,1,74.3999948684694,8|8,0:0|0:0,0:0:0:0:
157,72,119415,2,0,B|112:64|112:64|12:108,1,148.799989736939,0|8,0:0|0:0,0:0:0:0:
112,308,120082,6,0,B|157:316|157:316|257:272,1,148.799989736939,4|8,0:0|0:0,0:0:0:0:
392,224,120582,1,8,0:0:0:0:
392,224,120748,2,0,P|384:284|376:376,1,148.799989736939,4|8,0:0|0:0,0:0:0:0:
496,283,121248,1,0,0:0:0:0:
496,283,121415,2,0,P|489:208|480:135,1,148.799989736939,4|8,0:0|0:0,0:0:0:0:
359,48,121915,1,8,0:0:0:0:
359,48,122082,2,0,L|203:36,1,148.799989736939,4|8,0:0|0:0,0:0:0:0:
76,100,122582,1,0,0:0:0:0:
76,100,122748,6,0,P|92:160|104:256,1,148.799989736939,4|8,0:0|0:0,0:0:0:0:
204,356,123248,1,8,0:0:0:0:
204,356,123415,2,0,P|213:282|231:210,1,148.799989736939,0|8,0:0|0:0,0:0:0:0:
304,80,123915,1,0,0:0:0:0:
304,80,124082,2,0,P|295:38|284:4,1,74.3999948684694
419,75,124415,2,0,P|407:110|400:146,1,74.3999948684694,8|8,0:0|0:0,0:0:0:0:
488,268,124748,2,0,B|380:304|380:304|336:292,1,148.799989736939,0|8,0:0|0:0,0:0:0:0:
184,140,125415,6,0,P|160:68|96:44,1,148.799989736939,4|8,0:0|0:0,0:0:0:0:
36,180,125915,1,8,0:0:0:0:
36,180,126082,2,0,P|60:252|124:276,1,148.799989736939,4|8,0:0|0:0,0:0:0:0:
268,236,126582,1,0,0:0:0:0:
268,236,126748,2,0,L|236:384,1,148.799989736939,4|8,0:0|0:0,0:0:0:0:
378,335,127248,1,8,0:0:0:0:
378,335,127414,2,0,L|410:187,1,148.799989736939,4|8,0:0|0:0,0:0:0:0:
328,64,127915,1,0,0:0:0:0:
328,64,128082,6,0,B|280:48|236:88|236:88|216:75|180:72,1,148.799989736939,4|8,0:0|0:0,0:0:0:0:
48,28,128582,1,8,0:0:0:0:
48,28,128748,2,0,P|64:96|76:184,1,148.799989736939,0|8,0:0|0:0,0:0:0:0:
16,312,129248,1,0,0:0:0:0:
16,312,129415,2,0,P|49:323|88:332,1,74.3999948684694
195,229,129748,2,0,P|158:237|123:248,1,74.3999948684694,8|8,0:0|0:0,0:0:0:0:
228,356,130082,2,0,B|268:364|268:364|376:332,1,148.799989736939,0|8,0:0|0:0,0:0:0:0:
484,140,130748,6,0,B|444:132|444:132|336:164,1,148.799989736939,4|8,0:0|0:0,0:0:0:0:
231,264,131248,1,8,0:0:0:0:
231,264,131415,2,0,P|219:188|203:116,1,148.799989736939,4|8,0:0|0:0,0:0:0:0:
88,24,131915,1,0,0:0:0:0:
88,24,132082,2,0,P|71:96|60:170,1,148.799989736939,4|8,0:0|0:0,0:0:0:0:
104,313,132582,1,8,0:0:0:0:
104,313,132748,2,0,B|144:308|144:308|200:332|200:332|264:324,1,148.799989736939,4|8,0:0|0:0,0:0:0:0:
388,276,133248,1,0,0:0:0:0:
388,276,133415,6,0,L|368:120,1,148.799989736939,4|8,0:0|0:0,0:0:0:0:
261,26,133915,1,8,0:0:0:0:
261,26,134082,2,0,P|233:90|221:170,1,148.799989736939,0|8,0:0|0:0,0:0:0:0:
272,308,134582,1,0,0:0:0:0:
272,308,134748,2,0,L|120:324,1,148.799989736939,0|8,0:0|0:0,0:0:0:0:
12,225,135248,1,8,0:0:0:0:
12,225,135415,2,0,B|28:177|28:177|16:121|16:121|32:73,1,148.799989736939,0|8,0:0|0:0,0:0:0:0:
268,16,136082,6,0,P|279:45|284:80,1,61.9999976158143,4|0,0:0|0:0,0:0:0:0:
268,148,136415,2,0,L|340:160,1,61.9999976158143,0|8,0:0|0:0,0:0:0:0:
400,136,136748,2,0,P|410:164|416:204,1,61.9999976158143
476,240,137082,2,0,P|470:270|455:306,1,61.9999976158143,8|0,0:0|0:0,0:0:0:0:
416,360,137415,1,0,0:0:0:0:
416,360,137582,2,0,B|376:368|376:368|296:340,1,123.999995231629,0|8,0:0|0:0,0:0:0:0:
203,260,138082,6,0,P|210:289|215:324,1,61.9999976158143
155,365,138415,2,0,P|124:361|94:353,1,61.9999976158143,8|0,0:0|0:0,0:0:0:0:
36,307,138748,1,0,0:0:0:0:
36,307,138915,2,0,P|28:244|12:176,1,123.999995231629,0|8,0:0|0:0,0:0:0:0:
100,96,139415,6,0,L|88:172,1,61.9999976158143
181,72,139748,2,0,L|169:148,1,61.9999976158143,8|0,0:0|0:0,0:0:0:0:
248,232,140082,2,0,L|236:156,1,61.9999976158143
329,256,140415,2,0,L|317:180,1,61.9999976158143,0|8,0:0|0:0,0:0:0:0:
299,123,140748,2,0,P|310:61|331:-1,1,123.999995231629,0|8,0:0|0:0,0:0:0:0:
456,217,141415,6,0,L|465:278,1,61.9999976158143
424,340,141748,2,0,P|391:333|360:312,1,61.9999976158143,0|8,0:0|0:0,0:0:0:0:
316,264,142082,1,0,0:0:0:0:
256,308,142248,1,0,0:0:0:0:
212,248,142415,2,0,P|192:268|180:304,1,61.9999976158143,8|0,0:0|0:0,0:0:0:0:
132,356,142748,1,0,0:0:0:0:
132,356,142915,2,0,L|128:228,1,123.999995231629,0|8,0:0|0:0,0:0:0:0:
196,128,143415,6,0,P|200:156|220:192,1,61.9999976158143
286,208,143748,2,0,P|314:204|350:184,1,61.9999976158143,8|0,0:0|0:0,0:0:0:0:
400,139,144082,1,0,0:0:0:0:
400,139,144248,2,0,L|376:263,1,123.999995231629,0|8,0:0|0:0,0:0:0:0:
383,335,144748,2,0,P|352:348|316:352,1,61.9999976158143
238,261,145082,2,0,P|251:292|255:328,1,61.9999976158143,8|0,0:0|0:0,0:0:0:0:
180,312,145415,1,8,0:3:0:0:
428,44,146729,6,0,P|436:72|440:104,1,61.9999976158143,4|0,0:0|0:0,0:0:0:0:
384,154,147062,2,0,P|356:162|324:166,1,61.9999976158143,0|8,0:0|0:1,0:0:0:0:
259,128,147395,2,0,P|243:156|231:192,1,61.9999976158143
244,258,147729,2,0,P|216:274|180:286,1,61.9999976158143,8|0,0:1|0:0,0:0:0:0:
116,264,148062,5,0,0:0:0:0:
56,220,148229,1,0,0:0:0:0:
116,180,148395,1,0,0:0:0:0:
56,136,148562,1,8,0:1:0:0:
116,92,148729,2,0,L|176:80,1,61.9999976158143
237,124,149062,2,0,L|297:112,1,61.9999976158143,8|0,0:1|0:0,0:0:0:0:
360,68,149395,6,0,P|364:36|372:8,2,61.9999976158143
364,143,149895,1,8,0:1:0:0:
420,192,150062,2,0,P|394:210|356:216,1,61.9999976158143
296,188,150395,2,0,L|280:256,1,61.9999976158143,8|0,0:1|0:0,0:0:0:0:
300,321,150729,2,0,P|269:332|239:336,1,61.9999976158143
180,292,151062,2,0,P|175:261|165:232,1,61.9999976158143,0|8,0:0|0:1,0:0:0:0:
96,204,151395,2,0,L|124:80,1,123.999995231629,0|8,0:0|0:1,0:0:0:0:
259,20,152062,6,0,P|265:48|271:80,1,61.9999976158143
257,154,152395,2,0,P|287:160|317:166,1,61.9999976158143,0|8,0:0|0:1,0:0:0:0:
388,140,152729,2,0,L|400:204,1,61.9999976158143
432,268,153062,2,0,P|400:280|368:300,1,61.9999976158143,8|0,0:1|0:0,0:0:0:0:
312,332,153395,5,0,0:0:0:0:
240,312,153562,1,0,0:0:0:0:
260,240,153729,1,0,0:0:0:0:
200,196,153895,1,8,0:1:0:0:
140,240,154062,2,0,L|72:224,1,61.9999976158143
44,160,154395,2,0,P|39:127|32:96,1,61.9999976158143,8|0,0:1|0:0,0:0:0:0:
88,48,154729,6,0,P|118:54|148:59,1,61.9999976158143
220,36,155062,1,0,0:0:0:0:
264,96,155229,1,8,0:1:0:0:
324,52,155395,2,0,P|356:40|384:36,2,61.9999976158143,0|0|8,0:0|0:0|0:1,0:0:0:0:
264,96,155895,1,0,0:0:0:0:
308,156,156062,2,0,P|316:208|320:292,1,123.999995231629
272,336,156562,1,8,0:0:0:0:
272,336,156729,2,0,L|396:304,1,123.999995231629,0|8,0:0|0:0,0:0:0:0:
56,72,160062,5,4,0:1:0:0:
352,32,160729,1,4,0:1:0:0:
156,256,161395,1,4,0:1:0:0:
448,308,162062,2,0,P|439:336|432:368,2,61.9999976158143,8|8|8,0:0|0:0|0:0,0:0:0:0:
508,92,162729,6,0,L|352:116,1,148.799989736939,4|8,0:0|0:0,0:0:0:0:
232,40,163229,1,8,0:0:0:0:
232,40,163395,2,0,P|218:100|208:196,1,148.799989736939,0|8,0:0|0:0,0:0:0:0:
256,328,163895,1,0,0:0:0:0:
256,328,164062,2,0,L|328:312,1,74.3999948684694
412,188,164395,2,0,L|340:204,1,74.3999948684694,8|8,0:0|0:0,0:0:0:0:
472,276,164729,2,0,L|492:128,1,148.799989736939,0|8,0:0|0:0,0:0:0:0:
216,16,165395,6,0,L|196:164,1,148.799989736939,4|8,0:0|0:0,0:0:0:0:
144,303,165895,1,8,0:0:0:0:
144,303,166062,2,0,P|212:287|292:279,1,148.799989736939,4|8,0:0|0:0,0:0:0:0:
436,312,166562,1,0,0:0:0:0:
436,312,166729,2,0,L|460:156,1,148.799989736939,4|8,0:0|0:0,0:0:0:0:
372,44,167229,1,8,0:0:0:0:
372,44,167395,2,0,B|336:32|336:32|280:56|280:56|216:44,1,148.799989736939,4|8,0:0|0:0,0:0:0:0:
84,20,167895,1,0,0:0:0:0:
84,20,168062,6,0,P|68:88|56:176,1,148.799989736939,4|8,0:0|0:0,0:0:0:0:
120,301,168562,1,8,0:0:0:0:
120,301,168729,2,0,P|160:312|256:268,1,148.799989736939,0|8,0:0|0:0,0:0:0:0:
344,152,169229,1,0,0:0:0:0:
344,152,169395,2,0,L|428:140,1,74.3999948684694
292,60,169729,2,0,L|218:49,1,74.3999948684694,8|8,0:0|0:0,0:0:0:0:
72,20,170062,2,0,B|100:108|100:108|88:168,1,148.799989736939,0|8,0:0|0:0,0:0:0:0:
304,288,170729,6,0,B|328:140|328:140|304:88,1,185.999992847443,2|0,0:0|0:0,0:0:0:0:
255,60,171395,2,0,P|327:100|439:48,1,185.999992847443,2|0,0:0|0:0,0:0:0:0:
476,20,172062,2,0,L|452:212,1,185.999992847443,2|0,0:0|0:0,0:0:0:0:
476,276,172729,2,0,L|349:294,1,123.999995231629,2|0,0:0|0:0,0:0:0:0:
337,366,173229,6,0,B|238:330|280:236|300:230|340:220|340:220|285:188|281:134,1,309.999988079071,2|0,0:0|0:0,0:0:0:0:
160,56,174395,2,0,P|150:88|148:116,1,61.9999976158143,2|0,0:0|0:0,0:0:0:0:
204,166,174729,2,0,L|73:192,1,123.999995231629,2|0,0:0|0:0,0:0:0:0:
2,315,175395,2,0,P|25:334|55:343,1,61.9999976158143,2|0,0:0|0:0,0:0:0:0:
127,364,175729,2,0,P|153:348|171:323,1,61.9999976158143,2|0,0:0|0:0,0:0:0:0:
140,255,176062,1,2,0:0:0:0:
256,192,176229,12,0,178729,0:0:0:0:
