osu file format v14

[General]
AudioFilename: audio.mp3
AudioLeadIn: 0
PreviewTime: 45789
Countdown: 0
SampleSet: Normal
StackLeniency: 1
Mode: 0
LetterboxInBreaks: 0
WidescreenStoryboard: 1

[Editor]
Bookmarks: 9836,21836,33836,45836,57836,71336,83336,95336,119336,131336,144836,156836,168836
DistanceSpacing: 1.1
BeatDivisor: 4
GridSize: 8
TimelineZoom: 1

[Metadata]
Title:Less Than Three (Ricardo Autobahn Remix)
TitleUnicode:Less Than Three (Ricardo Autobahn Remix)
Artist:Becky
ArtistUnicode:Becky
Creator:Sonnyc
Version:Normal
Source:osu!
Tags:<3 Best of Disko Warp ~Black Side~ featured artist mappers' guild Evaine english digital dance DanceDanceRevolution UNIVERSE3 richardo electronic
BeatmapID:2258753
BeatmapSetID:1078502

[Difficulty]
HPDrainRate:4
CircleSize:3.5
OverallDifficulty:4
ApproachRate:5
SliderMultiplier:1.4
SliderTickRate:0.5

[Events]
//Background and Video events
0,0,"bg.jpg",0,0
//Break Periods
//Storyboard Layer 0 (Background)
//Storyboard Layer 1 (Fail)
//Storyboard Layer 2 (Pass)
//Storyboard Layer 3 (Foreground)
//Storyboard Layer 4 (Overlay)
//Storyboard Sound Samples

[TimingPoints]
9836,375,4,1,1,70,1,0
169961,-100,4,1,1,30,0,0
171836,-100,4,1,1,5,0,0

[Colours]
Combo1 : 255,238,170
Combo2 : 0,255,128
Combo3 : 185,255,220
Combo4 : 128,128,255
Combo5 : 196,196,255
Combo6 : 255,0,128
Combo7 : 255,155,205
Combo8 : 255,128,64

[HitObjects]
117,321,9836,118,0,P|109:268|170:215,2,140,2|2|2,0:0|0:0|0:0,0:0:0:0:
162,353,10773,1,0,0:0:0:0:
256,292,11148,1,2,0:0:0:0:
347,356,11523,86,0,P|363:325|366:290,1,70,0|2,0:0|0:0,0:0:0:0:
304,197,12086,2,0,P|287:166|284:131,1,70,2|0,0:0|0:0,0:0:0:0:
361,49,12648,1,2,0:0:0:0:
456,108,13023,86,0,L|461:179,1,70,0|2,0:0|0:0,0:0:0:0:
394,267,13586,2,0,L|324:262,1,70,2|0,0:0|0:0,0:0:0:0:
233,328,14148,1,2,0:0:0:0:
156,245,14523,22,0,P|125:261|90:264,1,70,0|2,0:0|0:0,0:0:0:0:
5,195,15086,1,2,0:0:0:0:
217,125,15836,22,0,P|225:72|164:19,2,140,2|2|2,0:0|0:0|0:0,0:0:0:0:
172,157,16773,1,0,0:0:0:0:
225,255,17148,1,2,0:0:0:0:
161,347,17523,86,0,P|191:363|226:366,1,70,0|2,0:0|0:0,0:0:0:0:
317,300,18086,2,0,P|347:283|382:280,1,70,2|0,0:0|0:0,0:0:0:0:
474,344,18648,1,2,0:0:0:0:
484,232,19023,86,0,L|489:161,1,70,0|2,0:0|0:0,0:0:0:0:
422,73,19586,2,0,L|352:77,1,70,2|0,0:0|0:0,0:0:0:0:
283,166,20148,1,2,0:0:0:0:
192,100,20523,22,0,P|175:130|172:165,1,70,0|2,0:0|0:0,0:0:0:0:
229,262,21086,1,0,0:0:0:0:
369,87,21836,54,0,P|468:177|449:311,1,280,4|0,2:0|2:0,1:0:0:0:
305,222,23148,1,2,2:0:0:0:
194,243,23523,1,2,2:0:0:0:
267,327,23898,1,0,2:0:0:0:
17,274,24836,86,0,P|3:147|58:91,1,210,2|2,2:0|2:0,1:0:0:0:
193,268,26148,1,2,2:0:0:0:
304,247,26523,1,2,2:0:0:0:
378,330,26898,1,2,2:0:0:0:
452,109,27836,22,0,P|370:48|271:71,1,210,2|2,2:0|2:0,1:0:0:0:
376,268,29147,1,2,2:0:0:0:
265,289,29522,1,2,2:0:0:0:
338,373,29897,1,2,2:0:0:0:
170,356,30461,85,2,2:0:0:0:
89,278,30836,2,0,L|110:127,1,140,2|0,2:0|2:0,1:0:0:0:
57,43,31586,2,0,P|184:29|240:84,1,210,2|2,2:0|2:0,1:0:0:0:
29,308,33836,22,0,P|9:266|57:193,1,140,2|0,0:0|0:0,0:0:0:0:
128,108,34586,2,0,P|173:111|213:189,1,140,2|0,0:0|0:0,0:0:0:0:
251,293,35336,1,2,0:0:0:0:
251,293,35523,2,0,P|225:330|137:325,1,140,2|0,0:0|0:0,0:0:0:0:
93,117,36836,86,0,P|143:164|169:228,1,140,2|0,0:0|0:0,0:0:0:0:
261,164,37586,2,0,P|311:211|337:275,1,140,2|0,0:0|0:0,0:0:0:0:
374,381,38336,1,2,0:0:0:0:
374,381,38523,2,0,P|424:333|450:269,1,140,2|0,0:0|0:0,0:0:0:0:
324,99,39836,22,0,P|298:136|210:131,1,140,2|0,0:0|0:0,0:0:0:0:
132,53,40586,1,2,0:0:0:0:
132,53,40773,1,0,0:0:0:0:
32,187,41335,1,2,0:0:0:0:
32,187,41522,2,0,P|58:224|146:219,1,140,2|0,0:0|0:0,0:0:0:0:
318,353,42836,38,0,B|349:338|349:338|360:344|360:344|454:335,2,140,6|0|6,0:0|0:0|0:0,0:0:0:0:
368,195,44336,1,2,0:0:0:0:
368,195,44523,2,0,B|224:178,1,140,2|2,0:0|0:0,0:0:0:0:
68,50,45836,54,0,L|139:41,2,70,6|2|8,0:0|0:2|0:0,0:0:0:0:
124,178,46586,2,0,L|54:186,2,70,0|2|10,0:0|0:0|0:0,0:0:0:0:
222,277,47336,22,0,P|275:243|354:236,1,140,2|10,0:0|0:0,0:0:0:0:
480,288,48086,1,2,0:0:0:0:
480,288,48273,1,2,0:2:0:0:
480,288,48461,1,8,0:0:0:0:
448,151,48836,6,0,P|395:117|316:110,1,140,2|10,0:0|0:0,0:0:0:0:
190,162,49586,1,2,0:0:0:0:
190,162,49773,1,2,0:2:0:0:
190,162,49961,1,10,0:0:0:0:
71,63,50336,21,2,0:0:0:0:
60,214,50711,1,2,0:0:0:0:
48,367,51086,1,2,0:0:0:0:
345,282,51836,38,0,L|354:353,2,70,2|2|8,0:0|0:2|0:0,0:0:0:0:
244,184,52586,2,0,L|252:114,2,70,0|2|10,0:0|0:0|0:0,0:0:0:0:
139,277,53336,22,0,P|76:255|36:195,1,140,2|10,0:0|0:0,0:0:0:0:
57,57,54086,1,2,0:0:0:0:
57,57,54273,1,2,0:2:0:0:
57,57,54461,1,8,0:0:0:0:
191,17,54836,6,0,P|255:40|293:97,1,140,2|10,0:0|0:0,0:0:0:0:
273,237,55587,1,2,0:0:0:0:
273,237,55774,1,2,0:2:0:0:
273,237,55962,1,10,0:0:0:0:
162,343,56336,5,6,0:0:0:0:
314,354,56711,1,6,0:0:0:0:
391,360,56898,1,2,0:2:0:0:
467,366,57086,1,6,0:0:0:0:
256,192,57836,12,2,59336,0:0:0:0:
208,233,60086,37,2,0:0:0:0:
208,233,60273,1,0,0:0:0:0:
314,198,60648,1,2,0:0:0:0:
420,163,61023,86,0,P|436:132|439:97,1,70,0|2,0:0|0:0,0:0:0:0:
342,41,61585,2,0,P|312:59|292:88,1,70,2|0,0:0|0:0,0:0:0:0:
314,198,62148,1,2,0:0:0:0:
207,163,62523,86,0,L|137:167,1,70,0|2,0:0|0:0,0:0:0:0:
200,74,63086,2,0,L|130:78,1,70,2|0,0:0|0:0,0:0:0:0:
32,129,63648,1,2,0:0:0:0:
74,232,64023,22,0,P|58:263|55:298,1,70,0|2,0:0|0:0,0:0:0:0:
146,362,64586,1,2,0:0:0:0:
343,255,65336,22,0,P|381:309|448:306,2,140,2|2|2,0:0|0:0|0:0,0:0:0:0:
388,222,66273,1,0,0:0:0:0:
353,116,66648,1,2,0:0:0:0:
258,175,67023,86,0,P|223:177|189:166,1,70,0|2,0:0|0:0,0:0:0:0:
176,55,67585,2,0,P|204:34|238:27,1,70,2|0,0:0|0:0,0:0:0:0:
331,91,68148,1,2,0:0:0:0:
280,194,68523,86,0,L|276:264,1,70,0|2,0:0|0:0,0:0:0:0:
369,201,69086,2,0,L|365:271,1,70,2|0,0:0|0:0,0:0:0:0:
314,369,69648,1,2,0:0:0:0:
237,286,70023,22,0,P|208:265|174:258,1,70,0|2,0:0|0:0,0:0:0:0:
82,322,70586,1,2,0:0:0:0:
0,110,71336,54,0,P|42:130|108:74,1,140,2|0,0:0|0:0,0:0:0:0:
210,120,72086,2,0,L|279:115,1,70,2|0,0:0|0:0,0:0:0:0:
341,206,72648,1,2,0:0:0:0:
437,147,73023,1,2,0:0:0:0:
375,55,73398,1,0,0:0:0:0:
443,326,74336,86,0,L|374:331,1,70,2|0,0:0|0:0,0:0:0:0:
279,270,74898,2,0,P|235:320|171:302,1,140,2|2,0:0|0:0,0:0:0:0:
198,193,75648,1,2,0:0:0:0:
88,168,76023,1,2,0:0:0:0:
61,277,76398,1,2,0:0:0:0:
281,104,77336,22,0,L|286:173,1,70,2|0,0:0|0:0,0:0:0:0:
180,210,77898,2,0,P|115:192|72:242,1,140,2|2,0:0|0:0,0:0:0:0:
158,314,78648,1,2,0:0:0:0:
264,278,79023,1,2,0:0:0:0:
357,339,79398,1,2,0:0:0:0:
236,86,80336,54,0,L|225:236,1,140,2|0,0:0|0:0,0:0:0:0:
123,180,81086,2,0,L|117:105,1,70,2|0,0:0|0:0,0:0:0:0:
15,155,81648,1,2,2:0:0:0:
434,37,83336,54,0,P|454:79|406:152,1,140,2|0,0:0|0:0,0:0:0:0:
335,237,84086,2,0,P|290:234|250:156,1,140,2|0,0:0|0:0,0:0:0:0:
212,52,84836,1,2,0:0:0:0:
212,52,85023,2,0,P|238:15|326:20,1,140,2|0,0:0|0:0,0:0:0:0:
473,166,86336,86,0,P|423:213|397:277,1,140,2|0,0:0|0:0,0:0:0:0:
362,384,87086,2,0,P|312:337|286:273,1,140,2|0,0:0|0:0,0:0:0:0:
249,165,87836,1,2,0:0:0:0:
249,165,88023,2,0,P|199:213|173:277,1,140,2|0,0:0|0:0,0:0:0:0:
15,141,89336,22,0,P|41:104|129:109,1,140,2|0,0:0|0:0,0:0:0:0:
207,187,90086,1,2,0:0:0:0:
207,187,90273,1,0,0:0:0:0:
325,67,90835,1,2,0:0:0:0:
325,67,91023,2,0,P|299:30|211:35,1,140,2|0,0:0|0:0,0:0:0:0:
229,245,92336,38,0,B|198:230|198:230|187:236|187:236|93:227,2,140,6|0|6,0:0|0:0|0:0,0:0:0:0:
179,87,93836,1,2,0:0:0:0:
179,87,94023,2,0,B|320:72,1,140,2|2,0:0|0:0,0:0:0:0:
58,46,95336,54,0,L|49:117,2,70,6|2|8,0:0|0:2|0:0,0:0:0:0:
186,102,96086,2,0,L|194:32,2,70,0|2|10,0:0|0:0|0:0,0:0:0:0:
324,80,96836,22,0,P|358:133|365:212,1,140,2|10,0:0|0:0,0:0:0:0:
313,338,97586,1,2,0:0:0:0:
313,338,97773,1,2,0:2:0:0:
313,338,97961,1,8,0:0:0:0:
450,306,98336,6,0,P|484:253|491:174,1,140,2|10,0:0|0:0,0:0:0:0:
439,48,99086,1,2,0:0:0:0:
439,48,99273,1,2,0:2:0:0:
439,48,99461,1,10,0:0:0:0:
308,129,99836,21,2,0:0:0:0:
156,118,100211,1,2,0:0:0:0:
3,106,100586,1,2,0:0:0:0:
178,359,101336,38,0,L|107:368,2,70,2|2|8,0:0|0:2|0:0,0:0:0:0:
245,236,102086,2,0,L|316:245,2,70,0|2|10,0:0|0:0|0:0,0:0:0:0:
170,117,102836,22,0,P|218:72|291:67,1,140,2|10,0:0|0:0,0:0:0:0:
413,134,103586,1,2,0:0:0:0:
413,134,103773,1,2,0:2:0:0:
413,134,103961,1,8,0:0:0:0:
372,266,104336,6,0,P|323:310|250:315,1,140,2|10,0:0|0:0,0:0:0:0:
129,250,105086,1,2,0:0:0:0:
129,250,105273,1,2,0:2:0:0:
129,250,105461,1,10,0:0:0:0:
5,342,105836,5,6,0:0:0:0:
16,190,106211,1,6,0:0:0:0:
21,113,106398,1,2,0:2:0:0:
28,37,106586,1,6,0:0:0:0:
289,172,107336,54,0,L|280:101,2,70,2|2|8,0:0|0:2|0:0,0:0:0:0:
406,247,108086,2,0,L|477:238,2,70,0|2|10,0:0|0:0|0:0,0:0:0:0:
280,308,108836,22,0,P|210:302|151:266,1,140,2|10,0:0|0:0,0:0:0:0:
256,171,109586,1,2,0:0:0:0:
256,171,109773,1,2,0:2:0:0:
256,171,109961,1,8,0:0:0:0:
226,30,110336,6,0,P|295:35|354:71,1,140,2|10,0:0|0:0,0:0:0:0:
256,171,111086,1,2,0:0:0:0:
256,171,111273,1,2,0:2:0:0:
256,171,111461,1,10,0:0:0:0:
113,113,111836,21,2,0:0:0:0:
46,251,112211,1,2,0:0:0:0:
141,371,112586,1,2,0:0:0:0:
326,136,113336,38,0,L|317:207,2,70,2|2|8,0:0|0:2|0:0,0:0:0:0:
443,61,114086,2,0,L|514:70,2,70,0|2|10,0:0|0:0|0:0,0:0:0:0:
454,200,114836,22,0,P|489:259|495:328,1,140,2|10,0:0|0:0,0:0:0:0:
357,304,115586,1,2,0:0:0:0:
357,304,115773,1,2,0:2:0:0:
357,304,115961,1,8,0:0:0:0:
220,272,116336,6,0,P|184:212|178:143,1,140,2|10,0:0|0:0,0:0:0:0:
317,168,117086,1,2,0:0:0:0:
317,168,117273,1,2,0:2:0:0:
317,168,117461,1,10,0:0:0:0:
441,77,117836,5,6,0:0:0:0:
302,12,118211,1,6,0:0:0:0:
243,58,118398,1,2,0:2:0:0:
182,105,118586,1,6,0:0:0:0:
438,221,119711,38,0,P|383:259|386:326,1,140,2|2,0:0|0:0,0:0:0:0:
431,358,120273,1,2,0:0:0:0:
431,358,120461,1,0,0:0:0:0:
220,282,121211,54,0,L|78:301,1,140,2|2,0:0|0:0,0:0:0:0:
47,345,121773,1,2,0:0:0:0:
47,345,121961,1,0,0:0:0:0:
182,172,122711,54,0,P|127:133|130:66,1,140,2|2,0:0|0:0,0:0:0:0:
175,35,123273,1,2,0:0:0:0:
175,35,123461,1,0,0:0:0:0:
267,97,123836,86,0,P|270:62|286:31,2,70,0|2|2,0:0|0:0|0:0,0:0:0:0:
378,94,124586,1,2,0:0:0:0:
444,315,125711,22,0,P|405:260|338:263,1,140,2|2,0:0|0:0,0:0:0:0:
315,314,126273,1,2,0:0:0:0:
315,314,126461,1,0,0:0:0:0:
112,218,127210,54,0,L|131:76,1,140,2|2,0:0|0:0,0:0:0:0:
175,45,127772,1,2,0:0:0:0:
175,45,127960,1,0,0:0:0:0:
333,203,128711,54,0,P|371:148|438:151,1,140,2|2,0:0|0:0,0:0:0:0:
462,202,129273,1,2,0:0:0:0:
462,202,129461,1,0,0:0:0:0:
390,287,129836,86,0,P|374:317|370:352,2,70,0|2|2,0:0|0:0|0:0,0:0:0:0:
482,349,130586,1,2,0:0:0:0:
454,126,131336,38,0,L|445:55,2,70,2|2|2,0:0|2:2|0:0,0:0:0:0:
343,105,132086,2,0,L|351:175,2,70,2|2|2,0:0|2:0|0:0,0:0:0:0:
256,34,132836,6,0,L|185:43,2,70,2|2|2,0:0|2:2|0:0,0:0:0:0:
236,144,133586,2,0,L|166:152,2,70,2|2|2,0:0|2:0|0:0,0:0:0:0:
342,177,134336,6,0,P|378:226|378:305,1,140,2|2,0:0|0:0,0:0:0:0:
290,367,135086,1,2,0:0:0:0:
290,367,135273,1,2,2:0:0:0:
290,367,135461,1,2,0:0:0:0:
209,289,135836,37,2,0:0:0:0:
105,306,136211,1,2,0:0:0:0:
1,323,136586,1,2,0:0:0:0:
1,323,136773,1,2,2:0:0:0:
1,323,136961,1,2,0:0:0:0:
35,216,137336,38,0,L|26:145,2,70,2|2|2,0:0|2:2|0:0,0:0:0:0:
129,156,138086,2,0,L|137:225,2,70,2|2|2,0:0|2:2|0:0,0:0:0:0:
237,182,138836,22,0,P|286:146|365:146,1,140,2|2,0:0|0:0,0:0:0:0:
444,221,139586,2,0,L|435:290,1,70,2|2,0:0|2:2,0:0:0:0:
477,342,139961,1,2,0:0:0:0:
477,342,140148,1,2,2:0:0:0:
477,342,140336,6,0,P|428:378|349:378,1,140,2|2,0:0|0:0,0:0:0:0:
256,318,141086,1,2,0:0:0:0:
256,318,141273,1,2,2:0:0:0:
256,318,141461,1,2,0:0:0:0:
355,267,141836,5,2,0:0:0:0:
338,163,142211,1,2,0:0:0:0:
329,111,142398,1,2,2:2:0:0:
321,59,142586,1,2,0:0:0:0:
313,7,142773,1,2,2:0:0:0:
256,192,143336,12,6,144836,0:0:0:0:
126,245,145586,54,0,L|134:315,2,70,0|2|10,0:0|0:0|0:0,0:0:0:0:
237,160,146336,22,0,P|290:194|369:201,1,140,2|10,0:0|0:0,0:0:0:0:
495,149,147086,1,2,0:0:0:0:
495,149,147273,1,2,0:2:0:0:
495,149,147461,1,8,0:0:0:0:
463,285,147836,6,0,P|410:319|331:326,1,140,2|10,0:0|0:0,0:0:0:0:
205,274,148586,1,2,0:0:0:0:
205,274,148773,1,2,0:2:0:0:
205,274,148961,1,8,0:0:0:0:
75,356,149336,21,2,0:0:0:0:
87,203,149711,1,2,0:0:0:0:
98,51,150086,1,2,0:0:0:0:
391,165,150836,38,0,L|320:156,2,70,2|2|8,0:0|0:2|0:0,0:0:0:0:
466,282,151586,2,0,L|457:353,2,70,0|2|10,0:0|0:0|0:0,0:0:0:0:
332,325,152336,22,0,P|262:319|203:283,1,140,2|10,0:0|0:0,0:0:0:0:
180,144,153086,1,2,0:0:0:0:
180,144,153273,1,2,0:2:0:0:
180,144,153461,1,8,0:0:0:0:
281,47,153836,6,0,P|350:52|409:88,1,140,2|10,0:0|0:0,0:0:0:0:
433,228,154586,1,2,0:0:0:0:
433,228,154773,1,2,0:2:0:0:
433,228,154961,1,8,0:0:0:0:
304,143,155336,5,6,0:0:0:0:
153,154,155711,1,6,0:0:0:0:
76,160,155898,1,2,0:2:0:0:
0,166,156086,1,6,0:0:0:0:
224,352,156836,54,0,L|294:360,1,70,2|2,0:0|0:2,0:0:0:0:
362,370,157211,1,10,0:0:0:0:
281,255,157586,2,0,L|351:263,1,70,2|2,0:0|0:0,0:0:0:0:
419,273,157961,1,10,0:0:0:0:
509,166,158336,101,0,0:0:0:0:
422,55,158711,2,0,P|384:110|317:107,1,140,10|2,0:0|0:0,0:0:0:0:
285,62,159273,1,2,0:0:0:0:
285,62,159461,1,10,0:0:0:0:
189,164,159836,53,0,0:0:0:0:
65,98,160211,2,0,L|46:240,1,140,10|2,0:0|0:0,0:0:0:0:
6,271,160773,1,2,0:0:0:0:
6,271,160961,1,10,0:0:0:0:
132,358,161336,21,2,0:0:0:0:
283,340,161711,1,2,0:0:0:0:
435,321,162086,1,2,0:0:0:0:
336,29,162836,38,0,L|344:99,1,70,2|2,0:0|0:2,0:0:0:0:
354,167,163211,1,10,0:0:0:0:
239,86,163586,2,0,L|247:156,1,70,2|2,0:0|0:0,0:0:0:0:
257,224,163961,1,10,0:0:0:0:
147,311,164336,101,0,0:0:0:0:
274,368,164711,2,0,P|312:313|379:316,1,140,10|2,0:0|0:0,0:0:0:0:
411,361,165273,1,2,0:0:0:0:
411,361,165461,1,10,0:0:0:0:
510,262,165836,53,0,0:0:0:0:
416,157,166211,2,0,L|274:176,1,140,10|2,0:0|0:0,0:0:0:0:
243,220,166773,1,2,0:0:0:0:
243,220,166961,1,10,0:0:0:0:
306,79,167336,5,6,0:0:0:0:
154,68,167711,1,6,0:0:0:0:
77,61,167898,1,2,0:2:0:0:
2,56,168086,1,6,0:0:0:0:
256,192,168836,12,0,171836,2:0:0:0:
