osu file format v14

[General]
AudioFilename: audio.mp3
AudioLeadIn: 0
PreviewTime: 45789
Countdown: 0
SampleSet: Normal
StackLeniency: 0.7
Mode: 0
LetterboxInBreaks: 0
WidescreenStoryboard: 1

[Editor]
Bookmarks: 9836,21836,33836,45836,57836,71336,83336,95336,119336,131336,144836,156836,168836
DistanceSpacing: 1
BeatDivisor: 4
GridSize: 8
TimelineZoom: 1

[Metadata]
Title:Less Than Three (Ricardo Autobahn Remix)
TitleUnicode:Less Than Three (Ricardo Autobahn Remix)
Artist:Becky
ArtistUnicode:Becky
Creator:Sonnyc
Version:Easy
Source:osu!
Tags:<3 Best of Disko Warp ~Black Side~ featured artist mappers' guild Evaine english digital dance DanceDanceRevolution UNIVERSE3 richardo electronic
BeatmapID:2258751
BeatmapSetID:1078502

[Difficulty]
HPDrainRate:2
CircleSize:3
OverallDifficulty:2
ApproachRate:3
SliderMultiplier:1
SliderTickRate:0.5

[Events]
//Background and Video events
0,0,"bg.jpg",0,0
//Break Periods
//Storyboard Layer 0 (Background)
//Storyboard Layer 1 (Fail)
//Storyboard Layer 2 (Pass)
//Storyboard Layer 3 (Foreground)
//Storyboard Layer 4 (Overlay)
//Storyboard Sound Samples

[TimingPoints]
9836,375,4,1,1,70,1,0
169961,-100,4,1,1,30,0,0
171836,-100,4,1,1,5,0,0

[Colours]
Combo1 : 255,238,170
Combo2 : 0,255,128
Combo3 : 185,255,220
Combo4 : 128,128,255
Combo5 : 196,196,255
Combo6 : 255,0,128
Combo7 : 255,155,205
Combo8 : 255,128,64

[HitObjects]
49,217,9836,118,0,P|92:75|167:182,1,350,2|2,0:0|0:0,0:0:0:0:
62,349,12086,86,0,L|217:335,1,150,2|2,0:0|0:0,0:0:0:0:
49,217,13586,2,0,L|204:203,1,150,2|2,0:0|0:0,0:0:0:0:
353,268,15086,1,2,0:0:0:0:
467,155,15836,22,0,P|424:13|349:120,1,350,2|2,0:0|0:0,0:0:0:0:
156,66,18086,86,0,L|169:215,1,150,2|2,0:0|0:0,0:0:0:0:
21,80,19586,2,0,L|34:229,1,150,2|2,0:0|0:0,0:0:0:0:
121,372,21086,1,2,0:0:0:0:
270,314,21836,53,4,2:0:0:0:
270,314,23148,2,0,P|267:215|327:138,1,200,2|2,2:0|2:0,0:0:0:0:
459,182,26148,2,0,P|461:280|401:357,1,200,2|2,2:0|2:0,0:0:0:0:
78,208,29148,86,0,L|292:190,1,200,2|2,2:0|2:0,0:0:0:0:
363,78,30836,2,0,L|14:50,1,350,2|2,2:0|2:0,0:0:0:0:
92,235,33836,22,0,P|86:164|195:124,2,200,2|2|2,0:0|0:0|0:0,0:0:0:0:
304,77,36836,2,0,P|367:107|347:221,2,200,2|2|2,0:0|0:0|0:0,0:0:0:0:
334,340,39836,2,0,P|274:379|186:305,2,200,2|2|2,0:0|0:0|0:0,0:0:0:0:
86,87,42836,38,0,B|141:68|141:68|156:80|156:80|279:68,1,200,6|6,0:0|0:0,0:0:0:0:
394,230,44336,2,0,B|223:213,1,150,2|2,0:0|0:0,0:0:0:0:
92,17,45836,54,0,L|101:117,1,100,2|8,0:0|0:0,0:0:0:0:
28,185,46586,2,0,L|37:285,1,100,0|8,0:0|0:0,0:0:0:0:
115,346,47336,22,0,P|218:356|298:303,1,200,2|2,0:0|0:0,0:0:0:0:
256,109,48836,2,0,P|153:99|73:152,1,200,2|2,0:0|0:0,0:0:0:0:
204,301,50336,37,2,0:0:0:0:
204,301,51086,1,2,0:0:0:0:
119,119,51836,38,0,L|219:110,1,100,2|8,0:0|0:0,0:0:0:0:
287,183,52586,2,0,L|387:174,1,100,0|8,0:0|0:0,0:0:0:0:
455,101,53336,22,0,P|506:184|495:281,1,200,2|2,0:0|0:0,0:0:0:0:
315,371,54836,2,0,P|263:287|275:190,1,200,2|2,0:0|0:0,0:0:0:0:
90,266,56336,21,6,0:0:0:0:
80,166,56711,1,6,0:0:0:0:
70,66,57086,1,6,0:0:0:0:
458,189,59336,38,0,P|415:331|340:224,1,350,2|2,0:0|0:0,0:0:0:0:
172,332,61586,86,0,L|17:318,1,150,2|2,0:0|0:0,0:0:0:0:
190,210,63086,2,0,L|339:223,1,150,2|2,0:0|0:0,0:0:0:0:
509,242,64586,1,2,0:0:0:0:
378,149,65336,22,0,P|283:253|260:114,1,350,2|2,0:0|0:0,0:0:0:0:
77,196,67586,86,0,L|90:345,1,150,2|2,0:0|0:0,0:0:0:0:
207,183,69086,2,0,L|194:34,1,150,2|2,0:0|0:0,0:0:0:0:
351,96,70586,1,2,0:0:0:0:
316,252,71336,54,0,P|407:238|489:302,2,200,2|0|2,0:0|0:0|0:0,0:0:0:0:
173,106,74336,2,0,P|76:93|0:154,2,200,2|0|2,0:0|0:0|0:0,0:0:0:0:
122,316,77336,1,2,0:0:0:0:
254,226,78086,2,0,P|345:212|427:276,2,200
111,152,80336,53,2,0:0:0:0:
207,24,81086,2,0,L|359:33,1,150,2|2,0:0|2:0,0:0:0:0:
426,214,83336,54,0,P|432:285|323:325,2,200,2|2|2,0:0|0:0|0:0,0:0:0:0:
184,108,86336,2,0,P|269:71|331:141,2,200,2|2|2,0:0|0:0|0:0,0:0:0:0:
213,372,89336,2,0,P|138:317|168:229,2,200,2|2|2,0:0|0:0|0:0,0:0:0:0:
426,87,92336,38,0,B|371:68|371:68|356:80|356:80|233:68,1,200,6|6,0:0|0:0,0:0:0:0:
118,230,93836,2,0,B|289:213,1,150,2|2,0:0|0:0,0:0:0:0:
448,378,95336,54,0,L|439:278,1,100,6|8,0:0|0:0,0:0:0:0:
512,210,96086,2,0,L|503:110,1,100,0|8,0:0|0:0,0:0:0:0:
425,49,96836,22,0,P|322:39|242:92,1,200,2|2,0:0|0:0,0:0:0:0:
299,281,98336,2,0,P|402:291|482:238,1,200,2|2,0:0|0:0,0:0:0:0:
351,89,99836,37,2,0:0:0:0:
351,89,100586,1,2,0:0:0:0:
436,271,101336,38,0,L|336:280,1,100,2|8,0:0|0:0,0:0:0:0:
268,207,102086,2,0,L|168:216,1,100,0|8,0:0|0:0,0:0:0:0:
100,289,102836,22,0,P|49:206|60:109,1,200,2|2,0:0|0:0,0:0:0:0:
240,19,104336,2,0,P|292:103|280:200,1,200,2|2,0:0|0:0,0:0:0:0:
89,260,105836,21,6,0:0:0:0:
99,160,106211,1,6,0:0:0:0:
109,60,106586,1,6,0:0:0:0:
303,24,107336,54,0,L|403:33,1,100,2|8,0:0|0:0,0:0:0:0:
413,130,108086,2,0,L|422:230,1,100,0|8,0:0|0:0,0:0:0:0:
490,303,108836,22,0,P|406:355|309:343,1,200,2|2,0:0|0:0,0:0:0:0:
152,219,110336,2,0,P|140:121|192:38,1,200,2|2,0:0|0:0,0:0:0:0:
352,158,111836,37,2,0:0:0:0:
352,158,112586,1,2,0:0:0:0:
164,89,113336,38,0,L|155:189,1,100,2|8,0:0|0:0,0:0:0:0:
143,287,114086,2,0,L|243:278,1,100,0|8,0:0|0:0,0:0:0:0:
312,349,114836,22,0,P|363:265|352:168,1,200,2|2,0:0|0:0,0:0:0:0:
207,28,116336,2,0,P|109:16|25:67,1,200,2|2,0:0|0:0,0:0:0:0:
63,262,117836,21,6,0:0:0:0:
163,272,118211,1,6,0:0:0:0:
263,282,118586,1,6,0:0:0:0:
380,145,119711,38,0,P|344:64|298:125,1,200,2|2,0:0|0:0,0:0:0:0:
347,276,121211,2,0,P|288:335|264:255,1,200,2|2,0:0|0:0,0:0:0:0:
121,325,122711,54,0,L|95:21,1,300,2|2,0:0|0:0,0:0:0:0:
0,156,124586,1,2,0:0:0:0:
233,99,125711,54,0,P|152:135|213:181,1,200,2|2,0:0|0:0,0:0:0:0:
364,132,127211,2,0,P|423:190|343:214,1,200,2|2,0:0|0:0,0:0:0:0:
443,339,128711,54,0,L|139:365,1,300,2|2,0:0|0:0,0:0:0:0:
260,254,130586,1,2,0:0:0:0:
135,153,131336,70,0,L|126:53,2,100,2|0|0,0:0|0:0|0:0,0:0:0:0:
79,223,132461,1,0,0:0:0:0:
149,279,132836,2,0,L|158:379,2,100
305,312,134336,22,0,P|352:264|375:133,1,200,2|0,0:0|0:0,0:0:0:0:
253,33,135836,37,2,0:0:0:0:
253,33,136586,1,2,0:0:0:0:
322,176,137336,38,0,L|222:185,2,100
392,232,138461,1,0,0:0:0:0:
473,194,138836,22,0,P|490:283|322:341,1,300
242,379,140336,2,0,P|180:302|171:204,1,200,2|2,0:0|0:0,0:0:0:0:
256,68,141836,21,2,0:0:0:0:
345,60,142211,1,2,0:0:0:0:
434,52,142586,1,2,0:0:0:0:
112,303,144836,54,0,L|212:294,1,100,6|8,0:0|0:0,0:0:0:0:
310,282,145586,2,0,L|410:273,1,100,0|8,0:0|0:0,0:0:0:0:
480,202,146336,22,0,P|480:123|404:24,1,200,2|2,0:0|0:0,0:0:0:0:
223,99,147836,2,0,P|229:197|292:272,1,200,2|2,0:0|0:0,0:0:0:0:
423,121,149336,37,2,0:0:0:0:
423,121,150086,1,2,0:0:0:0:
254,12,150836,38,0,L|245:112,1,100,2|8,0:0|0:0,0:0:0:0:
233,210,151586,2,0,L|224:310,1,100,0|8,0:0|0:0,0:0:0:0:
140,364,152336,22,0,P|39:355|45:261,1,200,2|2,0:0|0:0,0:0:0:0:
230,235,153836,2,0,P|331:226|325:132,1,200,2|2,0:0|0:0,0:0:0:0:
171,71,155336,21,6,0:0:0:0:
161,171,155711,1,6,0:0:0:0:
151,271,156086,1,6,0:0:0:0:
308,147,156836,54,0,L|408:156,1,100,2|10,0:0|0:0,0:0:0:0:
417,255,157586,2,0,L|426:355,2,100,2|8|0,0:0|0:0|0:0,0:0:0:0:
478,175,158711,102,0,P|442:94|396:155,1,200,10|10,0:0|0:0,0:0:0:0:
314,100,159836,53,2,0:0:0:0:
215,107,160211,2,0,L|12:124,1,200,10|10,0:0|0:0,0:0:0:0:
48,218,161336,21,2,0:0:0:0:
48,218,162086,1,2,0:0:0:0:
215,107,162836,38,0,L|224:207,1,100,2|10,0:0|0:0,0:0:0:0:
236,305,163586,2,0,L|136:296,2,100,2|8|0,0:0|0:0|0:0,0:0:0:0:
315,368,164711,102,0,P|396:332|335:286,1,200,10|10,0:0|0:0,0:0:0:0:
236,305,165836,53,2,0:0:0:0:
245,205,166211,2,0,L|262:2,1,200,10|10,0:0|0:0,0:0:0:0:
356,39,167336,5,6,0:0:0:0:
366,139,167711,1,6,0:0:0:0:
376,239,168086,1,6,0:0:0:0:
256,192,168836,12,0,171836,2:0:0:0:
