osu file format v14

[General]
AudioFilename: audio.mp3
AudioLeadIn: 0
PreviewTime: 24383
Countdown: 0
SampleSet: Normal
StackLeniency: 0.7
Mode: 1
LetterboxInBreaks: 0
WidescreenStoryboard: 1

[Editor]
Bookmarks: 24383,69641,114898
DistanceSpacing: 0.9
BeatDivisor: 4
GridSize: 32
TimelineZoom: 1.2

[Metadata]
Title:I Wanna Be A Ninja
TitleUnicode:I Wanna Be A Ninja
Artist:Becky
ArtistUnicode:Becky
Creator:[R]
Version:Muzukashii
Source:osu!
Tags:ron radio gosha Best of Disko Warp ~Black Side~ digital dance featured artist fa english electronic mappers guild mg
BeatmapID:2198319
BeatmapSetID:1051314

[Difficulty]
HPDrainRate:5
CircleSize:5
OverallDifficulty:4
ApproachRate:5
SliderMultiplier:1.4
SliderTickRate:1

[Events]
//Background and Video events
0,0,"BG.jpg",0,-30
//Break Periods
//Storyboard Layer 0 (Background)
//Storyboard Layer 1 (Fail)
//Storyboard Layer 2 (Pass)
//Storyboard Layer 3 (Foreground)
//Storyboard Layer 4 (Overlay)
//Storyboard Sound Samples

[TimingPoints]
2441,342.857142857143,4,1,0,70,1,0
58669,-100,4,1,0,70,0,1
69641,-100,4,1,0,70,0,0
105298,-100,4,1,0,70,0,1
114898,-100,4,1,0,70,0,0
171126,-100,4,1,0,70,0,1
182098,-100,4,1,0,70,0,0

[HitObjects]
256,192,2440,5,4,0:0:0:0:
256,192,2783,1,8,0:0:0:0:
256,192,3469,1,8,0:0:0:0:
256,192,3812,1,0,0:0:0:0:
256,192,4155,1,8,0:0:0:0:
256,192,4841,1,8,0:0:0:0:
256,192,5183,1,8,0:0:0:0:
256,192,5526,1,8,0:0:0:0:
256,192,5869,1,8,0:0:0:0:
256,192,6041,1,8,0:0:0:0:
256,192,6212,1,8,0:0:0:0:
256,192,6555,1,8,0:0:0:0:
256,192,6726,1,8,0:0:0:0:
256,192,6898,1,8,0:0:0:0:
256,192,7069,1,8,0:0:0:0:
256,192,7412,1,8,0:0:0:0:
256,192,7583,1,8,0:0:0:0:
256,192,7926,1,4,0:0:0:0:
256,192,8269,1,8,0:0:0:0:
256,192,8955,1,8,0:0:0:0:
256,192,9298,1,0,0:0:0:0:
256,192,9641,1,8,0:0:0:0:
256,192,10326,1,8,0:0:0:0:
256,192,10669,1,8,0:0:0:0:
256,192,11012,1,8,0:0:0:0:
256,192,11355,1,8,0:0:0:0:
256,192,11526,1,8,0:0:0:0:
256,192,11698,1,8,0:0:0:0:
256,192,12041,1,12,0:0:0:0:
256,192,12212,1,12,0:0:0:0:
256,192,12383,1,12,0:0:0:0:
256,192,12726,1,0,0:0:0:0:
256,192,13069,1,8,0:0:0:0:
256,192,13412,1,4,0:0:0:0:
256,192,13755,1,8,0:0:0:0:
256,192,14098,1,0,0:0:0:0:
256,192,14441,1,8,0:0:0:0:
256,192,14783,1,8,0:0:0:0:
256,192,15126,1,0,0:0:0:0:
256,192,15469,1,8,0:0:0:0:
256,192,16155,1,8,0:0:0:0:
256,192,16498,1,8,0:0:0:0:
256,192,16841,1,8,0:0:0:0:
256,192,17012,1,8,0:0:0:0:
256,192,17183,1,8,0:0:0:0:
256,192,17526,1,8,0:0:0:0:
256,192,17698,1,8,0:0:0:0:
256,192,17869,1,8,0:0:0:0:
256,192,18041,1,8,0:0:0:0:
256,192,18383,1,8,0:0:0:0:
256,192,18555,1,8,0:0:0:0:
256,192,18898,1,0,0:0:0:0:
256,192,19241,1,8,0:0:0:0:
256,192,19583,1,0,0:0:0:0:
256,192,19926,1,8,0:0:0:0:
256,192,20269,1,8,0:0:0:0:
256,192,20612,1,0,0:0:0:0:
256,192,20955,1,8,0:0:0:0:
256,192,21641,1,8,0:0:0:0:
256,192,21983,1,8,0:0:0:0:
256,192,22326,1,8,0:0:0:0:
256,192,22498,1,8,0:0:0:0:
256,192,22669,1,8,0:0:0:0:
256,192,23012,1,12,0:0:0:0:
256,192,23698,1,0,0:0:0:0:
256,192,24041,1,0,0:0:0:0:
256,192,24212,1,0,0:0:0:0:
256,192,24383,1,0,0:0:0:0:
256,192,24469,1,0,0:0:0:0:
256,192,24555,1,0,0:0:0:0:
256,192,24726,1,8,0:0:0:0:
256,192,25069,1,0,0:0:0:0:
256,192,25241,1,0,0:0:0:0:
256,192,25412,1,8,0:0:0:0:
256,192,25755,1,8,0:0:0:0:
256,192,25841,1,8,0:0:0:0:
256,192,25926,1,8,0:0:0:0:
256,192,26098,1,0,0:0:0:0:
256,192,26441,1,8,0:0:0:0:
256,192,26612,1,8,0:0:0:0:
256,192,26783,1,0,0:0:0:0:
256,192,26955,1,8,0:0:0:0:
256,192,27126,1,0,0:0:0:0:
256,192,27469,1,8,0:0:0:0:
256,192,27983,1,0,0:0:0:0:
256,192,28155,1,8,0:0:0:0:
256,192,28498,1,0,0:0:0:0:
256,192,28841,1,8,0:0:0:0:
256,192,29355,1,0,0:0:0:0:
256,192,29526,1,8,0:0:0:0:
256,192,29698,1,0,0:0:0:0:
256,192,29869,1,0,0:0:0:0:
256,192,29955,1,0,0:0:0:0:
256,192,30041,1,0,0:0:0:0:
256,192,30212,1,8,0:0:0:0:
256,192,30555,1,0,0:0:0:0:
256,192,30726,1,8,0:0:0:0:
256,192,30898,1,0,0:0:0:0:
256,192,31241,1,8,0:0:0:0:
256,192,31326,1,8,0:0:0:0:
256,192,31412,1,8,0:0:0:0:
256,192,31583,1,0,0:0:0:0:
256,192,31926,1,8,0:0:0:0:
256,192,32098,1,0,0:0:0:0:
256,192,32269,1,8,0:0:0:0:
256,192,32441,1,8,0:0:0:0:
256,192,32612,1,0,0:0:0:0:
256,192,32955,1,8,0:0:0:0:
256,192,33469,1,0,0:0:0:0:
256,192,33641,1,8,0:0:0:0:
256,192,33983,1,4,0:0:0:0:
256,192,34241,1,4,0:0:0:0:
256,192,34498,1,12,0:0:0:0:
256,192,34755,1,12,0:0:0:0:
256,192,35012,1,12,0:0:0:0:
256,192,35183,1,4,0:0:0:0:
256,192,35526,1,8,0:0:0:0:
256,192,35698,1,8,0:0:0:0:
256,192,35869,1,0,0:0:0:0:
256,192,36041,1,0,0:0:0:0:
256,192,36126,1,0,0:0:0:0:
256,192,36212,1,0,0:0:0:0:
256,192,36383,1,8,0:0:0:0:
256,192,36726,1,4,0:0:0:0:
256,192,37069,1,8,0:0:0:0:
256,192,37755,1,8,0:0:0:0:
256,192,38098,1,0,0:0:0:0:
256,192,38441,1,8,0:0:0:0:
256,192,38783,1,0,0:0:0:0:
256,192,39126,1,8,0:0:0:0:
256,192,39298,1,0,0:0:0:0:
256,192,39641,1,0,0:0:0:0:
256,192,39812,1,8,0:0:0:0:
256,192,39983,1,8,0:0:0:0:
256,192,40155,1,0,0:0:0:0:
256,192,40326,1,8,0:0:0:0:
256,192,40669,1,8,0:0:0:0:
256,192,40841,1,4,0:0:0:0:
256,192,41012,1,8,0:0:0:0:
256,192,41183,1,8,0:0:0:0:
256,192,41355,1,8,0:0:0:0:
256,192,41698,1,8,0:0:0:0:
256,192,41869,1,8,0:0:0:0:
256,192,42212,1,0,0:0:0:0:
256,192,42555,1,8,0:0:0:0:
256,192,43241,1,8,0:0:0:0:
256,192,43583,1,0,0:0:0:0:
256,192,43755,1,0,0:0:0:0:
256,192,43926,1,8,0:0:0:0:
256,192,44269,1,0,0:0:0:0:
256,192,44612,1,8,0:0:0:0:
256,192,44783,1,0,0:0:0:0:
256,192,45126,1,0,0:0:0:0:
256,192,45298,1,8,0:0:0:0:
256,192,45469,1,8,0:0:0:0:
256,192,45641,1,0,0:0:0:0:
256,192,45812,1,8,0:0:0:0:
256,192,46155,1,0,0:0:0:0:
256,192,46326,1,12,0:0:0:0:
256,192,46498,1,12,0:0:0:0:
256,192,46669,1,12,0:0:0:0:
256,192,46841,1,0,0:0:0:0:
256,192,47183,1,8,0:0:0:0:
256,192,47355,1,8,0:0:0:0:
256,192,47698,1,4,0:0:0:0:
256,192,48041,1,0,0:0:0:0:
256,192,48212,1,0,0:0:0:0:
256,192,48383,1,8,0:0:0:0:
256,192,48726,1,0,0:0:0:0:
256,192,49241,1,0,0:0:0:0:
256,192,49412,1,8,0:0:0:0:
256,192,49498,1,8,0:0:0:0:
256,192,49583,1,8,0:0:0:0:
256,192,49755,1,8,0:0:0:0:
256,192,50098,1,0,0:0:0:0:
256,192,50269,1,8,0:0:0:0:
256,192,50441,1,0,0:0:0:0:
256,192,50783,1,0,0:0:0:0:
256,192,50955,1,0,0:0:0:0:
256,192,51126,1,8,0:0:0:0:
256,192,51469,1,0,0:0:0:0:
256,192,51983,1,0,0:0:0:0:
256,192,52155,1,8,0:0:0:0:
256,192,52241,1,8,0:0:0:0:
256,192,52326,1,8,0:0:0:0:
256,192,52498,1,0,0:0:0:0:
256,192,52669,1,0,0:0:0:0:
256,192,52841,1,8,0:0:0:0:
256,192,53183,1,0,0:0:0:0:
256,192,53526,1,0,0:0:0:0:
256,192,53698,1,0,0:0:0:0:
256,192,53869,1,8,0:0:0:0:
256,192,54212,1,0,0:0:0:0:
256,192,54555,1,12,0:0:0:0:
256,192,55069,1,12,0:0:0:0:
256,192,55583,1,0,0:0:0:0:
256,192,55926,1,0,0:0:0:0:
256,192,56098,1,8,0:0:0:0:
256,192,56269,1,0,0:0:0:0:
256,192,56612,1,8,0:0:0:0:
256,192,56955,1,8,0:0:0:0:
256,192,57126,1,8,0:0:0:0:
256,192,57298,1,0,0:0:0:0:
256,192,57383,1,0,0:0:0:0:
256,192,57555,1,8,0:0:0:0:
256,192,57641,1,8,0:0:0:0:
256,192,57812,1,0,0:0:0:0:
256,192,57983,1,8,0:0:0:0:
256,192,58326,1,8,0:0:0:0:
256,192,58498,1,8,0:0:0:0:
256,192,58669,1,4,0:0:0:0:
256,192,59012,1,12,0:0:0:0:
256,192,59526,1,8,0:0:0:0:
256,192,59698,1,0,0:0:0:0:
256,192,59869,1,0,0:0:0:0:
256,192,60041,1,0,0:0:0:0:
256,192,60212,1,8,0:0:0:0:
256,192,60555,1,8,0:0:0:0:
256,192,60726,1,0,0:0:0:0:
256,192,60898,1,8,0:0:0:0:
256,192,60983,1,8,0:0:0:0:
256,192,61069,1,8,0:0:0:0:
256,192,61241,1,0,0:0:0:0:
256,192,61412,1,0,0:0:0:0:
256,192,61755,1,0,0:0:0:0:
256,192,62097,1,8,0:0:0:0:
256,192,62269,1,0,0:0:0:0:
256,192,62612,1,0,0:0:0:0:
256,192,62783,1,8,0:0:0:0:
256,192,62955,1,0,0:0:0:0:
256,192,63126,1,8,0:0:0:0:
256,192,63298,1,0,0:0:0:0:
256,192,63641,1,8,0:0:0:0:
256,192,63726,1,8,0:0:0:0:
256,192,63812,1,8,0:0:0:0:
256,192,63983,1,8,0:0:0:0:
256,192,64155,1,4,0:0:0:0:
256,192,64498,1,12,0:0:0:0:
256,192,65012,1,8,0:0:0:0:
256,192,65183,1,0,0:0:0:0:
256,192,65355,1,0,0:0:0:0:
256,192,65526,1,0,0:0:0:0:
256,192,65698,1,8,0:0:0:0:
256,192,66041,1,8,0:0:0:0:
256,192,66212,1,0,0:0:0:0:
256,192,66383,1,8,0:0:0:0:
256,192,66469,1,8,0:0:0:0:
256,192,66555,1,8,0:0:0:0:
256,192,66726,1,0,0:0:0:0:
256,192,66898,1,0,0:0:0:0:
256,192,67241,1,8,0:0:0:0:
256,192,67583,1,8,0:0:0:0:
256,192,67755,1,0,0:0:0:0:
256,192,67926,1,0,0:0:0:0:
256,192,68098,1,8,0:0:0:0:
256,192,68441,1,12,0:0:0:0:
256,192,68612,1,12,0:0:0:0:
256,192,68783,1,12,0:0:0:0:
256,192,69126,1,0,0:0:0:0:
256,192,69298,1,8,0:0:0:0:
256,192,69469,1,0,0:0:0:0:
256,192,69641,1,0,0:0:0:0:
256,192,69727,1,0,0:0:0:0:
256,192,69813,1,0,0:0:0:0:
256,192,69984,1,8,0:0:0:0:
256,192,70327,1,0,0:0:0:0:
256,192,70499,1,0,0:0:0:0:
256,192,70670,1,8,0:0:0:0:
256,192,71013,1,8,0:0:0:0:
256,192,71099,1,8,0:0:0:0:
256,192,71184,1,8,0:0:0:0:
256,192,71356,1,0,0:0:0:0:
256,192,71699,1,8,0:0:0:0:
256,192,71870,1,8,0:0:0:0:
256,192,72041,1,0,0:0:0:0:
256,192,72213,1,8,0:0:0:0:
256,192,72384,1,0,0:0:0:0:
256,192,72727,1,8,0:0:0:0:
256,192,73241,1,0,0:0:0:0:
256,192,73413,1,8,0:0:0:0:
256,192,73756,1,0,0:0:0:0:
256,192,74099,1,8,0:0:0:0:
256,192,74613,1,0,0:0:0:0:
256,192,74784,1,8,0:0:0:0:
256,192,74956,1,0,0:0:0:0:
256,192,75127,1,0,0:0:0:0:
256,192,75213,1,0,0:0:0:0:
256,192,75299,1,0,0:0:0:0:
256,192,75470,1,8,0:0:0:0:
256,192,75813,1,0,0:0:0:0:
256,192,75984,1,8,0:0:0:0:
256,192,76156,1,0,0:0:0:0:
256,192,76499,1,8,0:0:0:0:
256,192,76584,1,8,0:0:0:0:
256,192,76670,1,8,0:0:0:0:
256,192,76841,1,0,0:0:0:0:
256,192,77184,1,8,0:0:0:0:
256,192,77356,1,0,0:0:0:0:
256,192,77527,1,8,0:0:0:0:
256,192,77699,1,8,0:0:0:0:
256,192,77870,1,0,0:0:0:0:
256,192,78213,1,8,0:0:0:0:
256,192,78727,1,0,0:0:0:0:
256,192,78899,1,8,0:0:0:0:
256,192,79241,1,4,0:0:0:0:
256,192,79499,1,4,0:0:0:0:
256,192,79756,1,12,0:0:0:0:
256,192,80012,1,12,0:0:0:0:
256,192,80270,1,12,0:0:0:0:
256,192,80441,1,4,0:0:0:0:
256,192,80783,1,8,0:0:0:0:
256,192,80955,1,8,0:0:0:0:
256,192,81126,1,0,0:0:0:0:
256,192,81298,1,0,0:0:0:0:
256,192,81383,1,0,0:0:0:0:
256,192,81469,1,0,0:0:0:0:
256,192,81641,1,8,0:0:0:0:
256,192,81984,1,4,0:0:0:0:
256,192,82327,1,8,0:0:0:0:
256,192,83012,1,8,0:0:0:0:
256,192,83356,1,0,0:0:0:0:
256,192,83699,1,8,0:0:0:0:
256,192,84041,1,0,0:0:0:0:
256,192,84384,1,8,0:0:0:0:
256,192,84556,1,0,0:0:0:0:
256,192,84899,1,0,0:0:0:0:
256,192,85070,1,8,0:0:0:0:
256,192,85241,1,8,0:0:0:0:
256,192,85413,1,0,0:0:0:0:
256,192,85584,1,8,0:0:0:0:
256,192,85927,1,8,0:0:0:0:
256,192,86099,1,4,0:0:0:0:
256,192,86270,1,8,0:0:0:0:
256,192,86441,1,8,0:0:0:0:
256,192,86613,1,8,0:0:0:0:
256,192,86956,1,8,0:0:0:0:
256,192,87127,1,8,0:0:0:0:
256,192,87470,1,0,0:0:0:0:
256,192,87813,1,8,0:0:0:0:
256,192,88499,1,8,0:0:0:0:
256,192,88841,1,0,0:0:0:0:
256,192,89013,1,0,0:0:0:0:
256,192,89184,1,8,0:0:0:0:
256,192,89527,1,0,0:0:0:0:
256,192,89870,1,8,0:0:0:0:
256,192,90213,1,4,0:0:0:0:
256,192,91755,8,0,92612,0:0:0:0:
256,192,92956,5,4,0:0:0:0:
256,192,93299,1,0,0:0:0:0:
256,192,93470,1,0,0:0:0:0:
256,192,93641,1,8,0:0:0:0:
256,192,93984,1,0,0:0:0:0:
256,192,94499,1,0,0:0:0:0:
256,192,94670,1,8,0:0:0:0:
256,192,94756,1,8,0:0:0:0:
256,192,94841,1,8,0:0:0:0:
256,192,95013,1,8,0:0:0:0:
256,192,95356,1,0,0:0:0:0:
256,192,95527,1,8,0:0:0:0:
256,192,95699,1,0,0:0:0:0:
256,192,96041,1,0,0:0:0:0:
256,192,96213,1,0,0:0:0:0:
256,192,96384,1,8,0:0:0:0:
256,192,96727,1,0,0:0:0:0:
256,192,97241,1,0,0:0:0:0:
256,192,97413,1,8,0:0:0:0:
256,192,97499,1,8,0:0:0:0:
256,192,97584,1,8,0:0:0:0:
256,192,97756,1,0,0:0:0:0:
256,192,97927,1,0,0:0:0:0:
256,192,98099,1,8,0:0:0:0:
256,192,98441,1,0,0:0:0:0:
256,192,98784,1,0,0:0:0:0:
256,192,98956,1,0,0:0:0:0:
256,192,99127,1,8,0:0:0:0:
256,192,99470,1,0,0:0:0:0:
256,192,99813,1,12,0:0:0:0:
256,192,100327,1,12,0:0:0:0:
256,192,100841,1,0,0:0:0:0:
256,192,101184,1,0,0:0:0:0:
256,192,101356,1,8,0:0:0:0:
256,192,101527,1,0,0:0:0:0:
256,192,101870,1,8,0:0:0:0:
256,192,102213,1,8,0:0:0:0:
256,192,102384,1,8,0:0:0:0:
256,192,102556,1,0,0:0:0:0:
256,192,102641,1,0,0:0:0:0:
256,192,102813,1,8,0:0:0:0:
256,192,102899,1,8,0:0:0:0:
256,192,103070,1,0,0:0:0:0:
256,192,103241,1,8,0:0:0:0:
256,192,103584,1,8,0:0:0:0:
256,192,103756,1,8,0:0:0:0:
256,192,103927,1,0,0:0:0:0:
256,192,104270,1,8,0:0:0:0:
256,192,104783,1,8,0:0:0:0:
256,192,104956,1,8,0:0:0:0:
256,192,105126,1,8,0:0:0:0:
256,192,105299,1,4,0:0:0:0:
256,192,105469,1,8,0:0:0:0:
256,192,105813,1,8,0:0:0:0:
256,192,105984,1,0,0:0:0:0:
256,192,106156,1,8,0:0:0:0:
256,192,106241,1,8,0:0:0:0:
256,192,106327,1,8,0:0:0:0:
256,192,106499,1,0,0:0:0:0:
256,192,106670,1,0,0:0:0:0:
256,192,107013,1,0,0:0:0:0:
256,192,107355,1,8,0:0:0:0:
256,192,107527,1,0,0:0:0:0:
256,192,107870,1,0,0:0:0:0:
256,192,108041,1,8,0:0:0:0:
256,192,108213,1,0,0:0:0:0:
256,192,108384,1,8,0:0:0:0:
256,192,108556,1,0,0:0:0:0:
256,192,108899,1,8,0:0:0:0:
256,192,108984,1,8,0:0:0:0:
256,192,109070,1,8,0:0:0:0:
256,192,109241,1,8,0:0:0:0:
256,192,109413,1,4,0:0:0:0:
256,192,109756,1,12,0:0:0:0:
256,192,110270,1,8,0:0:0:0:
256,192,110441,1,0,0:0:0:0:
256,192,110613,1,0,0:0:0:0:
256,192,110784,1,0,0:0:0:0:
256,192,110956,1,8,0:0:0:0:
256,192,111299,1,8,0:0:0:0:
256,192,111470,1,0,0:0:0:0:
256,192,111641,1,8,0:0:0:0:
256,192,111727,1,8,0:0:0:0:
256,192,111813,1,8,0:0:0:0:
256,192,111984,1,0,0:0:0:0:
256,192,112156,1,0,0:0:0:0:
256,192,112499,1,8,0:0:0:0:
256,192,112841,1,8,0:0:0:0:
256,192,113013,1,0,0:0:0:0:
256,192,113184,1,0,0:0:0:0:
256,192,113355,1,8,0:0:0:0:
256,192,113699,1,12,0:0:0:0:
256,192,113870,1,12,0:0:0:0:
256,192,114041,1,12,0:0:0:0:
256,192,114384,1,0,0:0:0:0:
256,192,114556,1,8,0:0:0:0:
256,192,114727,1,0,0:0:0:0:
256,192,114898,1,0,0:0:0:0:
256,192,114984,1,0,0:0:0:0:
256,192,115070,1,0,0:0:0:0:
256,192,115241,1,8,0:0:0:0:
256,192,115584,1,0,0:0:0:0:
256,192,115756,1,0,0:0:0:0:
256,192,115927,1,8,0:0:0:0:
256,192,116270,1,8,0:0:0:0:
256,192,116356,1,8,0:0:0:0:
256,192,116441,1,8,0:0:0:0:
256,192,116613,1,0,0:0:0:0:
256,192,116956,1,8,0:0:0:0:
256,192,117127,1,8,0:0:0:0:
256,192,117298,1,0,0:0:0:0:
256,192,117470,1,8,0:0:0:0:
256,192,117641,1,0,0:0:0:0:
256,192,117984,1,8,0:0:0:0:
256,192,118498,1,0,0:0:0:0:
256,192,118670,1,8,0:0:0:0:
256,192,119013,1,0,0:0:0:0:
256,192,119356,1,8,0:0:0:0:
256,192,119870,1,0,0:0:0:0:
256,192,120041,1,8,0:0:0:0:
256,192,120213,1,0,0:0:0:0:
256,192,120384,1,0,0:0:0:0:
256,192,120470,1,0,0:0:0:0:
256,192,120556,1,0,0:0:0:0:
256,192,120727,1,8,0:0:0:0:
256,192,121070,1,0,0:0:0:0:
256,192,121241,1,8,0:0:0:0:
256,192,121413,1,0,0:0:0:0:
256,192,121756,1,8,0:0:0:0:
256,192,121841,1,8,0:0:0:0:
256,192,121927,1,8,0:0:0:0:
256,192,122098,1,0,0:0:0:0:
256,192,122441,1,8,0:0:0:0:
256,192,122613,1,0,0:0:0:0:
256,192,122784,1,8,0:0:0:0:
256,192,122956,1,8,0:0:0:0:
256,192,123127,1,0,0:0:0:0:
256,192,123470,1,8,0:0:0:0:
256,192,123984,1,0,0:0:0:0:
256,192,124156,1,8,0:0:0:0:
256,192,124498,1,4,0:0:0:0:
256,192,124756,1,4,0:0:0:0:
256,192,125013,1,12,0:0:0:0:
256,192,125269,1,12,0:0:0:0:
256,192,125527,1,12,0:0:0:0:
256,192,125869,1,4,0:0:0:0:
256,192,126041,1,8,0:0:0:0:
256,192,126126,1,8,0:0:0:0:
256,192,126212,1,8,0:0:0:0:
256,192,126555,1,8,0:0:0:0:
256,192,126727,1,0,0:0:0:0:
256,192,126898,1,8,0:0:0:0:
256,192,127241,1,8,0:0:0:0:
256,192,127412,1,0,0:0:0:0:
256,192,127498,1,0,0:0:0:0:
256,192,127584,1,0,0:0:0:0:
256,192,127927,1,8,0:0:0:0:
256,192,128098,1,0,0:0:0:0:
256,192,128269,1,0,0:0:0:0:
256,192,128441,1,8,0:0:0:0:
256,192,128612,1,0,0:0:0:0:
256,192,128955,1,8,0:0:0:0:
256,192,129469,1,0,0:0:0:0:
256,192,129641,1,8,0:0:0:0:
256,192,129984,1,0,0:0:0:0:
256,192,130327,1,8,0:0:0:0:
256,192,130841,1,0,0:0:0:0:
256,192,131012,1,8,0:0:0:0:
256,192,131355,1,4,0:0:0:0:
256,192,131527,1,8,0:0:0:0:
256,192,131612,1,8,0:0:0:0:
256,192,131698,1,8,0:0:0:0:
256,192,132041,1,8,0:0:0:0:
256,192,132212,1,8,0:0:0:0:
256,192,132384,1,0,0:0:0:0:
256,192,132727,1,8,0:0:0:0:
256,192,132898,1,0,0:0:0:0:
256,192,132983,1,0,0:0:0:0:
256,192,133069,1,0,0:0:0:0:
256,192,133412,1,8,0:0:0:0:
256,192,133584,1,0,0:0:0:0:
256,192,133755,1,0,0:0:0:0:
256,192,133927,1,8,0:0:0:0:
256,192,134098,1,0,0:0:0:0:
256,192,134269,1,0,0:0:0:0:
256,192,134441,1,8,0:0:0:0:
256,192,134783,1,0,0:0:0:0:
256,192,135127,1,8,0:0:0:0:
256,192,135469,1,4,0:0:0:0:
256,192,135727,1,4,0:0:0:0:
256,192,135984,1,12,0:0:0:0:
256,192,136241,1,12,0:0:0:0:
256,192,136498,1,12,0:0:0:0:
256,192,136669,1,4,0:0:0:0:
256,192,136841,1,4,0:0:0:0:
256,192,137012,8,0,138041,0:0:0:0:
256,192,138212,5,4,0:0:0:0:
256,192,138555,1,8,0:0:0:0:
256,192,138898,1,0,0:0:0:0:
256,192,139241,1,8,0:0:0:0:
256,192,139583,1,8,0:0:0:0:
256,192,139926,1,0,0:0:0:0:
256,192,140269,1,8,0:0:0:0:
256,192,140955,1,0,0:0:0:0:
256,192,141298,1,8,0:0:0:0:
256,192,141641,1,8,0:0:0:0:
256,192,141812,1,8,0:0:0:0:
256,192,141983,1,8,0:0:0:0:
256,192,142326,1,8,0:0:0:0:
256,192,142498,1,8,0:0:0:0:
256,192,142669,1,8,0:0:0:0:
256,192,142841,1,8,0:0:0:0:
256,192,143183,1,8,0:0:0:0:
256,192,143355,1,8,0:0:0:0:
256,192,143698,1,0,0:0:0:0:
256,192,144041,1,8,0:0:0:0:
256,192,144383,1,0,0:0:0:0:
256,192,144726,1,8,0:0:0:0:
256,192,145069,1,8,0:0:0:0:
256,192,145412,1,0,0:0:0:0:
256,192,145755,1,8,0:0:0:0:
256,192,146441,1,0,0:0:0:0:
256,192,146783,1,8,0:0:0:0:
256,192,147126,1,8,0:0:0:0:
256,192,147298,1,8,0:0:0:0:
256,192,147469,1,8,0:0:0:0:
256,192,147812,1,12,0:0:0:0:
256,192,148498,1,0,0:0:0:0:
256,192,148841,1,0,0:0:0:0:
256,192,149012,1,0,0:0:0:0:
256,192,149183,1,4,0:0:0:0:
256,192,149526,1,8,0:0:0:0:
256,192,149869,1,0,0:0:0:0:
256,192,150041,1,0,0:0:0:0:
256,192,150212,1,8,0:0:0:0:
256,192,150383,1,0,0:0:0:0:
256,192,150555,1,8,0:0:0:0:
256,192,150898,1,0,0:0:0:0:
256,192,151241,1,8,0:0:0:0:
256,192,151412,1,8,0:0:0:0:
256,192,151583,1,0,0:0:0:0:
256,192,151755,1,8,0:0:0:0:
256,192,151926,1,0,0:0:0:0:
256,192,152269,1,8,0:0:0:0:
256,192,152612,1,0,0:0:0:0:
256,192,152783,1,8,0:0:0:0:
256,192,153126,1,8,0:0:0:0:
256,192,153298,1,4,0:0:0:0:
256,192,153641,1,8,0:0:0:0:
256,192,154155,1,8,0:0:0:0:
256,192,154326,1,0,0:0:0:0:
256,192,154669,1,8,0:0:0:0:
256,192,155012,1,0,0:0:0:0:
256,192,155355,1,8,0:0:0:0:
256,192,155526,1,0,0:0:0:0:
256,192,155698,1,0,0:0:0:0:
256,192,155869,1,8,0:0:0:0:
256,192,156041,1,0,0:0:0:0:
256,192,156383,1,8,0:0:0:0:
256,192,156726,1,0,0:0:0:0:
256,192,156898,1,8,0:0:0:0:
256,192,157069,1,8,0:0:0:0:
256,192,157241,1,0,0:0:0:0:
256,192,157412,1,8,0:0:0:0:
256,192,157755,1,0,0:0:0:0:
256,192,158098,1,8,0:0:0:0:
256,192,158269,1,0,0:0:0:0:
256,192,158612,1,0,0:0:0:0:
256,192,158783,1,12,0:0:0:0:
256,192,158955,1,12,0:0:0:0:
256,192,159126,1,12,0:0:0:0:
256,192,159298,1,0,0:0:0:0:
256,192,159641,1,8,0:0:0:0:
256,192,159812,1,8,0:0:0:0:
256,192,160155,1,4,0:0:0:0:
256,192,160498,1,0,0:0:0:0:
256,192,160669,1,0,0:0:0:0:
256,192,160840,1,8,0:0:0:0:
256,192,161183,1,0,0:0:0:0:
256,192,161698,1,0,0:0:0:0:
256,192,161869,1,8,0:0:0:0:
256,192,161955,1,8,0:0:0:0:
256,192,162040,1,8,0:0:0:0:
256,192,162212,1,8,0:0:0:0:
256,192,162555,1,0,0:0:0:0:
256,192,162726,1,8,0:0:0:0:
256,192,162898,1,0,0:0:0:0:
256,192,163240,1,0,0:0:0:0:
256,192,163412,1,0,0:0:0:0:
256,192,163583,1,8,0:0:0:0:
256,192,163926,1,0,0:0:0:0:
256,192,164440,1,0,0:0:0:0:
256,192,164612,1,8,0:0:0:0:
256,192,164698,1,8,0:0:0:0:
256,192,164783,1,8,0:0:0:0:
256,192,164955,1,0,0:0:0:0:
256,192,165126,1,0,0:0:0:0:
256,192,165298,1,8,0:0:0:0:
256,192,165640,1,0,0:0:0:0:
256,192,165983,1,0,0:0:0:0:
256,192,166155,1,0,0:0:0:0:
256,192,166326,1,8,0:0:0:0:
256,192,166669,1,0,0:0:0:0:
256,192,167012,1,12,0:0:0:0:
256,192,167355,1,12,0:0:0:0:
256,192,167526,1,0,0:0:0:0:
256,192,167698,1,12,0:0:0:0:
256,192,168040,1,0,0:0:0:0:
256,192,168383,1,8,0:0:0:0:
256,192,168726,1,8,0:0:0:0:
256,192,168898,1,0,0:0:0:0:
256,192,169069,1,8,0:0:0:0:
256,192,169412,1,0,0:0:0:0:
256,192,169755,1,0,0:0:0:0:
256,192,169840,1,0,0:0:0:0:
256,192,170012,1,8,0:0:0:0:
256,192,170098,1,8,0:0:0:0:
256,192,170269,1,0,0:0:0:0:
256,192,170440,1,8,0:0:0:0:
256,192,170783,1,8,0:0:0:0:
256,192,170955,1,8,0:0:0:0:
256,192,171126,1,4,0:0:0:0:
256,192,171469,1,12,0:0:0:0:
256,192,171983,1,8,0:0:0:0:
256,192,172155,1,0,0:0:0:0:
256,192,172326,1,0,0:0:0:0:
256,192,172498,1,0,0:0:0:0:
256,192,172669,1,8,0:0:0:0:
256,192,173012,1,8,0:0:0:0:
256,192,173183,1,0,0:0:0:0:
256,192,173355,1,8,0:0:0:0:
256,192,173440,1,8,0:0:0:0:
256,192,173526,1,8,0:0:0:0:
256,192,173698,1,0,0:0:0:0:
256,192,173869,1,0,0:0:0:0:
256,192,174212,1,0,0:0:0:0:
256,192,174554,1,8,0:0:0:0:
256,192,174726,1,0,0:0:0:0:
256,192,175069,1,0,0:0:0:0:
256,192,175240,1,8,0:0:0:0:
256,192,175412,1,0,0:0:0:0:
256,192,175583,1,8,0:0:0:0:
256,192,175755,1,0,0:0:0:0:
256,192,176098,1,8,0:0:0:0:
256,192,176183,1,8,0:0:0:0:
256,192,176269,1,8,0:0:0:0:
256,192,176440,1,8,0:0:0:0:
256,192,176612,1,4,0:0:0:0:
256,192,176955,1,12,0:0:0:0:
256,192,177469,1,8,0:0:0:0:
256,192,177640,1,0,0:0:0:0:
256,192,177812,1,0,0:0:0:0:
256,192,177983,1,0,0:0:0:0:
256,192,178155,1,8,0:0:0:0:
256,192,178498,1,8,0:0:0:0:
256,192,178669,1,0,0:0:0:0:
256,192,178840,1,8,0:0:0:0:
256,192,178926,1,8,0:0:0:0:
256,192,179012,1,8,0:0:0:0:
256,192,179183,1,0,0:0:0:0:
256,192,179355,1,0,0:0:0:0:
256,192,179698,1,8,0:0:0:0:
256,192,180040,1,8,0:0:0:0:
256,192,180212,1,0,0:0:0:0:
256,192,180383,1,0,0:0:0:0:
256,192,180555,1,8,0:0:0:0:
256,192,180898,1,12,0:0:0:0:
256,192,181069,1,12,0:0:0:0:
256,192,181240,1,12,0:0:0:0:
256,192,181583,1,0,0:0:0:0:
256,192,181755,1,8,0:0:0:0:
256,192,181926,1,0,0:0:0:0:
256,192,182098,1,0,0:0:0:0:
256,192,182184,1,0,0:0:0:0:
256,192,182270,1,0,0:0:0:0:
256,192,182441,1,8,0:0:0:0:
256,192,182784,1,0,0:0:0:0:
256,192,182956,1,0,0:0:0:0:
256,192,183127,1,8,0:0:0:0:
256,192,183470,1,8,0:0:0:0:
256,192,183556,1,8,0:0:0:0:
256,192,183641,1,8,0:0:0:0:
256,192,183813,1,0,0:0:0:0:
256,192,184156,1,8,0:0:0:0:
256,192,184327,1,8,0:0:0:0:
256,192,184498,1,0,0:0:0:0:
256,192,184670,1,8,0:0:0:0:
256,192,184841,1,0,0:0:0:0:
256,192,185184,1,8,0:0:0:0:
256,192,185698,1,0,0:0:0:0:
256,192,185870,1,8,0:0:0:0:
256,192,186213,1,0,0:0:0:0:
256,192,186556,1,8,0:0:0:0:
256,192,187070,1,0,0:0:0:0:
256,192,187241,1,8,0:0:0:0:
256,192,187413,1,0,0:0:0:0:
256,192,187584,1,0,0:0:0:0:
256,192,187670,1,0,0:0:0:0:
256,192,187756,1,0,0:0:0:0:
256,192,187927,1,8,0:0:0:0:
256,192,188270,1,0,0:0:0:0:
256,192,188441,1,8,0:0:0:0:
256,192,188613,1,0,0:0:0:0:
256,192,188956,1,8,0:0:0:0:
256,192,189041,1,8,0:0:0:0:
256,192,189127,1,8,0:0:0:0:
256,192,189298,1,0,0:0:0:0:
256,192,189641,1,8,0:0:0:0:
256,192,189813,1,0,0:0:0:0:
256,192,189984,1,8,0:0:0:0:
256,192,190156,1,8,0:0:0:0:
256,192,190327,1,0,0:0:0:0:
256,192,190670,1,8,0:0:0:0:
256,192,191184,1,0,0:0:0:0:
256,192,191356,1,8,0:0:0:0:
256,192,191698,1,4,0:0:0:0:
256,192,191956,1,4,0:0:0:0:
256,192,192213,1,12,0:0:0:0:
256,192,192469,1,12,0:0:0:0:
256,192,192727,1,12,0:0:0:0:
256,192,192898,1,4,0:0:0:0:
256,192,193069,1,0,0:0:0:0:
256,192,193155,1,0,0:0:0:0:
256,192,193241,1,0,0:0:0:0:
256,192,193412,1,8,0:0:0:0:
256,192,193755,1,0,0:0:0:0:
256,192,193927,1,0,0:0:0:0:
256,192,194098,1,8,0:0:0:0:
256,192,194441,1,8,0:0:0:0:
256,192,194527,1,8,0:0:0:0:
256,192,194612,1,8,0:0:0:0:
256,192,194784,1,0,0:0:0:0:
256,192,195127,1,8,0:0:0:0:
256,192,195298,1,8,0:0:0:0:
256,192,195469,1,0,0:0:0:0:
256,192,195641,1,8,0:0:0:0:
256,192,195812,1,0,0:0:0:0:
256,192,196155,1,8,0:0:0:0:
256,192,196669,1,0,0:0:0:0:
256,192,196841,1,8,0:0:0:0:
256,192,197184,1,0,0:0:0:0:
256,192,197527,1,8,0:0:0:0:
256,192,198041,1,0,0:0:0:0:
256,192,198212,1,8,0:0:0:0:
256,192,198384,1,0,0:0:0:0:
256,192,198555,1,0,0:0:0:0:
256,192,198641,1,0,0:0:0:0:
256,192,198727,1,0,0:0:0:0:
256,192,198898,1,8,0:0:0:0:
256,192,199241,1,0,0:0:0:0:
256,192,199412,1,8,0:0:0:0:
256,192,199584,1,0,0:0:0:0:
256,192,199927,1,8,0:0:0:0:
256,192,200012,1,8,0:0:0:0:
256,192,200098,1,8,0:0:0:0:
256,192,200269,1,0,0:0:0:0:
256,192,200612,1,8,0:0:0:0:
256,192,200784,1,0,0:0:0:0:
256,192,200955,1,8,0:0:0:0:
256,192,201127,1,8,0:0:0:0:
256,192,201298,1,0,0:0:0:0:
256,192,201641,1,8,0:0:0:0:
256,192,202155,1,0,0:0:0:0:
256,192,202327,1,8,0:0:0:0:
256,192,202669,1,4,0:0:0:0:
256,192,202927,1,4,0:0:0:0:
256,192,203184,1,12,0:0:0:0:
256,192,203441,1,12,0:0:0:0:
256,192,203698,1,12,0:0:0:0:
256,192,203869,1,4,0:0:0:0:
256,192,204041,1,12,0:0:0:0:
