osu file format v14

[General]
AudioFilename: audio.mp3
AudioLeadIn: 0
PreviewTime: 24383
Countdown: 0
SampleSet: Normal
StackLeniency: 0.7
Mode: 1
LetterboxInBreaks: 0
WidescreenStoryboard: 1

[Editor]
Bookmarks: 24383,69641,114898
DistanceSpacing: 0.9
BeatDivisor: 4
GridSize: 32
TimelineZoom: 0.9

[Metadata]
Title:I Wanna Be A Ninja
TitleUnicode:I Wanna Be A Ninja
Artist:Becky
ArtistUnicode:Becky
Creator:[R]
Version:Kantan
Source:osu!
Tags:ron radio gosha Best of Disko Warp ~Black Side~ digital dance featured artist fa english electronic mappers guild mg
BeatmapID:2198318
BeatmapSetID:1051314

[Difficulty]
HPDrainRate:7
CircleSize:5
OverallDifficulty:2
ApproachRate:5
SliderMultiplier:1.4
SliderTickRate:1

[Events]
//Background and Video events
0,0,"BG.jpg",0,-30
//Break Periods
//Storyboard Layer 0 (Background)
//Storyboard Layer 1 (Fail)
//Storyboard Layer 2 (Pass)
//Storyboard Layer 3 (Foreground)
//Storyboard Layer 4 (Overlay)
//Storyboard Sound Samples

[TimingPoints]
2441,342.857142857143,4,1,0,70,1,0
58669,-100,4,1,0,70,0,1
69641,-100,4,1,0,70,0,0
105298,-100,4,1,0,70,0,1
114898,-100,4,1,0,70,0,0
171126,-100,4,1,0,70,0,1
182098,-100,4,1,0,70,0,0

[HitObjects]
256,192,2440,5,4,0:0:0:0:
256,192,5183,1,8,0:0:0:0:
256,192,5526,1,8,0:0:0:0:
256,192,5869,1,8,0:0:0:0:
256,192,6555,1,8,0:0:0:0:
256,192,6898,1,8,0:0:0:0:
256,192,7583,1,8,0:0:0:0:
256,192,7926,1,4,0:0:0:0:
256,192,10669,1,8,0:0:0:0:
256,192,11012,1,8,0:0:0:0:
256,192,11355,1,8,0:0:0:0:
256,192,12041,1,12,0:0:0:0:
256,192,12383,1,12,0:0:0:0:
256,192,13069,1,8,0:0:0:0:
256,192,13412,1,4,0:0:0:0:
256,192,14783,1,8,0:0:0:0:
256,192,16155,1,8,0:0:0:0:
256,192,16498,1,8,0:0:0:0:
256,192,16841,1,8,0:0:0:0:
256,192,17526,1,8,0:0:0:0:
256,192,17869,1,8,0:0:0:0:
256,192,18555,1,8,0:0:0:0:
256,192,18898,1,0,0:0:0:0:
256,192,20269,1,8,0:0:0:0:
256,192,21641,1,8,0:0:0:0:
256,192,21983,1,8,0:0:0:0:
256,192,22326,1,8,0:0:0:0:
256,192,23012,1,12,0:0:0:0:
256,192,24383,1,0,0:0:0:0:
256,192,24726,1,0,0:0:0:0:
256,192,25069,1,0,0:0:0:0:
256,192,25755,1,8,0:0:0:0:
256,192,26098,1,8,0:0:0:0:
256,192,26441,1,8,0:0:0:0:
256,192,27126,1,0,0:0:0:0:
256,192,28155,1,8,0:0:0:0:
256,192,28498,1,0,0:0:0:0:
256,192,29526,1,8,0:0:0:0:
256,192,29869,1,0,0:0:0:0:
256,192,30555,1,0,0:0:0:0:
256,192,30898,1,0,0:0:0:0:
256,192,31241,1,8,0:0:0:0:
256,192,31926,1,8,0:0:0:0:
256,192,32269,1,8,0:0:0:0:
256,192,32612,1,0,0:0:0:0:
256,192,33641,1,8,0:0:0:0:
256,192,33983,1,4,0:0:0:0:
256,192,35183,1,4,0:0:0:0:
256,192,36726,1,4,0:0:0:0:
256,192,37069,1,8,0:0:0:0:
256,192,37755,1,8,0:0:0:0:
256,192,38098,1,0,0:0:0:0:
256,192,38441,1,8,0:0:0:0:
256,192,39126,1,8,0:0:0:0:
256,192,39812,1,8,0:0:0:0:
256,192,40155,1,0,0:0:0:0:
256,192,40841,1,4,0:0:0:0:
256,192,42212,1,0,0:0:0:0:
256,192,42555,1,8,0:0:0:0:
256,192,43241,1,8,0:0:0:0:
256,192,43583,1,0,0:0:0:0:
256,192,43926,1,8,0:0:0:0:
256,192,44612,1,8,0:0:0:0:
256,192,45298,1,8,0:0:0:0:
256,192,45641,1,0,0:0:0:0:
256,192,46326,1,12,0:0:0:0:
256,192,47698,1,4,0:0:0:0:
256,192,48383,1,8,0:0:0:0:
256,192,49069,1,0,0:0:0:0:
256,192,49412,1,8,0:0:0:0:
256,192,49755,1,8,0:0:0:0:
256,192,50441,1,0,0:0:0:0:
256,192,51126,1,8,0:0:0:0:
256,192,51812,1,0,0:0:0:0:
256,192,52155,1,8,0:0:0:0:
256,192,52498,1,0,0:0:0:0:
256,192,53183,1,0,0:0:0:0:
256,192,53869,1,8,0:0:0:0:
256,192,54555,1,12,0:0:0:0:
256,192,55926,1,0,0:0:0:0:
256,192,56612,1,8,0:0:0:0:
256,192,56955,1,8,0:0:0:0:
256,192,57298,1,0,0:0:0:0:
256,192,57983,1,8,0:0:0:0:
256,192,58669,1,4,0:0:0:0:
256,192,59012,1,12,0:0:0:0:
256,192,60041,1,0,0:0:0:0:
256,192,60726,1,8,0:0:0:0:
256,192,61412,1,0,0:0:0:0:
256,192,61755,1,0,0:0:0:0:
256,192,62441,1,0,0:0:0:0:
256,192,62783,1,0,0:0:0:0:
256,192,63126,1,8,0:0:0:0:
256,192,63812,1,8,0:0:0:0:
256,192,64155,1,4,0:0:0:0:
256,192,64498,1,12,0:0:0:0:
256,192,65526,1,0,0:0:0:0:
256,192,66212,1,8,0:0:0:0:
256,192,66898,1,0,0:0:0:0:
256,192,67241,1,8,0:0:0:0:
256,192,67583,1,0,0:0:0:0:
256,192,67926,1,0,0:0:0:0:
256,192,68441,1,12,0:0:0:0:
256,192,68783,1,12,0:0:0:0:
256,192,69641,1,0,0:0:0:0:
256,192,69984,1,0,0:0:0:0:
256,192,70327,1,0,0:0:0:0:
256,192,71013,1,8,0:0:0:0:
256,192,71356,1,8,0:0:0:0:
256,192,71699,1,8,0:0:0:0:
256,192,72384,1,0,0:0:0:0:
256,192,73413,1,8,0:0:0:0:
256,192,73756,1,0,0:0:0:0:
256,192,74784,1,8,0:0:0:0:
256,192,75127,1,0,0:0:0:0:
256,192,75813,1,0,0:0:0:0:
256,192,76156,1,0,0:0:0:0:
256,192,76499,1,8,0:0:0:0:
256,192,77184,1,8,0:0:0:0:
256,192,77527,1,8,0:0:0:0:
256,192,77870,1,0,0:0:0:0:
256,192,78899,1,8,0:0:0:0:
256,192,79241,1,4,0:0:0:0:
256,192,80441,1,4,0:0:0:0:
256,192,81984,1,4,0:0:0:0:
256,192,82327,1,8,0:0:0:0:
256,192,83013,1,8,0:0:0:0:
256,192,83356,1,0,0:0:0:0:
256,192,83699,1,8,0:0:0:0:
256,192,84384,1,8,0:0:0:0:
256,192,85070,1,8,0:0:0:0:
256,192,85413,1,0,0:0:0:0:
256,192,86099,1,4,0:0:0:0:
256,192,87470,1,0,0:0:0:0:
256,192,87813,1,8,0:0:0:0:
256,192,88499,1,8,0:0:0:0:
256,192,88841,1,0,0:0:0:0:
256,192,89184,1,8,0:0:0:0:
256,192,89870,1,8,0:0:0:0:
256,192,90212,1,4,0:0:0:0:
256,192,91755,8,0,92612,0:0:0:0:
256,192,92956,5,4,0:0:0:0:
256,192,93641,1,8,0:0:0:0:
256,192,94327,1,0,0:0:0:0:
256,192,94670,1,8,0:0:0:0:
256,192,95013,1,8,0:0:0:0:
256,192,95699,1,0,0:0:0:0:
256,192,96384,1,8,0:0:0:0:
256,192,97070,1,0,0:0:0:0:
256,192,97413,1,8,0:0:0:0:
256,192,97756,1,0,0:0:0:0:
256,192,98441,1,0,0:0:0:0:
256,192,99127,1,8,0:0:0:0:
256,192,99813,1,12,0:0:0:0:
256,192,101184,1,0,0:0:0:0:
256,192,101870,1,8,0:0:0:0:
256,192,102213,1,8,0:0:0:0:
256,192,102556,1,0,0:0:0:0:
256,192,103241,1,8,0:0:0:0:
256,192,103927,1,0,0:0:0:0:
256,192,105298,1,4,0:0:0:0:
256,192,105983,1,8,0:0:0:0:
256,192,106670,1,0,0:0:0:0:
256,192,107013,1,0,0:0:0:0:
256,192,107699,1,0,0:0:0:0:
256,192,108041,1,0,0:0:0:0:
256,192,108384,1,8,0:0:0:0:
256,192,109070,1,8,0:0:0:0:
256,192,109413,1,4,0:0:0:0:
256,192,109756,1,12,0:0:0:0:
256,192,110783,1,0,0:0:0:0:
256,192,111469,1,8,0:0:0:0:
256,192,112156,1,0,0:0:0:0:
256,192,112499,1,8,0:0:0:0:
256,192,112841,1,0,0:0:0:0:
256,192,113184,1,0,0:0:0:0:
256,192,113699,1,12,0:0:0:0:
256,192,114041,1,12,0:0:0:0:
256,192,114898,1,0,0:0:0:0:
256,192,115241,1,0,0:0:0:0:
256,192,115584,1,0,0:0:0:0:
256,192,116270,1,8,0:0:0:0:
256,192,116613,1,8,0:0:0:0:
256,192,116956,1,8,0:0:0:0:
256,192,117641,1,0,0:0:0:0:
256,192,118670,1,8,0:0:0:0:
256,192,119013,1,0,0:0:0:0:
256,192,120041,1,8,0:0:0:0:
256,192,120384,1,0,0:0:0:0:
256,192,121070,1,0,0:0:0:0:
256,192,121413,1,0,0:0:0:0:
256,192,121756,1,8,0:0:0:0:
256,192,122441,1,8,0:0:0:0:
256,192,122784,1,8,0:0:0:0:
256,192,123127,1,0,0:0:0:0:
256,192,124156,1,8,0:0:0:0:
256,192,124498,1,4,0:0:0:0:
256,192,125869,1,4,0:0:0:0:
256,192,126555,1,8,0:0:0:0:
256,192,126898,1,0,0:0:0:0:
256,192,127241,1,8,0:0:0:0:
256,192,127926,1,8,0:0:0:0:
256,192,128612,1,0,0:0:0:0:
256,192,128955,1,8,0:0:0:0:
256,192,129983,1,0,0:0:0:0:
256,192,130326,1,8,0:0:0:0:
256,192,131355,1,4,0:0:0:0:
256,192,132041,1,8,0:0:0:0:
256,192,132383,1,0,0:0:0:0:
256,192,132726,1,8,0:0:0:0:
256,192,133412,1,8,0:0:0:0:
256,192,134098,1,0,0:0:0:0:
256,192,134441,1,8,0:0:0:0:
256,192,134783,1,0,0:0:0:0:
256,192,135469,1,4,0:0:0:0:
256,192,135983,1,4,0:0:0:0:
256,192,136841,1,4,0:0:0:0:
256,192,138212,1,4,0:0:0:0:
256,192,139583,1,8,0:0:0:0:
256,192,140955,1,0,0:0:0:0:
256,192,141298,1,8,0:0:0:0:
256,192,141641,1,8,0:0:0:0:
256,192,142326,1,8,0:0:0:0:
256,192,142669,1,8,0:0:0:0:
256,192,143355,1,8,0:0:0:0:
256,192,143698,1,0,0:0:0:0:
256,192,145069,1,8,0:0:0:0:
256,192,146441,1,0,0:0:0:0:
256,192,146783,1,8,0:0:0:0:
256,192,147126,1,8,0:0:0:0:
256,192,147812,1,12,0:0:0:0:
256,192,149183,1,4,0:0:0:0:
256,192,149869,1,0,0:0:0:0:
256,192,150555,1,8,0:0:0:0:
256,192,151241,1,8,0:0:0:0:
256,192,151926,1,0,0:0:0:0:
256,192,152269,1,8,0:0:0:0:
256,192,152612,1,0,0:0:0:0:
256,192,153298,1,4,0:0:0:0:
256,192,154669,1,8,0:0:0:0:
256,192,155355,1,8,0:0:0:0:
256,192,156041,1,0,0:0:0:0:
256,192,156726,1,0,0:0:0:0:
256,192,157412,1,8,0:0:0:0:
256,192,157755,1,0,0:0:0:0:
256,192,158098,1,8,0:0:0:0:
256,192,158783,1,12,0:0:0:0:
256,192,160155,1,4,0:0:0:0:
256,192,160840,1,8,0:0:0:0:
256,192,161526,1,0,0:0:0:0:
256,192,161869,1,8,0:0:0:0:
256,192,162212,1,8,0:0:0:0:
256,192,162898,1,0,0:0:0:0:
256,192,163583,1,8,0:0:0:0:
256,192,164269,1,0,0:0:0:0:
256,192,164612,1,8,0:0:0:0:
256,192,164955,1,0,0:0:0:0:
256,192,165640,1,0,0:0:0:0:
256,192,166326,1,8,0:0:0:0:
256,192,167012,1,12,0:0:0:0:
256,192,167355,1,12,0:0:0:0:
256,192,167698,1,12,0:0:0:0:
256,192,168383,1,0,0:0:0:0:
256,192,169069,1,8,0:0:0:0:
256,192,169412,1,8,0:0:0:0:
256,192,169755,1,0,0:0:0:0:
256,192,170440,1,8,0:0:0:0:
256,192,171126,1,4,0:0:0:0:
256,192,171469,1,12,0:0:0:0:
256,192,172498,1,0,0:0:0:0:
256,192,173183,1,8,0:0:0:0:
256,192,173869,1,0,0:0:0:0:
256,192,174212,1,0,0:0:0:0:
256,192,174898,1,0,0:0:0:0:
256,192,175240,1,0,0:0:0:0:
256,192,175583,1,8,0:0:0:0:
256,192,176269,1,8,0:0:0:0:
256,192,176612,1,4,0:0:0:0:
256,192,176955,1,12,0:0:0:0:
256,192,177983,1,0,0:0:0:0:
256,192,178669,1,8,0:0:0:0:
256,192,179355,1,0,0:0:0:0:
256,192,179698,1,8,0:0:0:0:
256,192,180041,1,0,0:0:0:0:
256,192,180383,1,0,0:0:0:0:
256,192,180898,1,12,0:0:0:0:
256,192,181240,1,12,0:0:0:0:
256,192,182098,1,0,0:0:0:0:
256,192,182441,1,0,0:0:0:0:
256,192,182784,1,0,0:0:0:0:
256,192,183470,1,8,0:0:0:0:
256,192,183813,1,8,0:0:0:0:
256,192,184156,1,8,0:0:0:0:
256,192,184841,1,0,0:0:0:0:
256,192,185870,1,8,0:0:0:0:
256,192,186213,1,0,0:0:0:0:
256,192,187241,1,8,0:0:0:0:
256,192,187584,1,0,0:0:0:0:
256,192,188270,1,0,0:0:0:0:
256,192,188613,1,0,0:0:0:0:
256,192,188956,1,8,0:0:0:0:
256,192,189641,1,8,0:0:0:0:
256,192,189984,1,8,0:0:0:0:
256,192,190327,1,0,0:0:0:0:
256,192,191356,1,8,0:0:0:0:
256,192,191698,1,4,0:0:0:0:
256,192,193069,1,0,0:0:0:0:
256,192,193412,1,0,0:0:0:0:
256,192,193755,1,0,0:0:0:0:
256,192,194441,1,8,0:0:0:0:
256,192,194784,1,8,0:0:0:0:
256,192,195127,1,8,0:0:0:0:
256,192,195812,1,0,0:0:0:0:
256,192,196841,1,8,0:0:0:0:
256,192,197184,1,0,0:0:0:0:
256,192,198212,1,8,0:0:0:0:
256,192,198555,1,0,0:0:0:0:
256,192,199241,1,0,0:0:0:0:
256,192,199584,1,0,0:0:0:0:
256,192,199927,1,8,0:0:0:0:
256,192,200612,1,8,0:0:0:0:
256,192,200955,1,8,0:0:0:0:
256,192,201298,1,0,0:0:0:0:
256,192,202327,1,8,0:0:0:0:
256,192,202669,1,4,0:0:0:0:
256,192,204041,1,12,0:0:0:0:
