osu file format v14

[General]
AudioFilename: audio.mp3
AudioLeadIn: 1200
PreviewTime: 5028
Countdown: 0
SampleSet: Soft
StackLeniency: 0.7
Mode: 0
LetterboxInBreaks: 0
WidescreenStoryboard: 0

[Editor]
Bookmarks: 5028,24331,47495,66798,89961,109264
DistanceSpacing: 1
BeatDivisor: 4
GridSize: 4
TimelineZoom: 1

[Metadata]
Title:Angels We Have Heard On High (Nightcore Mix)
TitleUnicode:Angels We Have Heard On High (Nightcore Mix)
Artist:Beckah Shae
ArtistUnicode:Beckah Shae
Creator:pinataman
Version:Normal
Source:
Tags:Emmanuel Gloria in Excelsis Deo christmas carol Xmas holiday festive Christian gospel
BeatmapID:1460884
BeatmapSetID:684965

[Difficulty]
HPDrainRate:4
CircleSize:3.4
OverallDifficulty:4
ApproachRate:5
SliderMultiplier:1.2
SliderTickRate:1

[Events]
//Background and Video events
0,0,"normal bg.jpg",0,0
//Break Periods
//Storyboard Layer 0 (Background)
//Storyboard Layer 1 (Fail)
//Storyboard Layer 2 (Pass)
//Storyboard Layer 3 (Foreground)
//Storyboard Sound Samples

[TimingPoints]
1168,482.575020308365,4,2,1,60,1,0
20712,-107.52688172043,4,2,1,60,0,0
24331,-100,4,2,1,70,0,1
32052,-100,4,2,1,60,0,1
32535,-100,4,2,1,65,0,1
33017,-100,4,2,1,70,0,1
33500,-100,4,2,1,80,0,1
33983,-100,4,2,1,90,0,1
34948,-100,4,2,1,80,0,1
35913,-100,4,2,1,70,0,1
43634,-100,4,2,1,60,0,1
44117,-100,4,2,1,65,0,1
44599,-100,4,2,1,70,0,1
45082,-100,4,2,1,80,0,1
45564,-100,4,2,1,90,0,1
46530,-100,4,2,1,80,0,1
47495,-100,4,2,1,70,0,0
51355,-100,4,2,1,60,0,0
66798,-100,4,2,1,70,0,1
74519,-100,4,2,1,60,0,1
75001,-100,4,2,1,65,0,1
75484,-100,4,2,1,70,0,1
75967,-100,4,2,1,80,0,1
76449,-100,4,2,1,90,0,1
77414,-100,4,2,1,80,0,1
78380,-100,4,2,1,70,0,1
86101,-100,4,2,1,60,0,1
86583,-100,4,2,1,65,0,1
87066,-100,4,2,1,70,0,1
87548,-100,4,2,1,80,0,1
88031,-100,4,2,1,90,0,1
88996,-100,4,2,1,80,0,1
89961,-100,4,2,1,70,0,0
93822,-100,4,2,1,60,0,0
107334,-100,4,2,1,70,0,0
108299,-100,4,2,1,75,0,0
109264,-100,4,2,1,60,0,0
116986,-100,4,2,1,50,0,0
117468,-100,4,2,1,55,0,0
117951,-100,4,2,1,60,0,0
118433,-100,4,2,1,65,0,0
118916,-100,4,2,1,70,0,0
119881,-100,4,2,1,60,0,0
120846,-100,4,2,1,70,0,1
128567,-100,4,2,1,60,0,1
129050,-100,4,2,1,65,0,1
129532,-100,4,2,1,70,0,1
130015,-100,4,2,1,80,0,1
130498,-100,4,2,1,90,0,1
131463,-100,4,2,1,80,0,1
132428,-100,4,2,1,70,0,1
140149,-100,4,2,1,60,0,1
140632,-100,4,2,1,65,0,1
141114,-100,4,2,1,70,0,1
141597,-100,4,2,1,90,0,1
142079,-100,4,2,1,80,0,1
143045,-100,4,2,1,70,0,1
144010,-100,4,2,1,70,0,0
149801,-100,4,2,1,40,0,0

[Colours]
Combo1 : 128,0,128
Combo2 : 0,128,0
Combo3 : 192,0,0
Combo4 : 247,100,0

[HitObjects]
48,149,1168,54,0,P|72:94|120:60,1,120,2|0,0:0|0:0,0:0:0:0:
237,76,2133,1,2,0:0:0:0:
166,171,2615,1,0,0:0:0:0:
284,193,3098,2,0,P|261:247|213:281,1,120,2|0,0:0|0:0,0:0:0:0:
95,266,4063,1,2,0:0:0:0:
141,376,4545,1,0,0:0:0:0:
213,281,5028,5,2,0:0:0:0:
166,171,5511,1,0,0:0:0:0:
249,84,5993,2,0,P|282:133|285:192,1,120,2|0,0:0|0:0,0:0:0:0:
206,283,6958,2,0,L|325:272,1,120,2|0,0:0|0:0,0:0:0:0:
382,247,7682,1,0,0:0:0:0:
382,247,7924,2,0,P|392:187|370:132,1,120,2|0,0:0|0:0,0:0:0:0:
286,48,8889,5,2,0:0:0:0:
239,158,9371,1,0,0:0:0:0:
301,260,9854,2,0,P|244:278|186:266,1,120,2|0,0:0|0:0,0:0:0:0:
96,186,10819,2,0,L|106:305,1,120,2|0,0:0|0:0,0:0:0:0:
141,362,11543,1,0,0:0:0:0:
141,362,11784,2,0,P|198:374|255:355,1,120,2|0,0:0|0:0,0:0:0:0:
333,264,12749,5,2,0:0:0:0:
452,254,13231,1,0,0:0:0:0:
373,164,13714,2,0,P|313:160|260:186,1,120,2|0,0:0|0:0,0:0:0:0:
164,258,14680,2,0,L|174:138,1,120,2|0,0:0|0:0,0:0:0:0:
198,86,15403,1,0,0:0:0:0:
198,86,15645,2,0,P|251:59|310:63,1,120,2|0,0:0|0:0,0:0:0:0:
412,126,16610,5,2,0:0:0:0:
342,223,17092,1,0,0:0:0:0:
462,229,17575,2,0,P|450:170|412:126,1,120,2|0,0:0|0:0,0:0:0:0:
320,47,18541,2,0,L|439:36,1,120,2|0,0:0|0:0,0:0:0:0:
495,72,19264,1,0,0:0:0:0:
495,71,19505,2,0,P|489:131|454:179,1,120,2|0,0:0|0:0,0:0:0:0:
364,321,20712,6,0,B|299:224|299:224|319:208|319:208|274:128|274:128|288:114|288:114|234:17|234:17|179:114|179:114|194:128|194:128|149:209|149:209|169:225|169:225|105:320,1,725.400022690888
2,262,24331,6,0,P|12:203|51:158,1,120,2|0,0:0|0:0,0:0:0:0:
164,118,25296,1,2,0:0:0:0:
198,69,25537,2,0,L|192:9,2,60,0|2|0,0:0|0:0|0:0,0:0:0:0:
221,124,26261,6,0,P|270:157|329:162,1,120,2|0,0:0|0:0,0:0:0:0:
449,156,27227,1,2,0:0:0:0:
429,212,27468,2,0,L|434:271,2,60,0|2|0,0:0|0:0|0:0,0:0:0:0:
394,162,28192,6,0,P|335:172|290:211,1,120,2|0,0:0|0:0,0:0:0:0:
236,318,29157,1,2,0:0:0:0:
284,353,29398,2,0,L|343:347,2,60,0|2|0,0:0|0:0|0:0,0:0:0:0:
228,377,30122,6,0,P|169:366|124:327,1,120,2|0,0:0|0:0,0:0:0:0:
100,272,30846,1,0,0:0:0:0:
115,214,31087,2,0,P|119:154|93:100,1,120,2|2,0:0|0:0,0:0:0:0:
8,16,32052,5,2,0:0:0:0:
127,26,32535,1,2,0:0:0:0:
175,135,33017,1,2,0:0:0:0:
246,36,33500,1,2,0:0:0:0:
345,103,33983,6,0,P|373:183|317:248,1,180,2|0,0:0|0:0,0:0:0:0:
326,307,34948,2,0,P|399:351|473:309,1,180,2|0,0:0|0:0,0:0:0:0:
510,262,35913,6,0,P|499:204|460:159,1,120,2|0,0:0|0:0,0:0:0:0:
348,118,36878,1,2,0:0:0:0:
321,171,37119,2,0,L|326:230,2,60,0|2|0,0:0|0:0|0:0,0:0:0:0:
289,119,37843,6,0,P|239:85|180:80,1,120,2|0,0:0|0:0,0:0:0:0:
79,145,38809,1,2,0:0:0:0:
103,199,39050,2,0,L|97:259,2,60,0|2|0,0:0|0:0|0:0,0:0:0:0:
137,149,39774,6,0,P|195:160|240:199,1,120,2|0,0:0|0:0,0:0:0:0:
276,318,40739,1,2,0:0:0:0:
327,287,40980,2,0,L|332:227,2,60,0|2|0,0:0|0:0|0:0,0:0:0:0:
330,347,41704,6,0,P|387:360|443:341,1,120,2|0,0:0|0:0,0:0:0:0:
475,290,42428,1,0,0:0:0:0:
431,249,42669,2,0,P|425:190|451:136,1,120,2|2,0:0|0:0,0:0:0:0:
502,28,43634,5,2,0:0:0:0:
383,38,44117,1,2,0:0:0:0:
335,147,44599,1,2,0:0:0:0:
264,48,45082,1,2,0:0:0:0:
165,115,45565,6,0,P|131:193|184:261,1,180,2|0,0:0|0:0,0:0:0:0:
178,321,46530,2,0,P|100:359|30:311,1,180,2|0,0:0|0:0,0:0:0:0:
7,256,47495,6,0,P|29:171|108:137,1,180,10|8,0:0|0:0,0:0:0:0:
169,139,48460,1,10,0:0:0:0:
229,242,48942,1,0,0:0:0:0:
336,188,49425,2,0,P|349:103|290:39,1,180,10|8,0:0|0:0,0:0:0:0:
229,35,50391,1,10,0:0:0:0:
169,139,50873,1,0,0:0:0:0:
229,242,51355,6,0,L|37:258,1,180,10|8,0:0|0:0,0:0:0:0:
20,310,52320,1,10,0:0:0:0:
132,351,52803,1,0,0:0:0:0:
191,246,53286,2,0,P|277:242|334:308,1,180,10|8,0:0|0:0,0:0:0:0:
340,370,54251,1,10,0:0:0:0:
459,362,54733,1,0,0:0:0:0:
450,242,55216,6,0,L|433:50,1,180,10|8,0:0|0:0,0:0:0:0:
392,20,56181,1,10,0:0:0:0:
348,132,56664,1,0,0:0:0:0:
237,174,57146,2,0,P|236:86|297:23,1,180,10|8,0:0|0:0,0:0:0:0:
359,12,58112,1,10,0:0:0:0:
431,107,58594,1,0,0:0:0:0:
426,227,59077,6,0,L|234:243,1,180,10|8,0:0|0:0,0:0:0:0:
210,194,60042,1,10,0:0:0:0:
125,278,60524,1,0,0:0:0:0:
76,168,61007,2,0,P|14:230|13:318,1,180,10|8,0:0|0:0,0:0:0:0:
48,370,61973,1,10,0:0:0:0:
168,359,62455,1,0,0:0:0:0:
250,271,62937,6,0,L|233:79,1,180,10|8,0:0|0:0,0:0:0:0:
247,32,63902,1,10,0:0:0:0:
366,14,64385,1,0,0:0:0:0:
344,132,64867,2,0,P|356:217|433:259,1,180,10|8,0:0|0:0,0:0:0:0:
493,259,65833,1,10,0:0:0:0:
449,371,66315,1,0,0:0:0:0:
329,358,66798,6,0,P|274:333|234:220,1,180,10|8,0:0|0:0,0:0:0:0:
246,167,67763,1,10,0:0:0:0:
301,143,68004,2,0,L|361:149,2,60,0|2|0,0:0|0:0|0:0,0:0:0:0:
253,105,68728,6,0,P|204:69|86:89,1,180,10|8,0:0|0:0,0:0:0:0:
52,132,69694,1,10,0:0:0:0:
75,186,69934,2,0,L|69:246,2,60,0|2|0,0:0|0:0|0:0,0:0:0:0:
128,159,70658,6,0,P|213:176|262:249,1,180,10|8,0:0|0:0,0:0:0:0:
269,309,71624,1,10,0:0:0:0:
253,367,71865,2,0,L|194:373,2,60,0|2|0,0:0|0:0|0:0,0:0:0:0:
311,351,72589,6,0,P|365:325|398:275,1,120,10|0,0:0|0:0,0:0:0:0:
411,217,73313,1,8,0:0:0:0:
377,167,73554,2,0,P|366:107|386:51,1,120,10|2,0:0|0:0,0:0:0:0:
487,118,74519,5,10,0:0:0:0:
475,237,75002,1,2,0:0:0:0:
377,167,75484,1,10,0:0:0:0:
280,97,75967,1,2,0:0:0:0:
267,216,76449,6,0,P|195:271|95:257,1,180,10|8,0:0|0:0,0:0:0:0:
81,212,77414,2,0,P|135:142|130:54,1,180,10|0,0:0|0:0,0:0:0:0:
183,26,78380,6,0,P|238:51|278:164,1,180,10|8,0:0|0:0,0:0:0:0:
280,217,79345,1,10,0:0:0:0:
327,253,79586,2,0,L|387:247,2,60,0|2|0,0:0|0:0|0:0,0:0:0:0:
282,293,80310,6,0,P|315:342|432:363,1,180,10|8,0:0|0:0,0:0:0:0:
470,322,81276,1,10,0:0:0:0:
448,266,81516,2,0,L|454:206,2,60,0|2|0,0:0|0:0|0:0,0:0:0:0:
392,289,82240,6,0,P|333:223|336:136,1,180,10|8,0:0|0:0,0:0:0:0:
369,85,83206,1,10,0:0:0:0:
420,55,83447,2,0,L|479:61,2,60,0|2|0,0:0|0:0|0:0,0:0:0:0:
368,25,84171,6,0,P|309:14|252:35,1,120,10|0,0:0|0:0,0:0:0:0:
217,82,84895,1,8,0:0:0:0:
222,142,85136,2,0,P|187:190|134:216,1,120,10|2,0:0|0:0,0:0:0:0:
25,266,86101,5,10,0:0:0:0:
37,147,86584,1,2,0:0:0:0:
135,217,87066,1,10,0:0:0:0:
232,287,87549,1,2,0:0:0:0:
245,167,88031,6,0,P|316:112|416:126,1,180,10|8,0:0|0:0,0:0:0:0:
431,172,88996,2,0,P|376:241|381:329,1,180,10|0,0:0|0:0,0:0:0:0:
329,358,89961,6,0,P|274:333|234:220,1,180,10|8,0:0|0:0,0:0:0:0:
245,167,90927,1,10,0:0:0:0:
125,179,91409,1,0,0:0:0:0:
93,296,91892,2,0,P|179:296|232:227,1,180,10|8,0:0|0:0,0:0:0:0:
245,167,92858,1,10,0:0:0:0:
344,233,93340,1,0,0:0:0:0:
461,209,93822,6,0,P|492:158|502:99,1,120,2|0,0:0|0:0,0:0:0:0:
410,26,94787,2,0,P|353:46|309:86,1,120
335,204,95752,2,0,B|326:275|258:280|258:280|189:286|181:357,1,240,2|2,0:0|0:0,0:0:0:0:
122,128,97683,6,0,P|172:159|231:170,1,120,2|0,0:0|0:0,0:0:0:0:
210,52,98648,2,0,P|159:20|100:9,1,120,2|0,0:0|0:0,0:0:0:0:
9,87,99613,1,2,0:0:0:0:
122,128,100095,1,2,0:0:0:0:
81,241,100578,1,2,0:0:0:0:
321,283,101543,6,0,P|379:271|430:240,1,120,2|0,0:0|0:0,0:0:0:0:
451,121,102508,2,0,P|392:132|341:163,1,120,0|0,0:0|0:0,0:0:0:0:
229,205,103473,2,0,B|157:196|152:128|152:128|146:59|75:51,1,240,2|2,0:0|0:0,0:0:0:0:
3,280,105404,6,0,P|14:221|45:170,1,120,2|0,0:0|0:0,0:0:0:0:
164,150,106369,2,0,P|152:208|121:259,1,120,2|0,0:0|0:0,0:0:0:0:
79,371,107334,1,2,0:0:0:0:
197,351,107816,1,2,0:0:0:0:
238,238,108299,1,2,0:0:0:0:
325,14,109264,6,0,L|335:133,1,120,2|0,0:0|0:0,0:0:0:0:
375,246,110229,1,2,0:0:0:0:
410,197,110470,2,0,P|427:176|442:141,2,60,0|2|0,0:0|0:0|0:0,0:0:0:0:
350,208,111194,2,0,L|230:197,1,120,2|0,0:0|0:0,0:0:0:0:
118,158,112159,1,2,0:0:0:0:
167,123,112401,2,0,P|187:105|223:91,2,60,0|2|0,0:0|0:0|0:0,0:0:0:0:
156,183,113125,6,0,L|166:302,1,120,2|0,0:0|0:0,0:0:0:0:
285,285,114090,1,2,0:0:0:0:
331,322,114331,2,0,L|336:381,2,60,0|2|0,0:0|0:0|0:0,0:0:0:0:
357,268,115055,2,0,P|395:223|452:205,1,120,2|0,0:0|0:0,0:0:0:0:
508,228,115779,1,0,0:0:0:0:
506,287,116020,2,0,P|467:331|410:349,1,120,2|0,0:0|0:0,0:0:0:0:
290,339,116986,6,0,P|259:287|248:229,1,120,2|2,0:0|0:0,0:0:0:0:
285,114,117951,2,0,P|274:56|243:5,1,120,2|2,0:0|0:0,0:0:0:0:
167,98,118916,2,0,B|157:219|157:219|185:226|198:257,1,180,2|0,0:0|0:0,0:0:0:0:
256,274,119881,2,0,B|283:253|311:260|311:260|362:151,1,180,2|0,0:0|0:0,0:0:0:0:
422,146,120846,6,0,L|429:233,2,60,10|2|2,0:0|0:0|0:0,0:0:0:0:
332,66,121811,1,10,0:0:0:0:
332,66,122053,2,0,L|324:153,1,60,0|2,0:0|0:0,0:0:0:0:
287,171,122535,1,0,0:0:0:0:
242,131,122776,6,0,P|213:119|182:118,2,60,10|2|2,0:0|0:0|0:0,0:0:0:0:
323,226,123742,1,10,0:0:0:0:
323,226,123983,2,0,P|303:250|277:266,1,60,0|2,0:0|0:0,0:0:0:0:
221,280,124465,1,0,0:0:0:0:
180,324,124707,6,0,L|187:411,2,60,10|2|2,0:0|0:0|0:0,0:0:0:0:
176,208,125672,1,10,0:0:0:0:
176,208,125913,2,0,L|88:201,1,60,0|2,0:0|0:0,0:0:0:0:
75,158,126396,1,0,0:0:0:0:
108,107,126637,6,0,P|157:73|216:68,1,120,10|0,0:0|0:0,0:0:0:0:
272,88,127361,1,8,0:0:0:0:
310,133,127602,2,0,P|369:142|425:121,1,120,10|2,0:0|0:0,0:0:0:0:
499,28,128567,5,10,0:0:0:0:
379,33,129050,1,2,0:0:0:0:
310,133,129532,1,10,0:0:0:0:
429,126,130015,1,2,0:0:0:0:
425,246,130498,6,0,P|344:212|309:132,1,180,10|8,0:0|0:0,0:0:0:0:
261,98,131463,2,0,P|179:131|144:211,1,180,10|0,0:0|0:0,0:0:0:0:
90,238,132428,6,0,L|82:150,2,60,10|2|2,0:0|0:0|0:0,0:0:0:0:
163,334,133393,1,10,0:0:0:0:
163,334,133634,2,0,L|251:327,1,60,0|2,0:0|0:0,0:0:0:0:
275,299,134117,1,0,0:0:0:0:
254,242,134358,6,0,P|225:230|195:230,2,60,10|2|2,0:0|0:0|0:0,0:0:0:0:
376,268,135323,1,10,0:0:0:0:
376,268,135565,2,0,P|380:236|373:207,1,60,0|2,0:0|0:0,0:0:0:0:
356,151,136047,1,0,0:0:0:0:
310,112,136289,6,0,L|304:52,2,60,10|2|2,0:0|0:0|0:0,0:0:0:0:
328,235,137254,1,10,0:0:0:0:
328,235,137495,2,0,L|415:243,1,60,0|2,0:0|0:0,0:0:0:0:
447,251,137978,1,0,0:0:0:0:
426,306,138219,6,0,P|373:335|314:335,1,120,10|0,0:0|0:0,0:0:0:0:
265,301,138943,1,8,0:0:0:0:
227,256,139184,2,0,P|167:246|111:267,1,120,10|0,0:0|0:0,0:0:0:0:
38,361,140149,5,10,0:0:0:0:
158,356,140632,1,2,0:0:0:0:
227,256,141114,1,10,0:0:0:0:
107,263,141597,1,2,0:0:0:0:
110,142,142079,6,0,P|191:175|226:255,1,180,10|8,0:0|0:0,0:0:0:0:
274,290,143044,2,0,P|355:256|390:176,1,180,10|0,0:0|0:0,0:0:0:0:
256,192,144010,12,10,149801,0:0:0:0:
