osu file format v14

[General]
AudioFilename: audio.mp3
AudioLeadIn: 1200
PreviewTime: 5028
Countdown: 0
SampleSet: Soft
StackLeniency: 0.7
Mode: 0
LetterboxInBreaks: 0
WidescreenStoryboard: 1

[Editor]
Bookmarks: 24331,47495,66798,89961,109264,120846,128567,144010
DistanceSpacing: 1.6
BeatDivisor: 4
GridSize: 4
TimelineZoom: 1.1

[Metadata]
Title:Angels We Have Heard On High (Nightcore Mix)
TitleUnicode:Angels We Have Heard On High (Nightcore Mix)
Artist:Beckah Shae
ArtistUnicode:Beckah Shae
Creator:pinataman
Version:Insane
Source:
Tags:Emmanuel Gloria in Excelsis Deo christmas carol Xmas holiday festive Christian gospel
BeatmapID:1493458
BeatmapSetID:684965

[Difficulty]
HPDrainRate:6
CircleSize:4
OverallDifficulty:7
ApproachRate:7.6
SliderMultiplier:1.7
SliderTickRate:1

[Events]
//Background and Video events
0,0,"christmas bg.jpg",0,0
//Break Periods
//Storyboard Layer 0 (Background)
//Storyboard Layer 1 (Fail)
//Storyboard Layer 2 (Pass)
//Storyboard Layer 3 (Foreground)
//Storyboard Sound Samples

[TimingPoints]
1168,482.575020308365,4,2,1,60,1,0
24331,-90.9090909090909,4,2,1,70,0,1
32052,-100,4,2,1,60,0,1
32535,-95.2380952380952,4,2,1,65,0,1
33017,-83.3333333333333,4,2,1,70,0,1
33500,-80,4,2,1,80,0,1
33983,-83.3333333333333,4,2,1,90,0,1
34948,-90.9090909090909,4,2,1,80,0,1
35913,-90.9090909090909,4,2,1,70,0,1
43634,-100,4,2,1,60,0,1
44117,-95.2380952380952,4,2,1,65,0,1
44599,-83.3333333333333,4,2,1,70,0,1
45082,-80,4,2,1,80,0,1
45564,-83.3333333333333,4,2,1,90,0,1
46530,-90.9090909090909,4,2,1,80,0,1
47495,-90.9090909090909,4,2,1,70,0,0
51355,-100,4,2,1,60,0,0
66798,-90.9090909090909,4,2,1,70,0,1
74519,-100,4,2,1,60,0,1
75001,-95.2380952380952,4,2,1,65,0,1
75484,-83.3333333333333,4,2,1,70,0,1
75967,-80,4,2,1,80,0,1
76449,-83.3333333333333,4,2,1,90,0,1
77414,-90.9090909090909,4,2,1,80,0,1
78380,-90.9090909090909,4,2,1,70,0,1
86101,-100,4,2,1,60,0,1
86583,-95.2380952380952,4,2,1,65,0,1
87066,-83.3333333333333,4,2,1,70,0,1
87548,-80,4,2,1,80,0,1
88031,-83.3333333333333,4,2,1,90,0,1
88996,-90.9090909090909,4,2,1,80,0,1
89961,-90.9090909090909,4,2,1,70,0,0
93822,-133.333333333333,4,2,1,60,0,0
107334,-133.333333333333,4,2,1,70,0,0
108299,-133.333333333333,4,2,1,75,0,0
108782,-133.333333333333,4,2,1,60,0,0
109264,-111.111111111111,4,2,1,60,0,0
116986,-111.111111111111,4,2,1,50,0,0
117468,-105.263157894737,4,2,1,55,0,0
117951,-90.9090909090909,4,2,1,60,0,0
118433,-86.9565217391304,4,2,1,65,0,0
118916,-100,4,2,1,65,0,0
119881,-100,4,2,1,60,0,0
120846,-76.9230769230769,4,2,1,70,0,1
128567,-90.9090909090909,4,2,1,60,0,1
129050,-86.9565217391304,4,2,1,65,0,1
129532,-76.9230769230769,4,2,1,70,0,1
130015,-74.0740740740741,4,2,1,80,0,1
130498,-76.9230769230769,4,2,1,90,0,1
131463,-83.3333333333333,4,2,1,80,0,1
132428,-76.9230769230769,4,2,1,70,0,1
140149,-90.9090909090909,4,2,1,60,0,1
140632,-86.9565217391304,4,2,1,65,0,1
141114,-76.9230769230769,4,2,1,70,0,1
141597,-74.0740740740741,4,2,1,90,0,1
142079,-76.9230769230769,4,2,1,80,0,1
143045,-83.3333333333333,4,2,1,70,0,1
144010,-83.3333333333333,4,2,1,60,0,0
149801,-83.3333333333333,4,2,1,40,0,0

[Colours]
Combo1 : 128,0,128
Combo2 : 0,128,0
Combo3 : 192,0,0
Combo4 : 247,100,0

[HitObjects]
60,112,1168,6,0,P|95:89|137:81,1,85,2|0,0:0|0:0,0:0:0:0:
219,175,1650,2,0,P|183:197|141:205,1,85
259,57,2133,2,0,P|296:77|324:108,1,85,2|0,0:0|0:0,0:0:0:0:
284,226,2615,2,0,P|246:205|218:174,1,85
137,81,3099,2,0,P|109:112|95:152,1,85,2|0,0:0|0:0,0:0:0:0:
177,247,3581,2,0,P|203:214|217:173,1,85
56,272,4063,2,0,P|71:312|98:344,1,85,2|0,0:0|0:0,0:0:0:0:
219,319,4546,2,0,P|204:279|177:247,1,85
93,98,5028,6,0,P|133:110|175:110,1,85,2|0,0:0|0:0,0:0:0:0:
317,61,5511,2,0,P|354:82|381:114,1,85
381,284,5993,2,0,P|341:272|299:272,1,85,2|0,0:0|0:0,0:0:0:0:
174,108,6476,2,0,P|212:129|239:161,1,85
464,299,6958,2,0,L|446:119,1,170,2|0,0:0|0:0,0:0:0:0:
394,16,7682,1,0,0:0:0:0:
280,186,7924,2,0,P|198:208|116:190,1,170,2|0,0:0|0:0,0:0:0:0:
471,74,8889,6,0,P|471:115|457:156,1,85,2|0,0:0|0:0,0:0:0:0:
379,284,9371,2,0,P|365:244|364:201,1,85
317,30,9854,2,0,P|285:55|245:71,1,85,2|0,0:0|0:0,0:0:0:0:
193,256,10336,2,0,P|232:240|265:213,1,85
36,85,10819,2,0,L|52:254,1,170,2|0,0:0|0:0,0:0:0:0:
116,364,11543,1,0,0:0:0:0:
202,179,11784,2,0,P|267:128|377:119,1,170,2|0,0:0|0:0,0:0:0:0:
132,375,12749,6,0,P|132:332|146:291,1,85,2|0,0:0|0:0,0:0:0:0:
81,131,13232,2,0,P|66:170|66:212,1,85
271,97,13714,2,0,P|230:82|188:81,1,85,2|0,0:0|0:0,0:0:0:0:
256,284,14197,2,0,P|295:297|338:297,1,85
492,84,14680,2,0,L|475:253,1,170,2|0,0:0|0:0,0:0:0:0:
420,368,15403,1,0,0:0:0:0:
335,177,15645,2,0,P|283:112|178:76,1,170,2|0,0:0|0:0,0:0:0:0:
278,360,16610,6,0,P|316:342|347:313,1,85,2|0,0:0|0:0,0:0:0:0:
414,193,17092,2,0,P|372:191|333:176,1,85
160,106,17575,2,0,P|189:138|206:177,1,85,2|0,0:0|0:0,0:0:0:0:
398,70,18058,2,0,P|381:31|352:0,1,85
113,185,18540,2,0,L|282:168,1,170,2|0,0:0|0:0,0:0:0:0:
404,210,19264,1,0,0:0:0:0:
263,356,19505,2,0,P|179:349|108:303,1,170,2|0,0:0|0:0,0:0:0:0:
256,192,20712,12,0,23849,0:0:0:0:
161,224,24331,6,0,P|191:309|277:335,1,187.000005706787,2|0,0:0|0:0,0:0:0:0:
491,271,25055,1,0,0:0:0:0:
491,271,25176,1,0,0:0:0:0:
491,271,25297,1,2,0:0:0:0:
255,243,25538,1,0,0:0:0:0:
382,180,25779,1,2,0:0:0:0:
364,334,26020,1,0,0:0:0:0:
476,93,26261,6,0,B|456:72|428:71|428:71|410:51|410:51|397:49|348:42|309:73,1,187.000005706787,2|0,0:0|0:0,0:0:0:0:
179,256,26985,1,0,0:0:0:0:
179,256,27106,1,0,0:0:0:0:
179,256,27227,1,2,0:0:0:0:
383,132,27468,1,0,0:0:0:0:
321,260,27709,1,2,0:0:0:0:
240,128,27950,1,0,0:0:0:0:
435,298,28192,6,0,B|423:324|397:335|397:335|387:360|387:360|375:366|332:389|284:373,1,187.000005706787,2|0,0:0|0:0,0:0:0:0:
80,282,28916,1,0,0:0:0:0:
80,282,29037,1,0,0:0:0:0:
80,282,29157,1,2,0:0:0:0:
321,260,29398,1,0,0:0:0:0:
197,144,29639,1,2,0:0:0:0:
374,160,29881,1,0,0:0:0:0:
146,20,30122,6,0,P|79:83|67:174,1,187.000005706787,2|0,0:0|0:0,0:0:0:0:
201,257,30846,1,0,0:0:0:0:
55,319,31087,1,2,0:0:0:0:
367,383,31570,1,2,0:0:0:0:
284,107,32052,6,0,P|279:52|287:12,1,85,2|0,0:0|0:0,0:0:0:0:
229,230,32535,2,0,P|235:284|226:325,1,89.2499972763062,2|0,0:0|0:0,0:0:0:0:
371,65,33017,2,0,P|427:44|471:41,1,101.999996887207,2|0,0:0|0:0,0:0:0:0:
131,67,33500,2,0,P|77:62|28:42,1,106.25,2|0,0:0|0:0,0:0:0:0:
447,148,33983,6,0,P|451:272|285:284,1,305.999990661621,2|0,0:0|0:0,0:0:0:0:
63,217,34948,2,0,P|79:344|207:342,1,280.500008560181,2|0,0:0|0:0,0:0:0:0:
382,156,35913,6,0,P|344:73|259:39,1,187.000005706787,2|0,0:0|0:0,0:0:0:0:
27,96,36637,1,0,0:0:0:0:
27,96,36758,1,0,0:0:0:0:
27,96,36879,1,2,0:0:0:0:
194,268,37120,1,0,0:0:0:0:
132,108,37361,1,2,0:0:0:0:
89,256,37602,1,0,0:0:0:0:
204,30,37843,6,0,B|231:20|256:31|256:31|281:20|281:20|294:24|341:38|363:83,1,187.000005706787,2|0,0:0|0:0,0:0:0:0:
456,299,38567,1,0,0:0:0:0:
456,299,38688,1,0,0:0:0:0:
456,299,38808,1,2,0:0:0:0:
230,222,39050,1,0,0:0:0:0:
411,204,39291,1,2,0:0:0:0:
275,317,39532,1,0,0:0:0:0:
400,99,39774,6,0,B|390:71|365:58|365:58|357:33|357:33|346:25|305:-1|257:10,1,187.000005706787,2|0,0:0|0:0,0:0:0:0:
55,83,40498,1,0,0:0:0:0:
55,83,40619,1,0,0:0:0:0:
55,83,40739,1,2,0:0:0:0:
296,105,40980,1,0,0:0:0:0:
172,221,41221,1,2,0:0:0:0:
349,205,41463,1,0,0:0:0:0:
121,344,41704,6,0,P|53:281|41:190,1,187.000005706787,2|0,0:0|0:0,0:0:0:0:
188,127,42428,1,0,0:0:0:0:
50,48,42669,1,2,0:0:0:0:
365,0,43152,1,2,0:0:0:0:
284,277,43634,6,0,P|279:332|287:372,1,85,2|0,0:0|0:0,0:0:0:0:
229,154,44117,2,0,P|235:100|226:59,1,89.2499972763062,2|0,0:0|0:0,0:0:0:0:
371,319,44599,2,0,P|427:340|471:343,1,101.999996887207,2|0,0:0|0:0,0:0:0:0:
131,316,45082,2,0,P|77:321|28:341,1,106.25,2|0,0:0|0:0,0:0:0:0:
447,236,45565,6,0,P|451:112|285:100,1,305.999990661621,2|0,0:0|0:0,0:0:0:0:
63,167,46530,2,0,P|79:40|207:42,1,280.500008560181,2|0,0:0|0:0,0:0:0:0:
334,264,47495,6,0,B|280:287|280:287|153:273,1,187.000005706787,10|0,0:0|0:0,0:0:0:0:
27,232,48219,1,8,0:0:0:0:
56,359,48460,1,10,0:0:0:0:
118,70,48942,1,0,0:0:0:0:
313,326,49425,2,0,B|337:271|337:271|323:144,1,187.000005706787,10|0,0:0|0:0,0:0:0:0:
270,24,50149,1,8,0:0:0:0:
193,129,50390,1,10,0:0:0:0:
492,97,50873,1,0,0:0:0:0:
235,288,51355,6,0,B|204:244|204:244|192:128,1,170,10|0,0:0|0:0,0:0:0:0:
198,9,52079,1,8,0:0:0:0:
297,73,52320,1,10,0:0:0:0:
44,212,52802,1,0,0:0:0:0:
375,346,53286,2,0,B|331:337|292:349|292:349|251:364|207:354,1,170,10|0,0:0|0:0,0:0:0:0:
64,251,54009,1,8,0:0:0:0:
106,344,54251,1,10,0:0:0:0:
357,240,54733,1,0,0:0:0:0:
23,111,55216,6,0,B|1:160|1:160|14:277,1,170,10|0,0:0|0:0,0:0:0:0:
65,383,55940,1,8,0:0:0:0:
172,330,56181,1,10,0:0:0:0:
23,111,56663,1,0,0:0:0:0:
370,62,57146,2,0,B|385:104|374:145|374:145|367:186|379:228,1,170,10|0,0:0|0:0,0:0:0:0:
466,378,57870,1,8,0:0:0:0:
378,329,58111,1,10,0:0:0:0:
476,75,58593,1,0,0:0:0:0:
188,249,59077,6,0,B|237:228|237:228|354:241,1,170,10|0,0:0|0:0,0:0:0:0:
443,318,59801,1,8,0:0:0:0:
331,356,60042,1,10,0:0:0:0:
105,102,60524,1,0,0:0:0:0:
443,318,61007,2,0,B|433:274|448:233|448:233|460:194|452:151,1,170,10|0,0:0|0:0,0:0:0:0:
316,41,61731,1,8,0:0:0:0:
416,57,61972,1,10,0:0:0:0:
366,329,62454,1,0,0:0:0:0:
96,147,62937,6,0,B|139:116|139:116|256:104,1,170,10|0,0:0|0:0,0:0:0:0:
369,138,63661,1,8,0:0:0:0:
283,220,63902,1,10,0:0:0:0:
140,6,64384,1,0,0:0:0:0:
54,337,64867,2,0,B|62:293|50:254|50:254|35:213|45:169,1,170,10|0,0:0|0:0,0:0:0:0:
119,9,65591,1,8,0:0:0:0:
37,69,65832,1,10,0:0:0:0:
316,47,66314,1,0,0:0:0:0:
61,335,66798,6,0,P|41:246|100:179,1,187.000005706787,10|0,0:0|0:0,0:0:0:0:
385,228,67522,1,8,0:0:0:0:
385,228,67643,1,0,0:0:0:0:
385,228,67763,1,10,0:0:0:0:
137,271,68005,1,0,0:0:0:0:
349,315,68246,1,2,0:0:0:0:
200,341,68487,1,0,0:0:0:0:
488,214,68728,6,0,B|477:186|452:174|452:174|443:149|443:149|432:142|390:117|342:130,1,187.000005706787,2|0,0:0|0:0,0:0:0:0:
108,274,69452,1,8,0:0:0:0:
108,274,69573,1,0,0:0:0:0:
108,274,69693,1,10,0:0:0:0:
356,315,69935,1,0,0:0:0:0:
144,359,70176,1,2,0:0:0:0:
293,386,70417,1,0,0:0:0:0:
4,263,70658,6,0,B|13:235|38:223|38:223|47:197|47:197|58:190|100:164|148:176,1,187.000005706787,2|0,0:0|0:0,0:0:0:0:
419,280,71382,1,8,0:0:0:0:
419,280,71503,1,0,0:0:0:0:
419,280,71623,1,10,0:0:0:0:
393,29,71865,1,0,0:0:0:0:
334,238,72106,1,2,0:0:0:0:
318,87,72347,1,0,0:0:0:0:
189,350,72589,6,0,P|118:296|117:206,1,187.000005706787,10|0,0:0|0:0,0:0:0:0:
224,86,73313,1,8,0:0:0:0:
222,245,73554,1,10,0:0:0:0:
511,157,74036,1,2,0:0:0:0:
206,54,74519,6,0,L|223:136,1,85,10|0,0:0|0:0,0:0:0:0:
306,330,75001,2,0,L|284:234,1,89.2499972763062,2|8,0:0|0:0,0:0:0:0:
23,151,75484,2,0,L|144:177,1,101.999996887207,10|0,0:0|0:0,0:0:0:0:
489,233,75967,2,0,L|365:206,1,106.25,2|0,0:0|0:0,0:0:0:0:
23,151,76449,6,0,B|-27:94|23:10|23:10|121:-6|156:62,1,305.999990661621,10|8,0:0|0:0,0:0:0:0:
298,269,77414,2,0,B|328:331|417:315|417:315|466:239|418:186,1,280.500008560181,10|0,0:0|0:0,0:0:0:0:
67,77,78380,6,0,P|47:166|106:233,1,187.000005706787,10|0,0:0|0:0,0:0:0:0:
391,184,79104,1,8,0:0:0:0:
391,184,79225,1,0,0:0:0:0:
391,184,79345,1,10,0:0:0:0:
210,377,79587,1,0,0:0:0:0:
363,222,79827,1,2,0:0:0:0:
327,384,80069,1,0,0:0:0:0:
325,112,80310,6,0,B|308:89|280:84|280:84|265:62|265:62|252:58|205:44|162:69,1,187.000005706787,2|0,0:0|0:0,0:0:0:0:
6,298,81034,1,8,0:0:0:0:
6,298,81155,1,0,0:0:0:0:
6,298,81275,1,10,0:0:0:0:
264,264,81517,1,0,0:0:0:0:
38,310,81758,1,2,0:0:0:0:
217,370,81999,1,0,0:0:0:0:
57,147,82240,6,0,B|60:118|82:100|82:100|85:74|85:74|95:64|130:30|180:32,1,187.000005706787,2|0,0:0|0:0,0:0:0:0:
451,77,82964,1,8,0:0:0:0:
451,77,83085,1,0,0:0:0:0:
451,77,83205,1,10,0:0:0:0:
425,328,83447,1,0,0:0:0:0:
366,119,83688,1,2,0:0:0:0:
350,270,83929,1,0,0:0:0:0:
189,34,84171,6,0,P|118:88|117:178,1,187.000005706787,10|0,0:0|0:0,0:0:0:0:
222,298,84894,1,8,0:0:0:0:
222,139,85136,1,10,0:0:0:0:
511,227,85618,1,2,0:0:0:0:
206,330,86101,6,0,L|223:248,1,85,10|0,0:0|0:0,0:0:0:0:
306,54,86583,2,0,L|284:150,1,89.2499972763062,2|8,0:0|0:0,0:0:0:0:
23,233,87066,2,0,L|144:207,1,101.999996887207,10|0,0:0|0:0,0:0:0:0:
489,151,87549,2,0,L|365:178,1,106.25,2|0,0:0|0:0,0:0:0:0:
23,233,88031,6,0,B|-27:290|23:374|23:374|121:390|156:322,1,305.999990661621,10|8,0:0|0:0,0:0:0:0:
298,115,88996,2,0,B|328:53|417:69|417:69|466:145|418:198,1,280.500008560181,10|0,0:0|0:0,0:0:0:0:
138,298,89961,6,0,B|115:244|115:244|129:117,1,187.000005706787,10|0,0:0|0:0,0:0:0:0:
214,16,90685,1,8,0:0:0:0:
344,41,90926,1,10,0:0:0:0:
46,67,91408,1,0,0:0:0:0:
307,320,91892,2,0,B|330:266|330:266|316:139,1,187.000005706787,10|0,0:0|0:0,0:0:0:0:
238,32,92615,1,8,0:0:0:0:
368,19,92857,1,10,0:0:0:0:
307,320,93339,1,0,0:0:0:0:
124,58,93822,5,2,0:0:0:0:
113,197,94304,1,0,0:0:0:0:
252,208,94788,1,0,0:0:0:0:
102,336,95271,1,0,0:0:0:0:
192,84,95753,2,0,P|264:29|373:39,1,191.250007295609,2|0,0:0|0:0,0:0:0:0:
430,67,96717,2,0,B|419:97|397:120|397:120|375:141|367:175,1,127.500004863739,2|0,0:0|0:0,0:0:0:0:
351,380,97683,5,2,0:0:0:0:
212,368,98165,1,0,0:0:0:0:
158,238,98649,1,2,0:0:0:0:
412,211,99130,1,0,0:0:0:0:
200,23,99613,2,0,P|202:55|216:83,1,63.7500024318696,2|0,0:0|0:0,0:0:0:0:
271,174,100095,2,0,P|286:202|288:234,1,63.7500024318696,2|0,0:0|0:0,0:0:0:0:
194,292,100578,2,0,P|157:242|162:180,1,127.500004863739,2|0,0:0|0:0,0:0:0:0:
406,69,101543,5,2,0:0:0:0:
344,333,102026,1,0,0:0:0:0:
308,144,102508,1,0,0:0:0:0:
453,187,102991,1,0,0:0:0:0:
214,30,103473,2,0,P|114:8|21:58,1,191.250007295609,2|0,0:0|0:0,0:0:0:0:
21,119,104439,2,0,B|26:152|15:181|15:181|3:210|9:244,1,127.500004863739,2|0,0:0|0:0,0:0:0:0:
172,384,105404,5,2,0:0:0:0:
250,265,105886,1,0,0:0:0:0:
133,187,106369,1,2,0:0:0:0:
367,345,106851,1,0,0:0:0:0:
304,30,107334,2,0,P|272:35|246:55,1,63.7500024318696,2|0,0:0|0:0,0:0:0:0:
456,77,107817,2,0,P|433:53|404:43,1,63.7500024318696,2|0,0:0|0:0,0:0:0:0:
151,94,108299,2,0,P|89:90|44:48,1,127.500004863739,2|0,0:0|0:0,0:0:0:0:
44,48,109264,6,0,P|39:115|114:199,1,152.999995330811,2|0,0:0|0:0,0:0:0:0:
335,249,109988,1,0,0:0:0:0:
335,249,110109,1,0,0:0:0:0:
335,249,110229,1,2,0:0:0:0:
209,156,110471,1,0,0:0:0:0:
115,280,110712,1,2,0:0:0:0:
215,355,110953,1,0,0:0:0:0:
209,156,111195,6,0,B|228:143|250:147|250:147|268:134|268:134|279:135|319:139|344:170,1,152.999995330811,2|0,0:0|0:0,0:0:0:0:
490,344,111919,1,0,0:0:0:0:
490,344,112040,1,0,0:0:0:0:
490,344,112160,1,2,0:0:0:0:
321,324,112402,1,0,0:0:0:0:
345,171,112643,1,2,0:0:0:0:
470,190,112884,1,0,0:0:0:0:
323,64,113125,6,0,B|299:60|281:74|281:74|259:71|259:71|250:76|216:97|207:136,1,152.999995330811,2|0,0:0|0:0,0:0:0:0:
180,355,113849,1,0,0:0:0:0:
180,355,113970,1,0,0:0:0:0:
180,355,114090,1,2,0:0:0:0:
60,236,114332,1,0,0:0:0:0:
66,79,114573,1,2,0:0:0:0:
185,36,114814,1,0,0:0:0:0:
157,176,115055,6,0,P|148:101|186:35,1,152.999995330811,2|0,0:0|0:0,0:0:0:0:
318,4,115779,1,0,0:0:0:0:
260,126,116020,1,2,0:0:0:0:
480,22,116503,1,0,0:0:0:0:
114,55,116986,6,0,P|147:74|185:79,1,76.4999976654053,2|0,0:0|0:0,0:0:0:0:
372,76,117468,2,0,P|367:116|346:150,1,80.7499978437424,2|0,0:0|0:0,0:0:0:0:
136,319,117951,2,0,P|143:273|169:230,1,93.5000028533936,2|0,0:0|0:0,0:0:0:0:
436,355,118433,2,0,P|388:347|346:323,1,97.7500018644333,2|0,0:0|0:0,0:0:0:0:
109,99,118916,6,0,P|69:215|136:319,1,255,2|0,0:0|0:0,0:0:0:0:
402,284,119881,2,0,P|442:168|376:65,1,255,2|0,0:0|0:0,0:0:0:0:
89,26,120846,6,0,P|33:34|-15:68,2,110.499994941712,10|2|2,0:0|0:0|0:0,0:0:0:0:
374,64,121570,1,8,0:0:0:0:
374,64,121691,1,0,0:0:0:0:
374,64,121811,1,10,0:0:0:0:
142,144,122053,1,0,0:0:0:0:
317,277,122294,1,2,0:0:0:0:
289,91,122535,1,0,0:0:0:0:
126,350,122776,6,0,P|76:377|17:381,2,110.499994941712,10|2|2,0:0|0:0|0:0,0:0:0:0:
392,189,123500,1,8,0:0:0:0:
392,189,123621,1,0,0:0:0:0:
392,189,123742,1,10,0:0:0:0:
151,231,123983,1,0,0:0:0:0:
308,383,124224,1,2,0:0:0:0:
126,350,124465,1,0,0:0:0:0:
326,93,124707,6,0,P|374:68|435:68,2,110.499994941712,10|2|2,0:0|0:0|0:0,0:0:0:0:
67,279,125431,1,8,0:0:0:0:
67,279,125552,1,0,0:0:0:0:
67,279,125672,1,10,0:0:0:0:
308,306,125913,1,0,0:0:0:0:
326,93,126155,1,2,0:0:0:0:
137,72,126396,1,0,0:0:0:0:
308,306,126637,6,0,P|410:345|493:272,1,220.999989883423,10|0,0:0|0:0,0:0:0:0:
492,126,127361,1,8,0:0:0:0:
392,243,127602,1,10,0:0:0:0:
298,3,128085,1,2,0:0:0:0:
141,326,128567,6,0,P|174:360|215:382,1,93.5000028533936,10|0,0:0|0:0,0:0:0:0:
393,291,129050,2,0,P|361:324|314:344,1,97.7500018644333,2|8,0:0|0:0,0:0:0:0:
35,168,129532,2,0,P|72:209|120:233,1,110.499994941712,10|0,0:0|0:0,0:0:0:0:
483,132,130015,2,0,P|443:173|392:200,1,114.750000437737,2|0,0:0|0:0,0:0:0:0:
35,64,130498,6,0,P|176:27|241:190,1,331.499984825135,10|8,0:0|0:0,0:0:0:0:
75,384,131463,2,0,P|0:281|109:176,1,305.999990661621,10|0,0:0|0:0,0:0:0:0:
432,217,132428,6,0,P|468:260|482:318,2,110.499994941712,10|2|2,0:0|0:0|0:0,0:0:0:0:
164,51,133152,1,8,0:0:0:0:
164,51,133273,1,0,0:0:0:0:
164,51,133393,1,10,0:0:0:0:
404,4,133635,1,0,0:0:0:0:
319,206,133876,1,2,0:0:0:0:
251,31,134117,1,0,0:0:0:0:
362,322,134358,6,0,P|411:351|469:357,2,110.499994941712,10|2|2,0:0|0:0|0:0,0:0:0:0:
96,161,135082,1,8,0:0:0:0:
96,161,135203,1,0,0:0:0:0:
96,161,135323,1,10,0:0:0:0:
337,203,135564,1,0,0:0:0:0:
180,355,135805,1,2,0:0:0:0:
362,322,136046,1,0,0:0:0:0:
172,67,136289,6,0,P|124:42|63:42,2,110.499994941712,10|2|2,0:0|0:0|0:0,0:0:0:0:
430,253,137012,1,8,0:0:0:0:
430,253,137134,1,0,0:0:0:0:
430,253,137254,1,10,0:0:0:0:
189,280,137496,1,0,0:0:0:0:
172,67,137737,1,2,0:0:0:0:
360,46,137978,1,0,0:0:0:0:
268,340,138219,6,0,P|166:379|83:306,1,220.999989883423,10|0,0:0|0:0,0:0:0:0:
41,166,138943,1,8,0:0:0:0:
268,340,139184,2,0,P|370:379|453:306,1,220.999989883423,10|0,0:0|0:0,0:0:0:0:
134,47,140149,6,0,P|171:18|214:1,1,93.5000028533936,10|0,0:0|0:0,0:0:0:0:
400,81,140632,2,0,P|361:52|314:39,1,97.7500018644333,2|8,0:0|0:0,0:0:0:0:
27,203,141114,2,0,P|69:167|121:150,1,110.499994941712,10|0,0:0|0:0,0:0:0:0:
492,238,141597,2,0,P|448:202|394:183,1,114.750000437737,2|0,0:0|0:0,0:0:0:0:
35,320,142079,6,0,P|176:357|241:194,1,331.499984825135,10|8,0:0|0:0,0:0:0:0:
75,0,143045,2,0,P|0:102|110:207,1,305.999990661621,10|0,0:0|0:0,0:0:0:0:
339,105,144010,1,10,0:0:0:0:
256,192,144130,12,10,149801,0:0:0:0:
