osu file format v14

[General]
AudioFilename: V3 (Ultimate Version).mp3
AudioLeadIn: 0
PreviewTime: 64113
Countdown: 0
SampleSet: Normal
StackLeniency: 0.7
Mode: 3
LetterboxInBreaks: 0
SpecialStyle: 0
WidescreenStoryboard: 1

[Editor]
DistanceSpacing: 0.8
BeatDivisor: 4
GridSize: 32
TimelineZoom: 1.3

[Metadata]
Title:V3 (Ultimate Version)
TitleUnicode:V3 (Ultimate Version)
Artist:BeautifulDay
ArtistUnicode:BeautifulDay
Creator:arvinkent098
Version:Normal
Source:O2Jam
Tags:o2jam, o2jam u,ludwig van beethoven, beethoven virus, beethoven influenza, o2jam ultimate, ultimate version, v3, v3 shd, beautifulday, beautiful day
BeatmapID:875859
BeatmapSetID:402797

[Difficulty]
HPDrainRate:9
CircleSize:4
OverallDifficulty:8
ApproachRate:5
SliderMultiplier:1.4
SliderTickRate:1

[Events]
//Background and Video events
0,0,"bgimage.png",0,0
//Break Periods
//Storyboard Layer 0 (Background)
//Storyboard Layer 1 (Fail)
//Storyboard Layer 2 (Pass)
//Storyboard Layer 3 (Foreground)
//Storyboard Sound Samples

[TimingPoints]
1677,375,4,1,1,60,1,0
1677,-153.846153846154,4,1,1,60,0,0
28114,-133.333333333333,4,1,1,60,0,0
28677,-100,4,1,1,60,0,0
40677,-100,4,1,1,60,0,1
64677,-100,4,1,1,60,0,0
85583,-66.6666666666667,4,1,1,60,0,0
85677,-100,4,1,1,60,0,0
86145,-66.6666666666667,4,1,1,60,0,0
86239,-100,4,1,1,60,0,0
86708,-66.6666666666667,4,1,1,60,0,0
86802,-100,4,1,1,60,0,0
87270,-66.6666666666667,4,1,1,60,0,0
87364,-100,4,1,1,60,0,0
87739,-80,4,1,1,60,0,0
87927,-100,4,1,1,60,0,0
88208,-66.6666666666667,4,1,1,60,0,0
88302,-100,4,1,1,60,0,0
88583,-66.6666666666667,4,1,1,60,0,0
88677,-100,4,1,1,60,0,0
89145,-66.6666666666667,4,1,1,60,0,0
89239,-100,4,1,1,60,0,0
89708,-66.6666666666667,4,1,1,60,0,0
89802,-100,4,1,1,60,0,0
90270,-66.6666666666667,4,1,1,60,0,0
90364,-100,4,1,1,60,0,0
90739,-80,4,1,1,60,0,0
90927,-100,4,1,1,60,0,0
91208,-66.6666666666667,4,1,1,60,0,0
91302,-100,4,1,1,60,0,0
91583,-66.6666666666667,4,1,1,60,0,0
91677,-100,4,1,1,60,0,0
130677,-1000,4,1,1,60,0,0
131052,-666.666666666667,4,1,1,60,0,0
131239,-500,4,1,1,60,0,0
131427,-400,4,1,1,60,0,0
131614,-333.333333333333,4,1,1,60,0,0
131802,-250,4,1,1,60,0,0
131989,-200,4,1,1,60,0,0
132177,-166.666666666667,4,1,1,60,0,0
132364,-142.857142857143,4,1,1,60,0,0
132552,-125,4,1,1,60,0,0
132739,-111.111111111111,4,1,1,60,0,0
132927,-100,4,1,1,60,0,1
136583,-66.6666666666667,4,1,1,60,0,1
136677,-100,4,1,1,60,0,1
136958,-66.6666666666667,4,1,1,60,0,1
137052,-100,4,1,1,60,0,1
137333,-66.6666666666667,4,1,1,60,0,1
137427,-100,4,1,1,60,0,1
141833,-66.6666666666667,4,1,1,60,0,1
141927,-100,4,1,1,60,0,1
142583,-66.6666666666667,4,1,1,60,0,1
142677,-100,4,1,1,60,0,1
143333,-66.6666666666667,4,1,1,60,0,1
143427,-100,4,1,1,60,0,1
143708,-66.6666666666667,4,1,1,60,0,1
143802,-100,4,1,1,60,0,1
144083,-66.6666666666667,4,1,1,60,0,1
144177,-100,4,1,1,60,0,1
144458,-66.6666666666667,4,1,1,60,0,1
144552,-100,4,1,1,60,0,1
144833,-66.6666666666667,4,1,1,60,0,1
144927,-100,4,1,1,60,0,1
148583,-66.6666666666667,4,1,1,60,0,1
148677,-100,4,1,1,60,0,1
148958,-66.6666666666667,4,1,1,60,0,1
149052,-100,4,1,1,60,0,1
149333,-66.6666666666667,4,1,1,60,0,1
149427,-100,4,1,1,60,0,1
155427,-100,4,1,1,60,0,0
155708,-66.6666666666667,4,1,1,60,0,0
155802,-100,4,1,1,60,0,0
158708,-66.6666666666667,4,1,1,60,0,0
158802,-100,4,1,1,60,0,0
167427,-1000,4,1,1,60,0,0
167614,-500,4,1,1,60,0,0
167802,-333.333333333333,4,1,1,60,0,0
167989,-250,4,1,1,60,0,0
168177,-200,4,1,1,60,0,0
168364,-166.666666666667,4,1,1,60,0,0
168552,-142.857142857143,4,1,1,60,0,0
168739,-125,4,1,1,60,0,0
168927,-100,4,1,1,60,0,0
169677,-100,4,1,1,60,0,0

[HitObjects]
448,192,1677,5,0,0:0:0:0:
192,192,1677,1,0,0:0:0:0:
448,192,2989,1,0,0:0:0:0:
192,192,2989,1,0,0:0:0:0:
320,192,3177,1,0,0:0:0:0:
64,192,3177,1,0,0:0:0:0:
64,192,4489,1,0,0:0:0:0:
320,192,4489,1,0,0:0:0:0:
192,192,4677,1,0,0:0:0:0:
448,192,4677,1,0,0:0:0:0:
64,192,5614,1,0,0:0:0:0:
192,192,5802,1,0,0:0:0:0:
320,192,5989,1,0,0:0:0:0:
448,192,6177,1,0,0:0:0:0:
192,192,6364,1,0,0:0:0:0:
64,192,6552,1,0,0:0:0:0:
192,192,6739,1,0,0:0:0:0:
448,192,6927,1,0,0:0:0:0:
64,192,7114,1,0,0:0:0:0:
192,192,7302,1,0,0:0:0:0:
320,192,7489,1,0,0:0:0:0:
448,192,7677,128,0,8052:0:0:0:0:
320,192,8052,128,0,8427:0:0:0:0:
64,192,8427,128,0,8802:0:0:0:0:
448,192,8802,128,0,9177:0:0:0:0:
192,192,9177,128,0,9552:0:0:0:0:
320,192,9552,128,0,9927:0:0:0:0:
64,192,9927,128,0,10302:0:0:0:0:
320,192,10302,128,0,10677:0:0:0:0:
448,192,10677,128,0,11052:0:0:0:0:
192,192,11052,128,0,11427:0:0:0:0:
64,192,11427,128,0,11802:0:0:0:0:
320,192,11802,128,0,12177:0:0:0:0:
448,192,12177,1,0,0:0:0:0:
192,192,12364,1,0,0:0:0:0:
64,192,12552,1,0,0:0:0:0:
448,192,12927,1,0,0:0:0:0:
320,192,13114,1,0,0:0:0:0:
192,192,13302,1,0,0:0:0:0:
64,192,13489,1,0,0:0:0:0:
64,192,13677,1,0,0:0:0:0:
448,192,13677,1,0,0:0:0:0:
320,192,14427,1,0,0:0:0:0:
192,192,14802,1,0,0:0:0:0:
64,192,15177,1,0,0:0:0:0:
320,192,15177,1,0,0:0:0:0:
192,192,15364,1,0,0:0:0:0:
320,192,15552,1,0,0:0:0:0:
64,192,15739,1,0,0:0:0:0:
320,192,15927,1,0,0:0:0:0:
64,192,16114,1,0,0:0:0:0:
192,192,16302,1,0,0:0:0:0:
320,192,16489,1,0,0:0:0:0:
448,192,16677,1,0,0:0:0:0:
192,192,16677,1,0,0:0:0:0:
320,192,17802,1,0,0:0:0:0:
64,192,17989,1,0,0:0:0:0:
192,192,18177,1,0,0:0:0:0:
448,192,18177,1,0,0:0:0:0:
64,192,18552,1,0,0:0:0:0:
320,192,18927,1,0,0:0:0:0:
192,192,19302,1,0,0:0:0:0:
320,192,19489,1,0,0:0:0:0:
448,192,19677,1,0,0:0:0:0:
64,192,19677,1,0,0:0:0:0:
192,192,19677,1,0,0:0:0:0:
192,192,20427,1,0,0:0:0:0:
448,192,20802,1,0,0:0:0:0:
320,192,21177,1,0,0:0:0:0:
192,192,21177,1,0,0:0:0:0:
64,192,21177,1,0,0:0:0:0:
448,192,22114,1,0,0:0:0:0:
64,192,22677,1,0,0:0:0:0:
448,192,22677,1,0,0:0:0:0:
192,192,22864,1,0,0:0:0:0:
448,192,23052,1,0,0:0:0:0:
64,192,23239,1,0,0:0:0:0:
192,192,23427,1,0,0:0:0:0:
320,192,23614,1,0,0:0:0:0:
448,192,23802,1,0,0:0:0:0:
64,192,23989,1,0,0:0:0:0:
192,192,24177,1,0,0:0:0:0:
320,192,24364,1,0,0:0:0:0:
192,192,24552,1,0,0:0:0:0:
320,192,24739,1,0,0:0:0:0:
448,192,24927,1,0,0:0:0:0:
64,192,25114,1,0,0:0:0:0:
192,192,25302,1,0,0:0:0:0:
448,192,25489,1,0,0:0:0:0:
64,192,25677,1,0,0:0:0:0:
320,192,25677,128,0,27927:0:0:0:0:
192,192,28114,1,0,0:0:0:0:
448,192,28302,1,0,0:0:0:0:
320,192,28395,1,0,0:0:0:0:
192,192,28489,1,0,0:0:0:0:
320,192,28583,1,0,0:0:0:0:
64,192,28677,1,4,0:0:0:0:
448,192,28677,1,0,0:0:0:0:
64,192,28864,1,0,0:0:0:0:
448,192,28864,1,0,0:0:0:0:
320,192,28958,1,0,0:0:0:0:
192,192,28958,1,0,0:0:0:0:
448,192,29052,1,8,0:0:0:0:
64,192,29052,1,0,0:0:0:0:
192,192,29239,1,0,0:0:0:0:
448,192,29427,1,0,0:0:0:0:
320,192,29427,1,0,0:0:0:0:
192,192,29614,1,0,0:0:0:0:
64,192,29708,1,0,0:0:0:0:
320,192,29802,1,8,0:0:0:0:
192,192,29989,1,0,0:0:0:0:
448,192,29989,1,0,0:0:0:0:
64,192,30177,1,0,0:0:0:0:
320,192,30177,1,0,0:0:0:0:
448,192,30364,1,0,0:0:0:0:
320,192,30364,1,0,0:0:0:0:
192,192,30458,1,0,0:0:0:0:
64,192,30458,1,0,0:0:0:0:
320,192,30552,1,0,0:0:0:0:
448,192,30552,1,8,0:0:0:0:
64,192,30739,1,0,0:0:0:0:
192,192,30927,1,0,0:0:0:0:
448,192,30927,1,0,0:0:0:0:
64,192,31114,1,0,0:0:0:0:
320,192,31208,1,0,0:0:0:0:
448,192,31302,1,8,0:0:0:0:
64,192,31489,1,0,0:0:0:0:
192,192,31489,1,0,0:0:0:0:
192,192,31677,1,0,0:0:0:0:
448,192,31677,1,0,0:0:0:0:
64,192,31864,1,0,0:0:0:0:
192,192,31864,1,0,0:0:0:0:
320,192,31958,1,0,0:0:0:0:
448,192,31958,1,0,0:0:0:0:
192,192,32052,1,0,0:0:0:0:
64,192,32052,1,8,0:0:0:0:
64,192,32239,1,0,0:0:0:0:
448,192,32427,1,0,0:0:0:0:
192,192,32427,1,0,0:0:0:0:
64,192,32614,1,0,0:0:0:0:
320,192,32708,1,0,0:0:0:0:
192,192,32802,1,0,0:0:0:0:
448,192,32802,1,8,0:0:0:0:
64,192,32989,1,0,0:0:0:0:
448,192,33177,1,0,0:0:0:0:
320,192,33177,1,0,0:0:0:0:
192,192,33364,1,0,0:0:0:0:
448,192,33552,1,0,0:0:0:0:
64,192,33552,1,4,0:0:0:0:
320,192,33739,1,0,0:0:0:0:
448,192,33927,1,4,0:0:0:0:
64,192,33927,1,0,0:0:0:0:
192,192,34114,1,0,0:0:0:0:
320,192,34302,1,0,0:0:0:0:
64,192,34395,1,0,0:0:0:0:
448,192,34489,1,0,0:0:0:0:
192,192,34583,1,0,0:0:0:0:
448,192,34677,1,0,0:0:0:0:
320,192,34677,1,0,0:0:0:0:
64,192,34677,1,4,0:0:0:0:
320,192,34864,1,0,0:0:0:0:
192,192,34958,1,0,0:0:0:0:
448,192,35052,1,8,0:0:0:0:
320,192,35052,1,0,0:0:0:0:
64,192,35239,1,0,0:0:0:0:
192,192,35239,1,0,0:0:0:0:
448,192,35427,1,0,0:0:0:0:
320,192,35427,1,0,0:0:0:0:
192,192,35614,1,0,0:0:0:0:
64,192,35708,1,0,0:0:0:0:
320,192,35708,1,0,0:0:0:0:
448,192,35802,1,8,0:0:0:0:
448,192,35989,1,0,0:0:0:0:
192,192,35989,1,0,0:0:0:0:
64,192,36177,1,0,0:0:0:0:
192,192,36364,1,0,0:0:0:0:
320,192,36458,1,0,0:0:0:0:
192,192,36552,1,0,0:0:0:0:
64,192,36552,1,8,0:0:0:0:
320,192,36739,1,0,0:0:0:0:
448,192,36739,1,0,0:0:0:0:
192,192,36927,1,0,0:0:0:0:
64,192,36927,1,0,0:0:0:0:
320,192,37114,1,0,0:0:0:0:
448,192,37208,1,0,0:0:0:0:
192,192,37208,1,0,0:0:0:0:
64,192,37302,1,8,0:0:0:0:
320,192,37489,1,0,0:0:0:0:
64,192,37489,1,0,0:0:0:0:
192,192,37677,1,0,0:0:0:0:
64,192,37864,1,0,0:0:0:0:
192,192,37958,1,0,0:0:0:0:
320,192,38052,1,0,0:0:0:0:
448,192,38052,1,8,0:0:0:0:
320,192,38239,1,0,0:0:0:0:
64,192,38239,1,0,0:0:0:0:
64,192,38427,1,0,0:0:0:0:
448,192,38427,1,0,0:0:0:0:
64,192,38614,1,0,0:0:0:0:
320,192,38708,1,0,0:0:0:0:
192,192,38708,1,0,0:0:0:0:
448,192,38802,1,8,0:0:0:0:
64,192,38989,1,0,0:0:0:0:
320,192,38989,1,0,0:0:0:0:
448,192,39177,1,0,0:0:0:0:
64,192,39177,1,0,0:0:0:0:
192,192,39364,1,0,0:0:0:0:
320,192,39458,1,0,0:0:0:0:
448,192,39458,1,0,0:0:0:0:
64,192,39552,1,8,0:0:0:0:
192,192,39739,1,0,0:0:0:0:
320,192,39739,1,0,0:0:0:0:
448,192,39927,1,0,0:0:0:0:
64,192,39927,1,0,0:0:0:0:
64,192,40114,1,0,0:0:0:0:
192,192,40302,1,0,0:0:0:0:
320,192,40489,1,0,0:0:0:0:
320,192,40677,128,0,41239:0:0:0:0:
192,192,40677,128,0,41239:0:0:0:0:
448,192,40677,1,4,0:0:0:0:
448,192,41239,1,0,0:0:0:0:
64,192,41427,128,0,41989:0:0:0:0:
320,192,41427,128,0,41989:0:0:0:0:
448,192,41989,1,0,0:0:0:0:
192,192,42177,128,0,42739:0:0:0:0:
64,192,42177,128,0,42739:0:0:0:0:
448,192,42739,1,0,0:0:0:0:
320,192,42833,1,0,0:0:0:0:
448,192,42927,1,0,0:0:0:0:
192,192,42927,1,0,0:0:0:0:
320,192,43114,1,0,0:0:0:0:
192,192,43114,1,0,0:0:0:0:
320,192,43302,1,0,0:0:0:0:
64,192,43302,1,8,0:0:0:0:
192,192,43489,1,0,0:0:0:0:
320,192,43489,1,0,0:0:0:0:
448,192,43677,1,0,0:0:0:0:
192,192,43677,1,0,0:0:0:0:
320,192,43864,1,0,0:0:0:0:
64,192,43864,1,0,0:0:0:0:
64,192,44052,1,0,0:0:0:0:
192,192,44052,1,8,0:0:0:0:
320,192,44239,1,0,0:0:0:0:
192,192,44239,1,0,0:0:0:0:
448,192,44427,1,0,0:0:0:0:
64,192,44427,1,4,0:0:0:0:
320,192,44427,1,0,0:0:0:0:
64,192,44802,1,4,0:0:0:0:
320,192,44802,1,0,0:0:0:0:
448,192,44802,1,0,0:0:0:0:
448,192,45177,128,0,46114:0:0:0:0:
64,192,45177,128,4,46114:0:0:0:0:
64,192,46302,1,0,0:0:0:0:
320,192,46302,1,0,0:0:0:0:
448,192,46489,1,0,0:0:0:0:
192,192,46489,1,0,0:0:0:0:
448,192,46677,128,0,47427:0:0:0:0:
320,192,46677,128,0,47427:0:0:0:0:
192,192,47427,1,0,0:0:0:0:
64,192,47427,1,0,0:0:0:0:
192,192,47802,1,0,0:0:0:0:
64,192,47802,1,0,0:0:0:0:
320,192,47989,1,0,0:0:0:0:
192,192,47989,1,0,0:0:0:0:
448,192,48177,128,0,48927:0:0:0:0:
192,192,48177,128,0,48927:0:0:0:0:
320,192,48927,1,0,0:0:0:0:
64,192,48927,1,0,0:0:0:0:
192,192,49302,1,0,0:0:0:0:
320,192,49489,1,0,0:0:0:0:
448,192,49677,1,4,0:0:0:0:
192,192,49677,1,0,0:0:0:0:
64,192,49677,1,0,0:0:0:0:
192,192,50052,1,0,0:0:0:0:
448,192,50239,1,0,0:0:0:0:
320,192,50427,1,0,0:0:0:0:
192,192,50427,1,0,0:0:0:0:
64,192,50427,1,4,0:0:0:0:
64,192,50802,1,0,0:0:0:0:
192,192,50989,1,0,0:0:0:0:
448,192,51177,1,4,0:0:0:0:
320,192,51177,1,0,0:0:0:0:
64,192,51177,1,0,0:0:0:0:
448,192,51552,1,0,0:0:0:0:
192,192,51552,1,0,0:0:0:0:
64,192,51552,1,4,0:0:0:0:
448,192,51927,1,4,0:0:0:0:
320,192,51927,1,0,0:0:0:0:
64,192,51927,1,0,0:0:0:0:
64,192,52114,1,0,0:0:0:0:
192,192,52302,1,0,0:0:0:0:
320,192,52489,1,0,0:0:0:0:
448,192,52677,1,4,0:0:0:0:
64,192,52677,128,0,53239:0:0:0:0:
320,192,52677,128,0,53239:0:0:0:0:
192,192,53239,1,0,0:0:0:0:
448,192,53239,1,0,0:0:0:0:
320,192,53427,128,0,53989:0:0:0:0:
192,192,53427,128,0,53989:0:0:0:0:
64,192,53989,1,0,0:0:0:0:
448,192,53989,1,0,0:0:0:0:
448,192,54177,128,0,54739:0:0:0:0:
192,192,54177,128,0,54739:0:0:0:0:
64,192,54739,1,0,0:0:0:0:
320,192,54739,1,0,0:0:0:0:
192,192,54833,1,0,0:0:0:0:
448,192,54833,1,0,0:0:0:0:
320,192,54927,1,0,0:0:0:0:
64,192,54927,1,0,0:0:0:0:
448,192,55114,1,8,0:0:0:0:
192,192,55114,1,0,0:0:0:0:
192,192,55302,1,0,0:0:0:0:
64,192,55302,1,8,0:0:0:0:
448,192,55489,1,0,0:0:0:0:
320,192,55489,1,0,0:0:0:0:
320,192,55677,1,0,0:0:0:0:
64,192,55677,1,0,0:0:0:0:
448,192,55864,1,0,0:0:0:0:
64,192,55864,1,0,0:0:0:0:
448,192,56052,1,0,0:0:0:0:
192,192,56052,1,0,0:0:0:0:
320,192,56239,1,0,0:0:0:0:
64,192,56239,1,0,0:0:0:0:
448,192,56427,1,0,0:0:0:0:
192,192,56427,1,0,0:0:0:0:
64,192,56427,1,4,0:0:0:0:
192,192,56614,1,0,0:0:0:0:
448,192,56802,1,4,0:0:0:0:
64,192,56802,1,0,0:0:0:0:
320,192,56802,1,0,0:0:0:0:
320,192,56989,1,0,0:0:0:0:
448,192,57177,1,4,0:0:0:0:
192,192,57270,1,0,0:0:0:0:
448,192,57364,1,0,0:0:0:0:
192,192,57458,1,0,0:0:0:0:
448,192,57552,1,0,0:0:0:0:
192,192,57645,1,0,0:0:0:0:
448,192,57739,1,0,0:0:0:0:
192,192,57833,1,0,0:0:0:0:
448,192,57927,128,0,58302:0:0:0:0:
64,192,58302,1,0,0:0:0:0:
320,192,58302,1,0,0:0:0:0:
192,192,58489,1,0,0:0:0:0:
448,192,58489,1,0,0:0:0:0:
448,192,58677,128,0,59427:0:0:0:0:
192,192,58677,128,0,59427:0:0:0:0:
64,192,59427,1,0,0:0:0:0:
320,192,59427,1,0,0:0:0:0:
192,192,59802,1,0,0:0:0:0:
320,192,59802,1,0,0:0:0:0:
448,192,59989,1,0,0:0:0:0:
64,192,59989,1,0,0:0:0:0:
64,192,60177,128,0,60927:0:0:0:0:
448,192,60177,128,0,60927:0:0:0:0:
320,192,60927,1,0,0:0:0:0:
192,192,60927,1,0,0:0:0:0:
64,192,61302,1,0,0:0:0:0:
320,192,61302,1,0,0:0:0:0:
320,192,61489,1,0,0:0:0:0:
192,192,61489,1,0,0:0:0:0:
448,192,61677,1,4,0:0:0:0:
192,192,61677,1,0,0:0:0:0:
64,192,61677,1,0,0:0:0:0:
320,192,61864,1,0,0:0:0:0:
448,192,62052,1,0,0:0:0:0:
192,192,62052,1,8,0:0:0:0:
64,192,62239,1,0,0:0:0:0:
448,192,62239,1,0,0:0:0:0:
320,192,62427,1,0,0:0:0:0:
192,192,62427,1,0,0:0:0:0:
64,192,62427,1,4,0:0:0:0:
448,192,62614,1,0,0:0:0:0:
64,192,62802,1,0,0:0:0:0:
320,192,62802,1,8,0:0:0:0:
448,192,62989,1,0,0:0:0:0:
64,192,62989,1,0,0:0:0:0:
448,192,63177,1,4,0:0:0:0:
320,192,63177,1,0,0:0:0:0:
192,192,63177,1,0,0:0:0:0:
64,192,63270,1,0,0:0:0:0:
192,192,63364,1,0,0:0:0:0:
320,192,63458,1,0,0:0:0:0:
448,192,63552,1,8,0:0:0:0:
64,192,63552,1,4,0:0:0:0:
320,192,63645,1,0,0:0:0:0:
192,192,63739,1,0,0:0:0:0:
320,192,63833,1,0,0:0:0:0:
192,192,63927,1,0,0:0:0:0:
64,192,63927,1,0,0:0:0:0:
448,192,63927,1,4,0:0:0:0:
320,192,64114,128,0,64302:0:0:0:0:
192,192,64302,128,0,64489:0:0:0:0:
320,192,64489,128,0,64677:0:0:0:0:
448,192,64677,1,0,0:0:0:0:
64,192,64677,1,4,0:0:0:0:
192,192,64770,1,0,0:0:0:0:
320,192,64864,1,2,0:0:0:0:
64,192,64958,1,0,0:0:0:0:
320,192,65052,1,8,0:0:0:0:
448,192,65145,1,0,0:0:0:0:
192,192,65239,1,2,0:0:0:0:
320,192,65333,1,0,0:0:0:0:
64,192,65427,1,0,0:0:0:0:
448,192,65520,1,0,0:0:0:0:
320,192,65614,1,2,0:0:0:0:
192,192,65708,1,0,0:0:0:0:
448,192,65802,1,8,0:0:0:0:
64,192,65895,1,0,0:0:0:0:
192,192,65989,1,2,0:0:0:0:
320,192,66083,1,0,0:0:0:0:
192,192,66177,1,0,0:0:0:0:
448,192,66270,1,0,0:0:0:0:
64,192,66364,1,2,0:0:0:0:
320,192,66458,1,0,0:0:0:0:
192,192,66552,1,8,0:0:0:0:
448,192,66645,1,0,0:0:0:0:
320,192,66739,1,2,0:0:0:0:
448,192,66833,1,0,0:0:0:0:
192,192,66927,1,0,0:0:0:0:
320,192,67020,1,0,0:0:0:0:
192,192,67114,1,2,0:0:0:0:
448,192,67208,1,0,0:0:0:0:
64,192,67302,1,8,0:0:0:0:
320,192,67395,1,0,0:0:0:0:
192,192,67489,1,2,0:0:0:0:
448,192,67583,1,0,0:0:0:0:
64,192,67677,1,0,0:0:0:0:
320,192,67770,1,0,0:0:0:0:
192,192,67864,1,2,0:0:0:0:
64,192,67958,1,0,0:0:0:0:
320,192,68052,1,8,0:0:0:0:
192,192,68145,1,0,0:0:0:0:
448,192,68239,1,2,0:0:0:0:
192,192,68333,1,0,0:0:0:0:
320,192,68427,1,0,0:0:0:0:
64,192,68520,1,0,0:0:0:0:
192,192,68614,1,2,0:0:0:0:
320,192,68708,1,0,0:0:0:0:
192,192,68802,1,8,0:0:0:0:
320,192,68895,1,0,0:0:0:0:
448,192,68989,1,2,0:0:0:0:
192,192,69083,1,0,0:0:0:0:
448,192,69177,128,0,69364:0:0:0:0:
192,192,69364,128,2,69552:0:0:0:0:
64,192,69552,128,8,69739:0:0:0:0:
448,192,69739,128,2,69927:0:0:0:0:
192,192,69927,1,0,0:0:0:0:
64,192,70020,1,0,0:0:0:0:
192,192,70114,1,2,0:0:0:0:
320,192,70208,1,0,0:0:0:0:
448,192,70302,1,8,0:0:0:0:
320,192,70395,1,0,0:0:0:0:
192,192,70489,1,2,0:0:0:0:
64,192,70583,1,0,0:0:0:0:
192,192,70677,1,4,0:0:0:0:
448,192,70677,1,0,0:0:0:0:
320,192,70770,1,0,0:0:0:0:
64,192,70864,1,2,0:0:0:0:
192,192,70958,1,0,0:0:0:0:
320,192,71052,1,8,0:0:0:0:
448,192,71145,1,0,0:0:0:0:
192,192,71239,1,2,0:0:0:0:
320,192,71333,1,0,0:0:0:0:
64,192,71427,1,0,0:0:0:0:
448,192,71520,1,0,0:0:0:0:
192,192,71614,1,2,0:0:0:0:
320,192,71708,1,0,0:0:0:0:
448,192,71802,1,8,0:0:0:0:
320,192,71895,1,0,0:0:0:0:
64,192,71989,1,2,0:0:0:0:
192,192,72083,1,0,0:0:0:0:
448,192,72177,1,0,0:0:0:0:
192,192,72270,1,0,0:0:0:0:
64,192,72364,1,2,0:0:0:0:
320,192,72458,1,0,0:0:0:0:
192,192,72552,1,8,0:0:0:0:
448,192,72645,1,0,0:0:0:0:
320,192,72739,1,2,0:0:0:0:
64,192,72833,1,0,0:0:0:0:
192,192,72927,1,0,0:0:0:0:
448,192,73020,1,0,0:0:0:0:
64,192,73114,1,2,0:0:0:0:
320,192,73208,1,0,0:0:0:0:
192,192,73302,1,8,0:0:0:0:
320,192,73395,1,0,0:0:0:0:
448,192,73489,1,2,0:0:0:0:
64,192,73583,1,0,0:0:0:0:
320,192,73677,1,0,0:0:0:0:
192,192,73770,1,0,0:0:0:0:
448,192,73864,1,2,0:0:0:0:
320,192,73958,1,0,0:0:0:0:
64,192,74052,1,8,0:0:0:0:
192,192,74145,1,0,0:0:0:0:
448,192,74239,1,2,0:0:0:0:
320,192,74333,1,0,0:0:0:0:
64,192,74427,1,0,0:0:0:0:
192,192,74520,1,0,0:0:0:0:
320,192,74614,1,2,0:0:0:0:
64,192,74708,1,0,0:0:0:0:
192,192,74802,1,8,0:0:0:0:
320,192,74895,1,0,0:0:0:0:
192,192,74989,1,2,0:0:0:0:
320,192,75083,1,0,0:0:0:0:
64,192,75177,1,0,0:0:0:0:
448,192,75270,1,0,0:0:0:0:
192,192,75364,1,0,0:0:0:0:
320,192,75458,1,0,0:0:0:0:
64,192,75552,1,0,0:0:0:0:
448,192,75645,1,0,0:0:0:0:
192,192,75739,1,0,0:0:0:0:
320,192,75833,1,0,0:0:0:0:
448,192,75927,1,0,0:0:0:0:
320,192,76020,1,0,0:0:0:0:
192,192,76114,1,0,0:0:0:0:
64,192,76208,1,0,0:0:0:0:
448,192,76302,1,0,0:0:0:0:
192,192,76395,1,0,0:0:0:0:
320,192,76489,1,0,0:0:0:0:
192,192,76583,1,0,0:0:0:0:
64,192,76677,1,4,0:0:0:0:
448,192,76677,128,0,76864:0:0:0:0:
320,192,76864,128,0,77052:0:0:0:0:
192,192,77052,128,0,77239:0:0:0:0:
448,192,77239,1,4,0:0:0:0:
320,192,77239,128,0,77427:0:0:0:0:
192,192,77427,128,0,77614:0:0:0:0:
64,192,77614,128,0,77802:0:0:0:0:
320,192,77802,128,0,77989:0:0:0:0:
448,192,77802,1,4,0:0:0:0:
192,192,77989,128,0,78177:0:0:0:0:
64,192,78177,1,0,0:0:0:0:
448,192,78177,1,4,0:0:0:0:
192,192,78270,1,0,0:0:0:0:
320,192,78364,1,0,0:0:0:0:
448,192,78458,1,0,0:0:0:0:
64,192,78552,1,0,0:0:0:0:
320,192,78645,1,0,0:0:0:0:
192,192,78739,1,0,0:0:0:0:
320,192,78833,1,0,0:0:0:0:
448,192,78927,1,0,0:0:0:0:
320,192,79020,1,0,0:0:0:0:
192,192,79114,1,0,0:0:0:0:
448,192,79208,1,0,0:0:0:0:
320,192,79302,1,0,0:0:0:0:
64,192,79395,1,0,0:0:0:0:
448,192,79489,1,0,0:0:0:0:
192,192,79583,1,0,0:0:0:0:
64,192,79677,1,4,0:0:0:0:
320,192,79677,128,0,79864:0:0:0:0:
192,192,79864,128,0,80052:0:0:0:0:
64,192,80052,128,0,80239:0:0:0:0:
448,192,80239,128,0,80427:0:0:0:0:
192,192,80239,1,4,0:0:0:0:
320,192,80427,128,0,80614:0:0:0:0:
192,192,80614,128,0,80802:0:0:0:0:
64,192,80802,128,0,80989:0:0:0:0:
448,192,80802,1,4,0:0:0:0:
320,192,80989,128,0,81177:0:0:0:0:
448,192,81177,1,4,0:0:0:0:
64,192,81177,1,0,0:0:0:0:
192,192,81270,1,0,0:0:0:0:
320,192,81364,1,0,0:0:0:0:
192,192,81458,1,0,0:0:0:0:
448,192,81552,1,0,0:0:0:0:
320,192,81645,1,0,0:0:0:0:
192,192,81739,1,0,0:0:0:0:
64,192,81833,1,0,0:0:0:0:
320,192,81927,1,0,0:0:0:0:
192,192,82020,1,0,0:0:0:0:
448,192,82114,1,0,0:0:0:0:
64,192,82208,1,0,0:0:0:0:
192,192,82302,1,0,0:0:0:0:
320,192,82395,1,0,0:0:0:0:
448,192,82489,1,0,0:0:0:0:
320,192,82583,1,0,0:0:0:0:
64,192,82677,1,4,0:0:0:0:
448,192,82677,1,0,0:0:0:0:
320,192,82864,1,0,0:0:0:0:
192,192,82864,1,2,0:0:0:0:
448,192,83052,1,0,0:0:0:0:
192,192,83052,1,8,0:0:0:0:
320,192,83239,1,2,0:0:0:0:
64,192,83239,1,0,0:0:0:0:
448,192,83427,1,0,0:0:0:0:
320,192,83427,1,0,0:0:0:0:
192,192,83614,1,2,0:0:0:0:
64,192,83614,1,0,0:0:0:0:
448,192,83802,1,8,0:0:0:0:
192,192,83802,1,0,0:0:0:0:
320,192,83989,1,2,0:0:0:0:
64,192,83989,1,0,0:0:0:0:
64,192,84177,1,4,0:0:0:0:
192,192,84177,1,0,0:0:0:0:
448,192,84177,1,0,0:0:0:0:
320,192,84364,1,2,0:0:0:0:
192,192,84364,1,0,0:0:0:0:
448,192,84552,1,0,0:0:0:0:
64,192,84552,1,8,0:0:0:0:
192,192,84739,1,2,0:0:0:0:
448,192,84739,1,0,0:0:0:0:
320,192,84833,1,0,0:0:0:0:
448,192,84927,1,4,0:0:0:0:
192,192,84927,1,0,0:0:0:0:
64,192,84927,1,0,0:0:0:0:
320,192,85114,1,2,0:0:0:0:
64,192,85114,1,0,0:0:0:0:
448,192,85302,1,8,0:0:0:0:
192,192,85302,1,0,0:0:0:0:
320,192,85489,1,2,0:0:0:0:
64,192,85489,1,0,0:0:0:0:
448,192,85677,1,0,0:0:0:0:
192,192,85677,1,0,0:0:0:0:
64,192,85677,1,4,0:0:0:0:
320,192,85864,1,0,0:0:0:0:
320,192,86052,1,0,0:0:0:0:
320,192,86239,1,4,0:0:0:0:
64,192,86239,1,0,0:0:0:0:
448,192,86239,1,0,0:0:0:0:
192,192,86427,1,0,0:0:0:0:
192,192,86614,1,0,0:0:0:0:
320,192,86802,1,0,0:0:0:0:
192,192,86802,1,4,0:0:0:0:
64,192,86802,1,0,0:0:0:0:
448,192,86989,1,0,0:0:0:0:
448,192,87177,1,0,0:0:0:0:
448,192,87364,1,4,0:0:0:0:
320,192,87364,1,0,0:0:0:0:
192,192,87364,1,0,0:0:0:0:
64,192,87552,1,0,0:0:0:0:
64,192,87739,1,0,0:0:0:0:
192,192,87833,1,0,0:0:0:0:
448,192,87927,1,0,0:0:0:0:
64,192,87927,1,4,0:0:0:0:
320,192,87927,1,0,0:0:0:0:
192,192,88114,1,0,0:0:0:0:
448,192,88302,1,0,0:0:0:0:
64,192,88302,1,0,0:0:0:0:
192,192,88302,1,4,0:0:0:0:
320,192,88489,1,0,0:0:0:0:
448,192,88677,1,0,0:0:0:0:
320,192,88677,1,4,0:0:0:0:
192,192,88677,1,0,0:0:0:0:
64,192,88864,1,0,0:0:0:0:
64,192,89052,1,0,0:0:0:0:
320,192,89239,1,0,0:0:0:0:
192,192,89239,1,0,0:0:0:0:
64,192,89239,1,4,0:0:0:0:
448,192,89427,1,0,0:0:0:0:
448,192,89614,1,0,0:0:0:0:
448,192,89802,1,4,0:0:0:0:
192,192,89802,1,0,0:0:0:0:
64,192,89802,1,0,0:0:0:0:
320,192,89989,1,0,0:0:0:0:
320,192,90177,1,0,0:0:0:0:
448,192,90364,1,0,0:0:0:0:
320,192,90364,1,4,0:0:0:0:
64,192,90364,1,0,0:0:0:0:
192,192,90552,1,0,0:0:0:0:
192,192,90739,1,0,0:0:0:0:
64,192,90833,1,0,0:0:0:0:
192,192,90927,1,4,0:0:0:0:
320,192,90927,1,0,0:0:0:0:
448,192,90927,1,0,0:0:0:0:
64,192,91114,1,0,0:0:0:0:
320,192,91302,1,0,0:0:0:0:
192,192,91302,1,0,0:0:0:0:
64,192,91302,1,4,0:0:0:0:
448,192,91489,1,0,0:0:0:0:
64,192,91677,1,0,0:0:0:0:
320,192,91677,1,0,0:0:0:0:
448,192,91677,1,4,0:0:0:0:
192,192,91770,1,0,0:0:0:0:
320,192,91864,1,2,0:0:0:0:
448,192,91958,1,0,0:0:0:0:
64,192,92052,1,8,0:0:0:0:
192,192,92145,1,0,0:0:0:0:
320,192,92239,1,2,0:0:0:0:
448,192,92333,1,0,0:0:0:0:
64,192,92427,1,0,0:0:0:0:
192,192,92520,1,0,0:0:0:0:
320,192,92614,1,2,0:0:0:0:
448,192,92708,1,0,0:0:0:0:
64,192,92802,1,8,0:0:0:0:
192,192,92895,1,0,0:0:0:0:
320,192,92989,1,2,0:0:0:0:
448,192,93083,1,0,0:0:0:0:
320,192,93177,1,0,0:0:0:0:
192,192,93270,1,0,0:0:0:0:
64,192,93364,1,2,0:0:0:0:
448,192,93458,1,0,0:0:0:0:
320,192,93552,1,8,0:0:0:0:
192,192,93645,1,0,0:0:0:0:
64,192,93739,1,2,0:0:0:0:
448,192,93833,1,0,0:0:0:0:
320,192,93927,1,0,0:0:0:0:
192,192,94020,1,0,0:0:0:0:
64,192,94114,1,2,0:0:0:0:
448,192,94208,1,0,0:0:0:0:
320,192,94302,1,8,0:0:0:0:
192,192,94395,1,0,0:0:0:0:
64,192,94489,1,2,0:0:0:0:
448,192,94583,1,0,0:0:0:0:
320,192,94677,1,0,0:0:0:0:
448,192,94770,1,0,0:0:0:0:
64,192,94864,1,2,0:0:0:0:
192,192,94958,1,0,0:0:0:0:
320,192,95052,1,8,0:0:0:0:
448,192,95145,1,0,0:0:0:0:
64,192,95239,1,2,0:0:0:0:
192,192,95333,1,0,0:0:0:0:
320,192,95427,1,0,0:0:0:0:
448,192,95520,1,0,0:0:0:0:
64,192,95614,1,2,0:0:0:0:
192,192,95708,1,0,0:0:0:0:
320,192,95802,1,8,0:0:0:0:
448,192,95895,1,0,0:0:0:0:
64,192,95989,1,2,0:0:0:0:
192,192,96083,1,0,0:0:0:0:
320,192,96177,1,0,0:0:0:0:
192,192,96270,1,0,0:0:0:0:
64,192,96364,1,2,0:0:0:0:
192,192,96458,1,0,0:0:0:0:
320,192,96552,1,8,0:0:0:0:
448,192,96645,1,0,0:0:0:0:
192,192,96739,1,2,0:0:0:0:
320,192,96833,1,0,0:0:0:0:
64,192,96927,1,0,0:0:0:0:
192,192,97020,1,0,0:0:0:0:
448,192,97114,1,10,0:0:0:0:
192,192,97208,1,0,0:0:0:0:
320,192,97302,1,8,0:0:0:0:
64,192,97395,1,0,0:0:0:0:
192,192,97489,1,2,0:0:0:0:
448,192,97583,1,0,0:0:0:0:
320,192,97677,1,0,0:0:0:0:
64,192,97770,1,0,0:0:0:0:
448,192,97864,1,2,0:0:0:0:
192,192,97958,1,0,0:0:0:0:
320,192,98052,1,8,0:0:0:0:
64,192,98145,1,0,0:0:0:0:
448,192,98239,1,2,0:0:0:0:
192,192,98333,1,0,0:0:0:0:
320,192,98427,1,0,0:0:0:0:
64,192,98520,1,0,0:0:0:0:
448,192,98614,1,2,0:0:0:0:
192,192,98708,1,0,0:0:0:0:
320,192,98802,1,8,0:0:0:0:
448,192,98895,1,0,0:0:0:0:
64,192,98989,1,2,0:0:0:0:
192,192,99083,1,0,0:0:0:0:
320,192,99177,1,0,0:0:0:0:
64,192,99270,1,0,0:0:0:0:
448,192,99364,1,2,0:0:0:0:
192,192,99458,1,0,0:0:0:0:
320,192,99552,1,8,0:0:0:0:
64,192,99645,1,0,0:0:0:0:
448,192,99739,1,2,0:0:0:0:
192,192,99833,1,0,0:0:0:0:
448,192,99927,1,0,0:0:0:0:
320,192,100020,1,0,0:0:0:0:
64,192,100114,1,2,0:0:0:0:
320,192,100208,1,0,0:0:0:0:
192,192,100302,1,8,0:0:0:0:
448,192,100395,1,0,0:0:0:0:
192,192,100489,1,2,0:0:0:0:
320,192,100583,1,0,0:0:0:0:
448,192,100677,1,0,0:0:0:0:
320,192,100770,1,0,0:0:0:0:
64,192,100864,1,2,0:0:0:0:
192,192,100958,1,0,0:0:0:0:
64,192,101052,1,8,0:0:0:0:
192,192,101145,1,0,0:0:0:0:
448,192,101239,1,2,0:0:0:0:
320,192,101333,1,0,0:0:0:0:
64,192,101427,1,0,0:0:0:0:
192,192,101520,1,0,0:0:0:0:
448,192,101614,1,2,0:0:0:0:
320,192,101708,1,0,0:0:0:0:
64,192,101802,1,8,0:0:0:0:
192,192,101895,1,0,0:0:0:0:
448,192,101989,1,2,0:0:0:0:
320,192,102083,1,0,0:0:0:0:
192,192,102177,1,0,0:0:0:0:
448,192,102270,1,0,0:0:0:0:
64,192,102364,1,2,0:0:0:0:
320,192,102458,1,0,0:0:0:0:
192,192,102552,1,8,0:0:0:0:
320,192,102645,1,0,0:0:0:0:
448,192,102739,1,2,0:0:0:0:
192,192,102833,1,0,0:0:0:0:
320,192,102927,1,0,0:0:0:0:
64,192,103020,1,0,0:0:0:0:
192,192,103114,1,10,0:0:0:0:
448,192,103208,1,0,0:0:0:0:
320,192,103302,1,8,0:0:0:0:
192,192,103395,1,0,0:0:0:0:
448,192,103489,1,2,0:0:0:0:
320,192,103583,1,0,0:0:0:0:
448,192,103677,1,0,0:0:0:0:
64,192,103677,1,4,0:0:0:0:
192,192,103677,1,0,0:0:0:0:
320,192,103770,1,0,0:0:0:0:
64,192,103864,1,0,0:0:0:0:
320,192,103958,1,0,0:0:0:0:
192,192,104052,1,0,0:0:0:0:
448,192,104145,1,0,0:0:0:0:
320,192,104239,1,0,0:0:0:0:
448,192,104333,1,0,0:0:0:0:
192,192,104427,1,0,0:0:0:0:
320,192,104520,1,0,0:0:0:0:
64,192,104614,1,0,0:0:0:0:
448,192,104708,1,0,0:0:0:0:
192,192,104802,1,0,0:0:0:0:
320,192,104895,1,0,0:0:0:0:
64,192,104989,1,0,0:0:0:0:
448,192,105083,1,0,0:0:0:0:
192,192,105177,1,0,0:0:0:0:
320,192,105270,1,0,0:0:0:0:
64,192,105364,1,0,0:0:0:0:
448,192,105458,1,0,0:0:0:0:
192,192,105552,1,0,0:0:0:0:
448,192,105645,1,0,0:0:0:0:
64,192,105739,1,0,0:0:0:0:
320,192,105833,1,0,0:0:0:0:
192,192,105927,1,0,0:0:0:0:
320,192,106020,1,0,0:0:0:0:
64,192,106114,1,0,0:0:0:0:
192,192,106208,1,0,0:0:0:0:
448,192,106302,1,0,0:0:0:0:
192,192,106395,1,0,0:0:0:0:
320,192,106489,1,0,0:0:0:0:
192,192,106583,1,0,0:0:0:0:
64,192,106677,1,0,0:0:0:0:
192,192,106770,1,0,0:0:0:0:
320,192,106864,1,0,0:0:0:0:
64,192,106958,1,0,0:0:0:0:
192,192,107052,1,0,0:0:0:0:
320,192,107145,1,0,0:0:0:0:
192,192,107239,1,0,0:0:0:0:
320,192,107333,1,0,0:0:0:0:
448,192,107427,1,0,0:0:0:0:
320,192,107520,1,0,0:0:0:0:
192,192,107614,1,0,0:0:0:0:
320,192,107708,1,0,0:0:0:0:
192,192,107802,1,0,0:0:0:0:
64,192,107895,1,0,0:0:0:0:
448,192,107989,1,0,0:0:0:0:
192,192,108083,1,0,0:0:0:0:
64,192,108177,1,0,0:0:0:0:
192,192,108270,1,0,0:0:0:0:
448,192,108364,1,0,0:0:0:0:
64,192,108458,1,0,0:0:0:0:
192,192,108552,1,0,0:0:0:0:
320,192,108645,1,0,0:0:0:0:
192,192,108739,1,0,0:0:0:0:
320,192,108833,1,0,0:0:0:0:
448,192,108927,1,0,0:0:0:0:
320,192,109020,1,0,0:0:0:0:
64,192,109114,1,0,0:0:0:0:
448,192,109208,1,0,0:0:0:0:
192,192,109302,1,0,0:0:0:0:
64,192,109395,1,0,0:0:0:0:
448,192,109489,1,0,0:0:0:0:
320,192,109583,1,0,0:0:0:0:
64,192,109677,1,0,0:0:0:0:
448,192,109770,1,0,0:0:0:0:
64,192,109864,1,0,0:0:0:0:
320,192,109958,1,0,0:0:0:0:
192,192,110052,1,0,0:0:0:0:
320,192,110145,1,0,0:0:0:0:
64,192,110239,1,0,0:0:0:0:
192,192,110333,1,0,0:0:0:0:
448,192,110427,1,0,0:0:0:0:
320,192,110520,1,0,0:0:0:0:
448,192,110614,1,0,0:0:0:0:
192,192,110708,1,0,0:0:0:0:
320,192,110802,1,0,0:0:0:0:
192,192,110895,1,0,0:0:0:0:
448,192,110989,1,0,0:0:0:0:
64,192,111083,1,0,0:0:0:0:
320,192,111177,1,0,0:0:0:0:
192,192,111270,1,0,0:0:0:0:
448,192,111364,1,0,0:0:0:0:
64,192,111458,1,0,0:0:0:0:
320,192,111552,1,0,0:0:0:0:
192,192,111645,1,0,0:0:0:0:
448,192,111739,1,0,0:0:0:0:
320,192,111833,1,0,0:0:0:0:
448,192,111927,1,0,0:0:0:0:
192,192,112020,1,0,0:0:0:0:
320,192,112114,1,0,0:0:0:0:
192,192,112208,1,0,0:0:0:0:
64,192,112302,1,0,0:0:0:0:
320,192,112395,1,0,0:0:0:0:
192,192,112489,1,0,0:0:0:0:
64,192,112583,1,0,0:0:0:0:
192,192,112677,1,0,0:0:0:0:
448,192,112770,1,0,0:0:0:0:
192,192,112864,1,0,0:0:0:0:
448,192,112958,1,0,0:0:0:0:
64,192,113052,1,0,0:0:0:0:
192,192,113145,1,0,0:0:0:0:
320,192,113239,1,0,0:0:0:0:
192,192,113333,1,0,0:0:0:0:
448,192,113427,1,0,0:0:0:0:
64,192,113520,1,0,0:0:0:0:
448,192,113614,1,0,0:0:0:0:
320,192,113708,1,0,0:0:0:0:
192,192,113802,1,0,0:0:0:0:
448,192,113895,1,0,0:0:0:0:
192,192,113989,1,0,0:0:0:0:
64,192,114083,1,0,0:0:0:0:
448,192,114177,1,0,0:0:0:0:
192,192,114270,1,0,0:0:0:0:
320,192,114364,1,0,0:0:0:0:
448,192,114458,1,0,0:0:0:0:
192,192,114552,1,0,0:0:0:0:
320,192,114645,1,0,0:0:0:0:
64,192,114739,1,0,0:0:0:0:
320,192,114833,1,0,0:0:0:0:
192,192,114927,1,0,0:0:0:0:
448,192,115020,1,0,0:0:0:0:
64,192,115114,1,0,0:0:0:0:
320,192,115208,1,0,0:0:0:0:
64,192,115302,1,0,0:0:0:0:
192,192,115395,1,0,0:0:0:0:
448,192,115489,1,0,0:0:0:0:
320,192,115583,1,0,0:0:0:0:
64,192,115677,1,4,0:0:0:0:
192,192,115677,1,0,0:0:0:0:
448,192,115770,1,0,0:0:0:0:
192,192,115864,1,2,0:0:0:0:
320,192,115958,1,0,0:0:0:0:
64,192,116052,1,8,0:0:0:0:
320,192,116145,1,0,0:0:0:0:
192,192,116239,1,2,0:0:0:0:
320,192,116333,1,0,0:0:0:0:
448,192,116427,1,0,0:0:0:0:
192,192,116520,1,0,0:0:0:0:
320,192,116614,1,2,0:0:0:0:
64,192,116708,1,0,0:0:0:0:
448,192,116802,1,8,0:0:0:0:
192,192,116895,1,0,0:0:0:0:
320,192,116989,1,2,0:0:0:0:
64,192,117083,1,0,0:0:0:0:
448,192,117177,1,0,0:0:0:0:
192,192,117270,1,0,0:0:0:0:
448,192,117364,1,2,0:0:0:0:
320,192,117458,1,0,0:0:0:0:
64,192,117552,1,8,0:0:0:0:
192,192,117645,1,0,0:0:0:0:
448,192,117739,1,2,0:0:0:0:
192,192,117833,1,0,0:0:0:0:
320,192,117927,1,0,0:0:0:0:
64,192,118020,1,0,0:0:0:0:
448,192,118114,1,2,0:0:0:0:
192,192,118208,1,0,0:0:0:0:
320,192,118302,1,8,0:0:0:0:
64,192,118395,1,0,0:0:0:0:
448,192,118489,1,2,0:0:0:0:
192,192,118583,1,0,0:0:0:0:
320,192,118677,1,0,0:0:0:0:
64,192,118770,1,0,0:0:0:0:
448,192,118864,1,2,0:0:0:0:
192,192,118958,1,0,0:0:0:0:
448,192,119052,1,8,0:0:0:0:
64,192,119145,1,0,0:0:0:0:
320,192,119239,1,2,0:0:0:0:
448,192,119333,1,0,0:0:0:0:
192,192,119427,1,0,0:0:0:0:
64,192,119520,1,0,0:0:0:0:
448,192,119614,1,2,0:0:0:0:
320,192,119708,1,0,0:0:0:0:
64,192,119802,1,8,0:0:0:0:
192,192,119895,1,0,0:0:0:0:
448,192,119989,1,2,0:0:0:0:
64,192,120083,1,0,0:0:0:0:
192,192,120177,1,0,0:0:0:0:
448,192,120270,1,0,0:0:0:0:
192,192,120364,1,2,0:0:0:0:
320,192,120458,1,0,0:0:0:0:
64,192,120552,1,8,0:0:0:0:
448,192,120645,1,0,0:0:0:0:
192,192,120739,1,2,0:0:0:0:
320,192,120833,1,0,0:0:0:0:
448,192,120927,1,0,0:0:0:0:
320,192,121020,1,0,0:0:0:0:
192,192,121114,1,2,0:0:0:0:
64,192,121208,1,0,0:0:0:0:
320,192,121302,1,8,0:0:0:0:
64,192,121395,1,0,0:0:0:0:
448,192,121489,1,2,0:0:0:0:
192,192,121583,1,0,0:0:0:0:
448,192,121677,1,0,0:0:0:0:
320,192,121770,1,0,0:0:0:0:
448,192,121864,1,2,0:0:0:0:
64,192,121958,1,0,0:0:0:0:
320,192,122052,1,8,0:0:0:0:
192,192,122145,1,0,0:0:0:0:
448,192,122239,1,2,0:0:0:0:
64,192,122333,1,0,0:0:0:0:
320,192,122427,1,0,0:0:0:0:
64,192,122520,1,0,0:0:0:0:
192,192,122614,1,2,0:0:0:0:
448,192,122708,1,0,0:0:0:0:
320,192,122802,1,8,0:0:0:0:
64,192,122895,1,0,0:0:0:0:
448,192,122989,1,2,0:0:0:0:
192,192,123083,1,0,0:0:0:0:
320,192,123177,1,0,0:0:0:0:
64,192,123270,1,0,0:0:0:0:
320,192,123364,1,2,0:0:0:0:
192,192,123458,1,0,0:0:0:0:
448,192,123552,1,8,0:0:0:0:
64,192,123645,1,0,0:0:0:0:
192,192,123739,1,2,0:0:0:0:
320,192,123833,1,0,0:0:0:0:
448,192,123927,1,0,0:0:0:0:
192,192,124020,1,0,0:0:0:0:
320,192,124114,1,2,0:0:0:0:
64,192,124208,1,0,0:0:0:0:
448,192,124302,1,8,0:0:0:0:
320,192,124395,1,0,0:0:0:0:
192,192,124489,1,2,0:0:0:0:
64,192,124583,1,0,0:0:0:0:
448,192,124677,128,0,125052:0:0:0:0:
192,192,124677,1,0,0:0:0:0:
320,192,124770,1,0,0:0:0:0:
64,192,124864,1,2,0:0:0:0:
192,192,124958,1,0,0:0:0:0:
64,192,125052,128,0,127677:0:0:0:0:
320,192,125052,1,8,0:0:0:0:
192,192,125145,1,0,0:0:0:0:
448,192,125239,1,2,0:0:0:0:
320,192,125333,1,0,0:0:0:0:
192,192,125427,1,0,0:0:0:0:
448,192,125520,1,0,0:0:0:0:
192,192,125614,1,2,0:0:0:0:
448,192,125708,1,0,0:0:0:0:
320,192,125802,1,8,0:0:0:0:
448,192,125895,1,0,0:0:0:0:
192,192,125989,1,2,0:0:0:0:
320,192,126083,1,0,0:0:0:0:
192,192,126177,1,0,0:0:0:0:
448,192,126270,1,0,0:0:0:0:
320,192,126364,1,2,0:0:0:0:
192,192,126458,1,0,0:0:0:0:
448,192,126552,1,8,0:0:0:0:
192,192,126645,1,0,0:0:0:0:
320,192,126739,1,2,0:0:0:0:
448,192,126833,1,0,0:0:0:0:
320,192,126927,1,0,0:0:0:0:
448,192,127020,1,0,0:0:0:0:
320,192,127114,1,2,0:0:0:0:
192,192,127208,1,0,0:0:0:0:
320,192,127302,1,8,0:0:0:0:
448,192,127395,1,0,0:0:0:0:
320,192,127489,1,2,0:0:0:0:
192,192,127583,1,0,0:0:0:0:
448,192,127677,1,0,0:0:0:0:
192,192,127770,1,0,0:0:0:0:
320,192,127864,1,2,0:0:0:0:
64,192,127958,1,0,0:0:0:0:
192,192,128052,1,8,0:0:0:0:
448,192,128145,1,0,0:0:0:0:
192,192,128239,1,2,0:0:0:0:
320,192,128333,1,0,0:0:0:0:
64,192,128427,1,0,0:0:0:0:
448,192,128520,1,0,0:0:0:0:
192,192,128614,1,2,0:0:0:0:
320,192,128708,1,0,0:0:0:0:
192,192,128802,1,8,0:0:0:0:
448,192,128895,1,0,0:0:0:0:
320,192,128989,1,2,0:0:0:0:
64,192,129083,1,0,0:0:0:0:
192,192,129177,1,8,0:0:0:0:
320,192,129270,1,0,0:0:0:0:
192,192,129364,1,0,0:0:0:0:
320,192,129458,1,0,0:0:0:0:
64,192,129552,1,8,0:0:0:0:
192,192,129645,1,0,0:0:0:0:
320,192,129739,1,8,0:0:0:0:
192,192,129833,1,0,0:0:0:0:
448,192,129927,1,0,0:0:0:0:
320,192,130020,1,0,0:0:0:0:
192,192,130114,1,8,0:0:0:0:
64,192,130208,1,0,0:0:0:0:
448,192,130302,1,0,0:0:0:0:
192,192,130395,1,0,0:0:0:0:
320,192,130489,1,8,0:0:0:0:
192,192,130583,1,0,0:0:0:0:
64,192,130677,1,4,0:0:0:0:
320,192,130677,1,0,0:0:0:0:
448,192,130677,1,0,0:0:0:0:
64,192,132364,1,0,0:0:0:0:
192,192,132552,1,0,0:0:0:0:
320,192,132739,1,0,0:0:0:0:
64,192,132927,1,4,0:0:0:0:
448,192,132927,128,0,133489:0:0:0:0:
192,192,133114,1,2,0:0:0:0:
64,192,133302,1,8,0:0:0:0:
192,192,133489,1,2,0:0:0:0:
320,192,133489,1,0,0:0:0:0:
320,192,133677,128,0,134239:0:0:0:0:
64,192,133677,1,0,0:0:0:0:
448,192,133864,1,2,0:0:0:0:
64,192,134052,1,8,0:0:0:0:
448,192,134239,1,0,0:0:0:0:
192,192,134239,1,2,0:0:0:0:
192,192,134427,128,0,134989:0:0:0:0:
448,192,134427,1,0,0:0:0:0:
64,192,134614,1,2,0:0:0:0:
320,192,134802,1,8,0:0:0:0:
448,192,134989,1,0,0:0:0:0:
64,192,134989,1,2,0:0:0:0:
320,192,135083,1,0,0:0:0:0:
448,192,135177,1,0,0:0:0:0:
192,192,135177,1,0,0:0:0:0:
64,192,135364,1,10,0:0:0:0:
320,192,135364,1,0,0:0:0:0:
192,192,135552,1,8,0:0:0:0:
320,192,135552,1,0,0:0:0:0:
64,192,135739,1,2,0:0:0:0:
448,192,135739,1,0,0:0:0:0:
448,192,135927,1,0,0:0:0:0:
192,192,135927,1,4,0:0:0:0:
320,192,136114,1,0,0:0:0:0:
192,192,136114,1,2,0:0:0:0:
320,192,136302,1,0,0:0:0:0:
64,192,136302,1,0,0:0:0:0:
64,192,136489,1,2,0:0:0:0:
448,192,136489,1,0,0:0:0:0:
448,192,136677,1,0,0:0:0:0:
192,192,136677,1,4,0:0:0:0:
64,192,136677,1,0,0:0:0:0:
192,192,136864,1,2,0:0:0:0:
448,192,137052,1,0,0:0:0:0:
320,192,137052,1,4,0:0:0:0:
64,192,137052,1,0,0:0:0:0:
320,192,137239,1,2,0:0:0:0:
192,192,137427,1,4,0:0:0:0:
64,192,137427,1,0,0:0:0:0:
448,192,137427,128,0,138177:0:0:0:0:
320,192,137614,1,2,0:0:0:0:
64,192,137802,1,8,0:0:0:0:
192,192,137989,1,2,0:0:0:0:
64,192,138177,1,0,0:0:0:0:
320,192,138364,1,2,0:0:0:0:
64,192,138552,1,8,0:0:0:0:
192,192,138552,1,0,0:0:0:0:
320,192,138739,1,0,0:0:0:0:
192,192,138739,1,2,0:0:0:0:
448,192,138927,128,0,139677:0:0:0:0:
64,192,138927,1,0,0:0:0:0:
320,192,139114,1,2,0:0:0:0:
64,192,139302,1,8,0:0:0:0:
192,192,139489,1,2,0:0:0:0:
64,192,139677,1,0,0:0:0:0:
192,192,139677,1,0,0:0:0:0:
320,192,139864,1,2,0:0:0:0:
64,192,140052,1,8,0:0:0:0:
448,192,140052,1,0,0:0:0:0:
320,192,140239,1,0,0:0:0:0:
192,192,140239,1,2,0:0:0:0:
320,192,140427,128,0,141177:0:0:0:0:
64,192,140427,1,0,0:0:0:0:
448,192,140614,1,2,0:0:0:0:
192,192,140802,1,8,0:0:0:0:
448,192,140989,1,2,0:0:0:0:
448,192,141177,1,0,0:0:0:0:
64,192,141177,1,0,0:0:0:0:
192,192,141364,1,2,0:0:0:0:
320,192,141552,1,0,0:0:0:0:
64,192,141552,1,8,0:0:0:0:
448,192,141739,1,0,0:0:0:0:
64,192,141739,1,2,0:0:0:0:
192,192,141927,1,0,0:0:0:0:
448,192,141927,1,4,0:0:0:0:
320,192,141927,1,0,0:0:0:0:
64,192,142114,1,2,0:0:0:0:
192,192,142302,1,8,0:0:0:0:
448,192,142302,1,0,0:0:0:0:
448,192,142489,1,0,0:0:0:0:
64,192,142489,1,2,0:0:0:0:
320,192,142677,1,0,0:0:0:0:
192,192,142677,1,0,0:0:0:0:
64,192,142677,1,4,0:0:0:0:
448,192,142864,1,2,0:0:0:0:
64,192,143052,1,0,0:0:0:0:
192,192,143052,1,8,0:0:0:0:
192,192,143239,1,0,0:0:0:0:
448,192,143239,1,2,0:0:0:0:
448,192,143427,1,4,0:0:0:0:
320,192,143427,1,0,0:0:0:0:
64,192,143427,1,0,0:0:0:0:
192,192,143614,1,2,0:0:0:0:
320,192,143614,1,0,0:0:0:0:
448,192,143802,1,0,0:0:0:0:
192,192,143802,1,0,0:0:0:0:
64,192,143802,1,4,0:0:0:0:
448,192,143989,1,0,0:0:0:0:
320,192,143989,1,2,0:0:0:0:
320,192,144177,1,0,0:0:0:0:
192,192,144177,1,0,0:0:0:0:
64,192,144177,1,4,0:0:0:0:
448,192,144364,1,0,0:0:0:0:
192,192,144364,1,2,0:0:0:0:
320,192,144552,1,0,0:0:0:0:
64,192,144552,1,0,0:0:0:0:
192,192,144739,1,0,0:0:0:0:
320,192,144739,1,2,0:0:0:0:
320,192,144927,128,0,145489:0:0:0:0:
64,192,144927,1,4,0:0:0:0:
192,192,144927,1,0,0:0:0:0:
448,192,145114,1,2,0:0:0:0:
64,192,145302,1,8,0:0:0:0:
192,192,145489,1,2,0:0:0:0:
192,192,145677,128,0,146239:0:0:0:0:
448,192,145677,1,0,0:0:0:0:
64,192,145864,1,2,0:0:0:0:
320,192,146052,1,8,0:0:0:0:
448,192,146239,1,2,0:0:0:0:
64,192,146427,128,0,146989:0:0:0:0:
320,192,146427,1,0,0:0:0:0:
192,192,146614,1,2,0:0:0:0:
448,192,146802,1,8,0:0:0:0:
320,192,146989,1,0,0:0:0:0:
192,192,146989,1,2,0:0:0:0:
448,192,147083,1,0,0:0:0:0:
64,192,147177,1,0,0:0:0:0:
192,192,147177,1,0,0:0:0:0:
320,192,147364,1,2,0:0:0:0:
64,192,147364,1,8,0:0:0:0:
448,192,147552,1,0,0:0:0:0:
192,192,147552,1,8,0:0:0:0:
448,192,147739,1,2,0:0:0:0:
64,192,147739,1,0,0:0:0:0:
448,192,147927,1,0,0:0:0:0:
192,192,147927,1,0,0:0:0:0:
192,192,148114,1,0,0:0:0:0:
64,192,148114,1,2,0:0:0:0:
64,192,148302,1,0,0:0:0:0:
320,192,148302,1,8,0:0:0:0:
192,192,148489,1,0,0:0:0:0:
320,192,148489,1,2,0:0:0:0:
64,192,148677,1,0,0:0:0:0:
192,192,148677,1,0,0:0:0:0:
448,192,148677,1,4,0:0:0:0:
192,192,148864,1,2,0:0:0:0:
448,192,149052,1,0,0:0:0:0:
320,192,149052,1,0,0:0:0:0:
64,192,149052,1,4,0:0:0:0:
320,192,149239,1,2,0:0:0:0:
64,192,149427,128,0,150177:0:0:0:0:
192,192,149427,1,0,0:0:0:0:
448,192,149427,1,4,0:0:0:0:
320,192,149614,1,2,0:0:0:0:
448,192,149802,1,8,0:0:0:0:
192,192,149989,1,2,0:0:0:0:
448,192,150177,1,0,0:0:0:0:
192,192,150364,1,2,0:0:0:0:
64,192,150552,1,8,0:0:0:0:
320,192,150552,1,0,0:0:0:0:
192,192,150739,1,2,0:0:0:0:
320,192,150739,1,0,0:0:0:0:
448,192,150927,128,0,151677:0:0:0:0:
64,192,150927,1,0,0:0:0:0:
192,192,151114,1,2,0:0:0:0:
64,192,151302,1,8,0:0:0:0:
320,192,151489,1,2,0:0:0:0:
192,192,151677,1,0,0:0:0:0:
64,192,151677,1,0,0:0:0:0:
320,192,151864,1,2,0:0:0:0:
64,192,152052,1,8,0:0:0:0:
192,192,152052,1,0,0:0:0:0:
320,192,152239,1,0,0:0:0:0:
192,192,152239,1,2,0:0:0:0:
448,192,152427,128,0,153177:0:0:0:0:
64,192,152427,1,0,0:0:0:0:
320,192,152614,1,2,0:0:0:0:
64,192,152802,1,8,0:0:0:0:
192,192,152989,1,2,0:0:0:0:
64,192,153177,1,0,0:0:0:0:
320,192,153177,1,0,0:0:0:0:
192,192,153364,1,2,0:0:0:0:
64,192,153552,1,8,0:0:0:0:
320,192,153552,1,0,0:0:0:0:
320,192,153739,1,2,0:0:0:0:
192,192,153739,1,0,0:0:0:0:
448,192,153927,1,0,0:0:0:0:
64,192,153927,1,4,0:0:0:0:
192,192,153927,1,0,0:0:0:0:
320,192,154114,1,2,0:0:0:0:
320,192,154302,1,0,0:0:0:0:
64,192,154302,1,8,0:0:0:0:
448,192,154489,1,2,0:0:0:0:
64,192,154489,1,0,0:0:0:0:
192,192,154677,1,0,0:0:0:0:
320,192,154677,1,0,0:0:0:0:
448,192,154677,1,4,0:0:0:0:
64,192,154864,1,2,0:0:0:0:
192,192,155052,1,0,0:0:0:0:
448,192,155052,1,8,0:0:0:0:
448,192,155239,1,0,0:0:0:0:
64,192,155239,1,2,0:0:0:0:
320,192,155427,1,0,0:0:0:0:
192,192,155427,1,0,0:0:0:0:
320,192,155614,1,0,0:0:0:0:
64,192,155802,1,4,0:0:0:0:
192,192,155802,1,0,0:0:0:0:
448,192,155802,128,0,156177:0:0:0:0:
320,192,155989,1,2,0:0:0:0:
64,192,156177,1,8,0:0:0:0:
192,192,156364,1,2,0:0:0:0:
448,192,156552,128,0,156927:0:0:0:0:
320,192,156552,1,0,0:0:0:0:
64,192,156552,1,4,0:0:0:0:
192,192,156739,1,2,0:0:0:0:
64,192,156927,1,8,0:0:0:0:
320,192,157114,1,2,0:0:0:0:
192,192,157114,1,0,0:0:0:0:
192,192,157302,1,0,0:0:0:0:
64,192,157302,1,0,0:0:0:0:
192,192,157489,1,2,0:0:0:0:
448,192,157489,1,0,0:0:0:0:
320,192,157677,1,0,0:0:0:0:
64,192,157677,1,0,0:0:0:0:
192,192,157864,1,2,0:0:0:0:
64,192,157864,1,8,0:0:0:0:
192,192,158052,1,8,0:0:0:0:
320,192,158052,1,0,0:0:0:0:
448,192,158239,1,2,0:0:0:0:
64,192,158239,1,0,0:0:0:0:
192,192,158427,1,0,0:0:0:0:
320,192,158427,1,0,0:0:0:0:
64,192,158614,1,2,0:0:0:0:
320,192,158802,1,0,0:0:0:0:
192,192,158802,1,4,0:0:0:0:
448,192,158802,128,0,159177:0:0:0:0:
64,192,158989,1,2,0:0:0:0:
192,192,159177,1,8,0:0:0:0:
448,192,159364,1,2,0:0:0:0:
64,192,159552,1,4,0:0:0:0:
192,192,159552,1,0,0:0:0:0:
320,192,159552,128,0,159927:0:0:0:0:
448,192,159739,1,2,0:0:0:0:
64,192,159927,1,8,0:0:0:0:
192,192,160114,1,2,0:0:0:0:
448,192,160114,1,0,0:0:0:0:
448,192,160302,1,0,0:0:0:0:
64,192,160302,1,0,0:0:0:0:
320,192,160489,1,2,0:0:0:0:
64,192,160489,1,0,0:0:0:0:
192,192,160677,1,0,0:0:0:0:
64,192,160677,1,8,0:0:0:0:
448,192,160864,1,0,0:0:0:0:
192,192,160864,1,2,0:0:0:0:
320,192,161052,1,0,0:0:0:0:
448,192,161052,1,0,0:0:0:0:
64,192,161239,1,0,0:0:0:0:
192,192,161239,1,2,0:0:0:0:
320,192,161427,1,0,0:0:0:0:
64,192,161427,1,0,0:0:0:0:
448,192,161427,1,8,0:0:0:0:
64,192,161802,1,0,0:0:0:0:
192,192,161895,1,0,0:0:0:0:
320,192,161989,1,0,0:0:0:0:
448,192,162083,1,0,0:0:0:0:
448,192,162177,1,0,0:0:0:0:
192,192,162177,1,0,0:0:0:0:
64,192,162177,1,4,0:0:0:0:
320,192,162364,1,2,0:0:0:0:
64,192,162552,1,0,0:0:0:0:
448,192,162552,1,0,0:0:0:0:
192,192,162739,1,2,0:0:0:0:
448,192,162927,1,0,0:0:0:0:
320,192,162927,1,0,0:0:0:0:
64,192,162927,1,4,0:0:0:0:
320,192,163114,1,2,0:0:0:0:
64,192,163302,1,0,0:0:0:0:
448,192,163302,1,0,0:0:0:0:
192,192,163489,1,2,0:0:0:0:
448,192,163677,1,0,0:0:0:0:
64,192,163677,1,4,0:0:0:0:
320,192,163677,1,0,0:0:0:0:
320,192,163864,1,2,0:0:0:0:
64,192,164052,1,0,0:0:0:0:
192,192,164052,1,0,0:0:0:0:
320,192,164239,1,2,0:0:0:0:
448,192,164427,1,0,0:0:0:0:
192,192,164427,1,4,0:0:0:0:
320,192,164614,1,2,0:0:0:0:
64,192,164614,1,0,0:0:0:0:
448,192,164802,1,4,0:0:0:0:
192,192,164802,1,0,0:0:0:0:
320,192,164989,1,2,0:0:0:0:
64,192,164989,1,0,0:0:0:0:
448,192,165177,1,0,0:0:0:0:
192,192,165177,1,4,0:0:0:0:
320,192,165364,1,2,0:0:0:0:
64,192,165364,1,0,0:0:0:0:
448,192,165552,1,4,0:0:0:0:
192,192,165552,1,0,0:0:0:0:
320,192,165739,1,2,0:0:0:0:
64,192,165739,1,0,0:0:0:0:
192,192,165927,1,4,0:0:0:0:
448,192,165927,1,0,0:0:0:0:
320,192,166020,1,0,0:0:0:0:
448,192,166114,1,2,0:0:0:0:
320,192,166208,1,0,0:0:0:0:
64,192,166302,1,0,0:0:0:0:
192,192,166395,1,0,0:0:0:0:
320,192,166489,1,2,0:0:0:0:
192,192,166583,1,0,0:0:0:0:
64,192,166677,1,0,0:0:0:0:
320,192,166770,1,0,0:0:0:0:
448,192,166864,1,2,0:0:0:0:
320,192,166958,1,0,0:0:0:0:
64,192,167052,1,0,0:0:0:0:
192,192,167145,1,0,0:0:0:0:
320,192,167239,1,2,0:0:0:0:
448,192,167333,1,0,0:0:0:0:
64,192,167427,128,0,169489:0:0:0:0:
320,192,167427,1,4,0:0:0:0:
448,192,169677,1,4,0:0:0:0:
320,192,169677,1,0,0:0:0:0:
192,192,169677,1,0,0:0:0:0:
