osu file format v14

[General]
AudioFilename: audio.mp3
AudioLeadIn: 0
PreviewTime: 7058
Countdown: 0
SampleSet: Soft
StackLeniency: 0.7
Mode: 3
LetterboxInBreaks: 0
SpecialStyle: 0
WidescreenStoryboard: 1

[Editor]
DistanceSpacing: 1
BeatDivisor: 4
GridSize: 4
TimelineZoom: 1

[Metadata]
Title:Kan Kan
TitleUnicode:Kan Kan
Artist:BeautifulDay
ArtistUnicode:BeautifulDay
Creator:Sirinogia
Version:Insane
Source:
Tags:Classical 菠菜进行曲 캉캉!! BeautifulDay KanKan OrchestralDance Can-can
BeatmapID:1503142
BeatmapSetID:710666

[Difficulty]
HPDrainRate:7.5
CircleSize:4
OverallDifficulty:8
ApproachRate:5
SliderMultiplier:1.79999990463257
SliderTickRate:1

[Events]
//Background and Video events
0,0,"bg.jpg",0,0
//Break Periods
//Storyboard Layer 0 (Background)
//Storyboard Layer 1 (Fail)
//Storyboard Layer 2 (Pass)
//Storyboard Layer 3 (Foreground)
//Storyboard Sound Samples

[TimingPoints]
0,352.941176470588,4,2,0,30,1,0
17999,-133.333333333333,4,2,0,30,0,0
18088,-200,4,2,0,30,0,0
18176,-400,4,2,0,30,0,0
18352,-33.3333333333333,4,2,0,30,0,0
18441,-100,4,2,0,30,0,0
18529,-33.3333333333333,4,2,0,30,0,0
18617,-100,4,2,0,30,0,0
18705,-33.3333333333333,4,2,0,30,0,0
18794,-100,4,2,0,30,0,0
18882,-33.3333333333333,4,2,0,30,0,0
18970,-100,4,2,0,30,0,0
19058,-33.3333333333333,4,2,0,30,0,0
19147,-100,4,2,0,30,0,0
19235,-33.3333333333333,4,2,0,30,0,0
19323,-100,4,2,0,30,0,0
19411,-33.3333333333333,4,2,0,30,0,0
19588,-133.333333333333,4,2,0,30,0,0
19676,-100,4,2,0,30,0,0
20823,-133.333333333333,4,2,0,30,0,0
20911,-200,4,2,0,30,0,0
20999,-400,4,2,0,30,0,0
21176,-33.3333333333333,4,2,0,30,0,0
21264,-100,4,2,0,30,0,0
21352,-33.3333333333333,4,2,0,30,0,0
21441,-100,4,2,0,30,0,0
21529,-33.3333333333333,4,2,0,30,0,0
21617,-100,4,2,0,30,0,0
21705,-33.3333333333333,4,2,0,30,0,0
21794,-100,4,2,0,30,0,0
21882,-33.3333333333333,4,2,0,30,0,0
21970,-100,4,2,0,30,0,0
22058,-33.3333333333333,4,2,0,30,0,0
22147,-100,4,2,0,30,0,0
22235,-33.3333333333333,4,2,0,30,0,0
22323,-100,4,2,0,30,0,0
22411,-33.3333333333333,4,2,0,30,0,0
22499,-50,4,2,0,30,0,0
22588,-100,4,2,0,30,0,0
23647,-400,4,2,0,30,0,0
23735,-200,4,2,0,30,0,0
23823,-133.333333333333,4,2,0,30,0,0
23999,-33.3333333333333,4,2,0,30,0,0
24088,-100,4,2,0,30,0,0
24176,-33.3333333333333,4,2,0,30,0,0
24264,-100,4,2,0,30,0,0
24352,-33.3333333333333,4,2,0,30,0,0
24441,-100,4,2,0,30,0,0
24441,-33.3333333333333,4,2,0,30,0,0
24529,-33.3333333333333,4,2,0,30,0,0
24617,-100,4,2,0,30,0,0
24705,-33.3333333333333,4,2,0,30,0,0
24794,-100,4,2,0,30,0,0
24882,-33.3333333333333,4,2,0,30,0,0
24970,-100,4,2,0,30,0,0
25058,-33.3333333333333,4,2,0,30,0,0
25147,-100,4,2,0,30,0,0
25235,-33.3333333333333,4,2,0,30,0,0
25323,-50,4,2,0,30,0,0
25411,-100,4,2,0,30,0,0
26470,-400,4,2,0,30,0,0
26558,-200,4,2,0,30,0,0
26647,-133.333333333333,4,2,0,30,0,0
26823,-33.3333333333333,4,2,0,30,0,0
26911,-100,4,2,0,30,0,0
26999,-33.3333333333333,4,2,0,30,0,0
27088,-100,4,2,0,30,0,0
27176,-33.3333333333333,4,2,0,30,0,0
27264,-100,4,2,0,30,0,0
27352,-33.3333333333333,4,2,0,30,0,0
27441,-100,4,2,0,30,0,0
27529,-33.3333333333333,4,2,0,30,0,0
27617,-100,4,2,0,30,0,0
27705,-33.3333333333333,4,2,0,30,0,0
27794,-100,4,2,0,30,0,0
27882,-33.3333333333333,4,2,0,30,0,0
28058,-133.333333333333,4,2,0,30,0,0
28147,-100,4,2,0,30,0,0
28941,-95.2380952380952,4,2,0,30,0,0
29029,-94.3396226415094,4,2,0,30,0,0
29117,-93.4579439252336,4,2,0,30,0,0
29205,-92.5925925925926,4,2,0,30,0,0
29647,-91.743119266055,4,2,0,30,0,0
29735,-90.9090909090909,4,2,0,30,0,0
29823,-90.0900900900901,4,2,0,30,0,0
29911,-89.2857142857143,4,2,0,30,0,0
30352,-88.4955752212389,4,2,0,30,0,0
30441,-87.719298245614,4,2,0,30,0,0
30529,-86.9565217391304,4,2,0,30,0,0
30617,-86.2068965517241,4,2,0,30,0,0
31058,-85.4700854700855,4,2,0,30,0,0
31147,-84.7457627118644,4,2,0,30,0,0
31235,-84.0336134453781,4,2,0,30,0,0
31323,-83.3333333333333,4,2,0,30,0,0
31764,-82.6446280991736,4,2,0,30,0,0
31852,-81.9672131147541,4,2,0,30,0,0
31941,-81.3008130081301,4,2,0,30,0,0
32029,-80.6451612903226,4,2,0,30,0,0
32117,-80,4,2,0,30,0,0
32205,-79.3650793650794,4,2,0,30,0,0
32294,-78.7401574803149,4,2,0,30,0,0
32382,-78.125,4,2,0,30,0,0
32470,-77.5193798449612,4,2,0,30,0,0
32558,-76.9230769230769,4,2,0,30,0,0
34588,-10,4,2,0,30,0,0
34676,-10000,4,2,0,30,0,0
35911,-50,4,2,0,30,0,0
36352,-80,4,2,0,30,0,0
47294,-50,4,2,0,30,0,0
47647,-80,4,2,0,30,0,0
57882,-10,4,2,0,30,0,0
57970,-10000,4,2,0,30,0,0
58147,-80,4,2,0,30,0,0
74029,-10,4,2,0,30,0,0
74117,-10000,4,2,0,30,0,0
75176,-133.333333333333,4,2,0,30,0,0
75352,-66.6666666666667,4,2,0,30,0,0
75529,-10,4,2,0,30,0,0
75617,-10000,4,2,0,30,0,0
76147,-76.9230769230769,4,2,0,30,0,0
83294,-33.3333333333333,4,2,0,30,0,0
83382,-10000,4,2,0,30,0,0
83558,-66.6666666666667,4,2,0,30,0,0
83647,-76.9230769230769,4,2,0,30,0,0
84705,-33.3333333333333,4,2,0,30,0,0
84794,-10000,4,2,0,30,0,0
84970,-66.6666666666667,4,2,0,30,0,0
85058,-76.9230769230769,4,2,0,30,0,0
86823,-10,4,2,0,30,0,0
86911,-10000,4,2,0,30,0,0
87088,-66.6666666666667,4,2,0,30,0,0
87176,-10,4,2,0,30,0,0
87264,-10000,4,2,0,30,0,0
87441,-76.9230769230769,4,2,0,30,0,0
97411,-100,4,2,0,30,0,0
103058,-76.9230769230769,4,2,0,30,0,0
105882,-100,4,2,0,30,0,0
108705,-80,4,2,0,30,0,0
110470,-78.7401574803149,4,2,0,30,0,0
110823,-77.5193798449612,4,2,0,30,0,0
111176,-76.3358778625954,4,2,0,30,0,0
111529,-75.187969924812,4,2,0,30,0,0
111882,-74.0740740740741,4,2,0,30,0,0
112235,-72.992700729927,4,2,0,30,0,0
112588,-71.9424460431655,4,2,0,30,0,0
112941,-20,4,2,0,30,0,0
113999,-10,4,2,0,30,0,0
114088,-10000,4,2,0,30,0,0
114264,-66.6666666666667,4,2,0,30,0,0

[HitObjects]
192,192,1411,5,0,0:0:0:0:
64,192,1411,1,0,0:0:0:0:
320,192,1588,1,0,0:0:0:0:
192,192,1764,1,0,0:0:0:0:
448,192,1764,1,0,0:0:0:0:
320,192,1941,1,0,0:0:0:0:
192,192,1941,1,0,0:0:0:0:
192,192,2117,1,0,0:0:0:0:
448,192,2117,1,0,0:0:0:0:
320,192,2294,1,0,0:0:0:0:
64,192,2294,1,0,0:0:0:0:
192,192,2470,1,0,0:0:0:0:
320,192,2470,1,0,0:0:0:0:
320,192,2647,1,0,0:0:0:0:
64,192,2647,1,0,0:0:0:0:
192,192,2823,1,0,0:0:0:0:
448,192,2823,1,0,0:0:0:0:
64,192,2823,128,0,5558:0:0:0:0:
320,192,2999,1,0,0:0:0:0:
448,192,2999,1,0,0:0:0:0:
320,192,3176,1,0,0:0:0:0:
192,192,3176,1,0,0:0:0:0:
448,192,3352,1,0,0:0:0:0:
192,192,3352,1,0,0:0:0:0:
448,192,3529,1,0,0:0:0:0:
320,192,3529,1,0,0:0:0:0:
320,192,3705,1,0,0:0:0:0:
192,192,3705,1,0,0:0:0:0:
192,192,3882,1,0,0:0:0:0:
320,192,3882,1,0,0:0:0:0:
320,192,4058,1,0,0:0:0:0:
448,192,4058,1,0,0:0:0:0:
448,192,4235,1,0,0:0:0:0:
192,192,4235,1,0,0:0:0:0:
320,192,4411,1,0,0:0:0:0:
448,192,4411,1,0,0:0:0:0:
320,192,4588,1,0,0:0:0:0:
192,192,4588,1,0,0:0:0:0:
448,192,4764,1,0,0:0:0:0:
192,192,4764,1,0,0:0:0:0:
320,192,4941,1,0,0:0:0:0:
448,192,4941,1,0,0:0:0:0:
192,192,5117,1,0,0:0:0:0:
448,192,5117,1,0,0:0:0:0:
320,192,5294,1,0,0:0:0:0:
448,192,5294,1,0,0:0:0:0:
320,192,5470,1,0,0:0:0:0:
192,192,5470,1,0,0:0:0:0:
448,192,5558,128,0,5735:0:0:0:0:
320,192,5647,1,0,0:0:0:0:
192,192,5647,1,0,0:0:0:0:
64,192,5823,1,0,0:0:0:0:
320,192,5823,1,0,0:0:0:0:
448,192,5823,1,0,0:0:0:0:
448,192,5911,128,0,6088:0:0:0:0:
192,192,5999,1,0,0:0:0:0:
64,192,5999,1,0,0:0:0:0:
320,192,6176,1,0,0:0:0:0:
192,192,6176,1,0,0:0:0:0:
448,192,6176,1,0,0:0:0:0:
448,192,6264,128,0,6705:0:0:0:0:
64,192,6352,1,0,0:0:0:0:
320,192,6352,1,0,0:0:0:0:
192,192,6529,1,0,0:0:0:0:
64,192,6529,1,0,0:0:0:0:
64,192,6705,1,0,0:0:0:0:
320,192,6705,1,0,0:0:0:0:
448,192,7058,128,0,7147:0:0:0:0:
320,192,7147,1,0,0:0:0:0:
448,192,7323,128,0,7411:0:0:0:0:
192,192,7411,1,0,0:0:0:0:
448,192,7499,128,0,7588:0:0:0:0:
320,192,7588,1,0,0:0:0:0:
448,192,7764,128,0,7852:0:0:0:0:
64,192,7852,1,0,0:0:0:0:
448,192,8029,128,0,8117:0:0:0:0:
192,192,8117,1,0,0:0:0:0:
64,192,8117,1,0,0:0:0:0:
64,192,8382,128,0,8470:0:0:0:0:
192,192,8470,1,0,0:0:0:0:
64,192,8647,128,0,8735:0:0:0:0:
448,192,8735,1,0,0:0:0:0:
64,192,8823,128,0,8911:0:0:0:0:
320,192,8911,1,0,0:0:0:0:
64,192,9088,128,0,9176:0:0:0:0:
192,192,9176,1,0,0:0:0:0:
64,192,9264,128,0,9352:0:0:0:0:
320,192,9352,1,0,0:0:0:0:
64,192,9441,128,0,9529:0:0:0:0:
192,192,9529,1,0,0:0:0:0:
448,192,9529,1,0,0:0:0:0:
192,192,9882,128,0,9970:0:0:0:0:
320,192,9970,1,0,0:0:0:0:
192,192,10058,128,0,10147:0:0:0:0:
64,192,10147,1,0,0:0:0:0:
192,192,10235,128,0,10323:0:0:0:0:
448,192,10323,1,0,0:0:0:0:
192,192,10499,128,0,10588:0:0:0:0:
320,192,10588,1,0,0:0:0:0:
192,192,10764,128,0,10852:0:0:0:0:
64,192,10852,1,0,0:0:0:0:
192,192,10941,128,0,11029:0:0:0:0:
320,192,11029,1,0,0:0:0:0:
192,192,11117,128,0,11294:0:0:0:0:
64,192,11294,1,0,0:0:0:0:
320,192,11294,1,0,0:0:0:0:
448,192,11382,1,0,0:0:0:0:
192,192,11382,128,0,11470:0:0:0:0:
192,192,11558,1,0,0:0:0:0:
64,192,11647,1,0,0:0:0:0:
320,192,11647,128,0,11735:0:0:0:0:
320,192,11823,1,0,0:0:0:0:
448,192,11911,1,0,0:0:0:0:
192,192,11911,128,0,11999:0:0:0:0:
192,192,12088,1,0,0:0:0:0:
64,192,12176,1,0,0:0:0:0:
320,192,12176,128,0,12264:0:0:0:0:
320,192,12352,1,0,0:0:0:0:
448,192,12441,1,0,0:0:0:0:
320,192,12529,1,0,0:0:0:0:
448,192,12617,1,0,0:0:0:0:
320,192,12705,1,0,0:0:0:0:
192,192,12705,128,0,12794:0:0:0:0:
64,192,12794,1,0,0:0:0:0:
192,192,12882,128,0,12970:0:0:0:0:
448,192,12970,1,0,0:0:0:0:
192,192,13058,128,0,13235:0:0:0:0:
320,192,13235,128,0,13323:0:0:0:0:
64,192,13235,1,0,0:0:0:0:
448,192,13323,1,0,0:0:0:0:
320,192,13411,128,0,13499:0:0:0:0:
192,192,13499,1,0,0:0:0:0:
320,192,13588,128,0,13676:0:0:0:0:
192,192,13676,128,0,13852:0:0:0:0:
64,192,13676,1,0,0:0:0:0:
320,192,13852,128,0,13941:0:0:0:0:
448,192,13941,128,0,14029:0:0:0:0:
192,192,14029,128,0,14117:0:0:0:0:
64,192,14117,128,0,14205:0:0:0:0:
192,192,14294,1,0,0:0:0:0:
320,192,14382,1,0,0:0:0:0:
448,192,14470,1,0,0:0:0:0:
320,192,14558,1,0,0:0:0:0:
192,192,14647,1,0,0:0:0:0:
64,192,14735,1,0,0:0:0:0:
192,192,14823,1,0,0:0:0:0:
320,192,14823,1,0,0:0:0:0:
448,192,14823,1,0,0:0:0:0:
448,192,14911,1,0,0:0:0:0:
192,192,14911,1,0,0:0:0:0:
320,192,14999,1,0,0:0:0:0:
448,192,15088,1,0,0:0:0:0:
320,192,15088,1,0,0:0:0:0:
320,192,15176,1,0,0:0:0:0:
448,192,15176,128,0,15529:0:0:0:0:
192,192,15441,1,0,0:0:0:0:
320,192,15529,1,0,0:0:0:0:
192,192,15529,1,0,0:0:0:0:
64,192,15529,128,0,15617:0:0:0:0:
192,192,15617,1,0,0:0:0:0:
64,192,15705,128,0,15794:0:0:0:0:
320,192,15794,1,0,0:0:0:0:
64,192,15970,128,0,16058:0:0:0:0:
192,192,16058,1,0,0:0:0:0:
64,192,16147,128,0,16235:0:0:0:0:
448,192,16235,1,0,0:0:0:0:
64,192,16323,128,0,16411:0:0:0:0:
320,192,16411,1,0,0:0:0:0:
64,192,16588,128,0,16676:0:0:0:0:
320,192,16676,1,0,0:0:0:0:
64,192,16764,128,0,16852:0:0:0:0:
192,192,16852,1,0,0:0:0:0:
320,192,16941,128,0,17029:0:0:0:0:
192,192,17029,128,0,17117:0:0:0:0:
320,192,17117,128,0,17205:0:0:0:0:
192,192,17205,128,0,17294:0:0:0:0:
320,192,17294,128,0,17382:0:0:0:0:
192,192,17382,128,0,17470:0:0:0:0:
448,192,17470,128,0,17558:0:0:0:0:
64,192,17558,128,0,17647:0:0:0:0:
448,192,17647,128,0,17735:0:0:0:0:
64,192,17735,128,0,17823:0:0:0:0:
448,192,17823,128,0,17911:0:0:0:0:
64,192,17911,128,0,17999:0:0:0:0:
192,192,17999,1,0,0:0:0:0:
320,192,18088,1,0,0:0:0:0:
448,192,18176,1,0,0:0:0:0:
192,192,18352,128,0,18588:0:0:0:0:
64,192,18352,128,0,18588:0:0:0:0:
320,192,18352,1,0,0:0:0:0:
448,192,18352,1,0,0:0:0:0:
320,192,18705,128,0,18941:0:0:0:0:
448,192,18705,128,0,18941:0:0:0:0:
192,192,18705,1,0,0:0:0:0:
64,192,18705,1,0,0:0:0:0:
192,192,19058,128,0,19411:0:0:0:0:
64,192,19058,128,0,19411:0:0:0:0:
320,192,19058,1,0,0:0:0:0:
448,192,19058,1,0,0:0:0:0:
320,192,19411,1,0,0:0:0:0:
448,192,19411,1,0,0:0:0:0:
320,192,19764,128,0,19852:0:0:0:0:
192,192,19852,1,0,0:0:0:0:
320,192,19941,128,0,20029:0:0:0:0:
64,192,20029,1,0,0:0:0:0:
448,192,20117,1,0,0:0:0:0:
192,192,20117,1,0,0:0:0:0:
320,192,20205,128,0,20294:0:0:0:0:
448,192,20294,1,0,0:0:0:0:
320,192,20382,128,0,20470:0:0:0:0:
192,192,20470,1,0,0:0:0:0:
192,192,20558,128,0,20647:0:0:0:0:
64,192,20647,1,0,0:0:0:0:
192,192,20735,128,0,20823:0:0:0:0:
320,192,20823,1,0,0:0:0:0:
192,192,21176,128,0,21441:0:0:0:0:
448,192,21176,128,0,21441:0:0:0:0:
320,192,21176,1,0,0:0:0:0:
64,192,21176,1,0,0:0:0:0:
64,192,21529,128,0,21794:0:0:0:0:
320,192,21529,128,0,21794:0:0:0:0:
192,192,21529,1,0,0:0:0:0:
448,192,21529,1,0,0:0:0:0:
448,192,21882,128,0,22147:0:0:0:0:
192,192,21882,128,0,22147:0:0:0:0:
64,192,21882,1,0,0:0:0:0:
320,192,21882,1,0,0:0:0:0:
320,192,22235,128,0,22588:0:0:0:0:
64,192,22235,128,0,22588:0:0:0:0:
192,192,22235,1,0,0:0:0:0:
448,192,22235,1,0,0:0:0:0:
448,192,22588,1,0,0:0:0:0:
192,192,22588,128,0,22676:0:0:0:0:
64,192,22676,1,0,0:0:0:0:
192,192,22764,128,0,22852:0:0:0:0:
64,192,22852,1,0,0:0:0:0:
448,192,22941,1,0,0:0:0:0:
320,192,22941,1,0,0:0:0:0:
192,192,23029,128,0,23117:0:0:0:0:
320,192,23117,1,0,0:0:0:0:
192,192,23205,128,0,23294:0:0:0:0:
448,192,23294,1,0,0:0:0:0:
64,192,23382,128,0,23470:0:0:0:0:
320,192,23470,1,0,0:0:0:0:
64,192,23558,128,0,23647:0:0:0:0:
192,192,23647,1,0,0:0:0:0:
64,192,23999,128,0,24264:0:0:0:0:
192,192,23999,1,0,0:0:0:0:
320,192,23999,1,0,0:0:0:0:
448,192,23999,128,0,24264:0:0:0:0:
64,192,24352,1,0,0:0:0:0:
448,192,24352,1,0,0:0:0:0:
192,192,24352,128,0,24617:0:0:0:0:
320,192,24352,128,0,24617:0:0:0:0:
320,192,24705,1,0,0:0:0:0:
64,192,24705,128,0,24970:0:0:0:0:
448,192,24705,128,0,24970:0:0:0:0:
192,192,24705,1,0,0:0:0:0:
64,192,25058,1,0,0:0:0:0:
448,192,25058,1,0,0:0:0:0:
320,192,25058,128,0,25411:0:0:0:0:
192,192,25058,128,0,25411:0:0:0:0:
448,192,25411,1,0,0:0:0:0:
64,192,25411,128,0,25499:0:0:0:0:
192,192,25499,1,0,0:0:0:0:
64,192,25588,128,0,25676:0:0:0:0:
320,192,25676,1,0,0:0:0:0:
192,192,25764,1,0,0:0:0:0:
448,192,25764,1,0,0:0:0:0:
64,192,25852,128,0,25941:0:0:0:0:
320,192,25941,1,0,0:0:0:0:
64,192,26029,128,0,26117:0:0:0:0:
192,192,26117,1,0,0:0:0:0:
448,192,26205,128,0,26294:0:0:0:0:
320,192,26294,1,0,0:0:0:0:
448,192,26382,128,0,26470:0:0:0:0:
192,192,26470,1,0,0:0:0:0:
192,192,26823,128,0,27088:0:0:0:0:
320,192,26823,128,0,27088:0:0:0:0:
64,192,26823,1,0,0:0:0:0:
448,192,26823,1,0,0:0:0:0:
64,192,27176,128,0,27441:0:0:0:0:
448,192,27176,128,0,27441:0:0:0:0:
192,192,27176,1,0,0:0:0:0:
320,192,27176,1,0,0:0:0:0:
192,192,27529,128,0,27794:0:0:0:0:
320,192,27529,128,0,27794:0:0:0:0:
64,192,27529,1,0,0:0:0:0:
448,192,27529,1,0,0:0:0:0:
64,192,27882,128,0,28235:0:0:0:0:
448,192,27882,128,0,28235:0:0:0:0:
192,192,27882,1,0,0:0:0:0:
320,192,27882,1,0,0:0:0:0:
192,192,28235,1,0,0:0:0:0:
320,192,28235,128,0,28323:0:0:0:0:
192,192,28323,1,0,0:0:0:0:
320,192,28411,128,0,28499:0:0:0:0:
64,192,28499,1,0,0:0:0:0:
320,192,28588,128,0,28676:0:0:0:0:
448,192,28676,1,0,0:0:0:0:
320,192,28764,128,0,28941:0:0:0:0:
64,192,28941,128,0,29029:0:0:0:0:
448,192,28941,1,0,0:0:0:0:
192,192,29029,1,0,0:0:0:0:
64,192,29117,128,0,29205:0:0:0:0:
192,192,29205,1,0,0:0:0:0:
192,192,29294,128,0,29382:0:0:0:0:
448,192,29382,1,0,0:0:0:0:
192,192,29470,128,0,29558:0:0:0:0:
448,192,29558,1,0,0:0:0:0:
64,192,29647,128,0,29735:0:0:0:0:
192,192,29735,1,0,0:0:0:0:
64,192,29823,128,0,29911:0:0:0:0:
192,192,29911,1,0,0:0:0:0:
192,192,29999,128,0,30088:0:0:0:0:
448,192,30088,1,0,0:0:0:0:
192,192,30176,128,0,30264:0:0:0:0:
448,192,30264,1,0,0:0:0:0:
448,192,30352,128,0,30441:0:0:0:0:
320,192,30441,1,0,0:0:0:0:
448,192,30529,128,0,30617:0:0:0:0:
320,192,30617,1,0,0:0:0:0:
320,192,30705,128,0,30794:0:0:0:0:
64,192,30705,1,0,0:0:0:0:
320,192,30882,128,0,30970:0:0:0:0:
64,192,30970,1,0,0:0:0:0:
448,192,31058,128,0,31147:0:0:0:0:
320,192,31147,1,0,0:0:0:0:
448,192,31235,128,0,31323:0:0:0:0:
320,192,31323,1,0,0:0:0:0:
320,192,31411,128,0,31499:0:0:0:0:
64,192,31499,1,0,0:0:0:0:
320,192,31588,128,0,31676:0:0:0:0:
64,192,31676,1,0,0:0:0:0:
192,192,31764,128,0,31852:0:0:0:0:
448,192,31764,128,0,31852:0:0:0:0:
320,192,31852,1,0,0:0:0:0:
192,192,31941,128,0,32029:0:0:0:0:
448,192,31941,128,0,32029:0:0:0:0:
64,192,32029,1,0,0:0:0:0:
320,192,32117,1,0,0:0:0:0:
448,192,32205,1,0,0:0:0:0:
320,192,32294,1,0,0:0:0:0:
192,192,32470,1,0,0:0:0:0:
64,192,32558,1,0,0:0:0:0:
192,192,32647,1,0,0:0:0:0:
320,192,32735,1,0,0:0:0:0:
192,192,32823,1,0,0:0:0:0:
320,192,32911,1,0,0:0:0:0:
192,192,32999,1,0,0:0:0:0:
320,192,33088,1,0,0:0:0:0:
192,192,33176,1,0,0:0:0:0:
320,192,33264,1,0,0:0:0:0:
192,192,33352,1,0,0:0:0:0:
320,192,33441,1,0,0:0:0:0:
192,192,33529,1,0,0:0:0:0:
320,192,33617,1,0,0:0:0:0:
448,192,33617,1,0,0:0:0:0:
192,192,33705,1,0,0:0:0:0:
64,192,33705,1,0,0:0:0:0:
320,192,33794,1,0,0:0:0:0:
448,192,33794,1,0,0:0:0:0:
192,192,33882,1,0,0:0:0:0:
64,192,33882,1,0,0:0:0:0:
320,192,33970,1,0,0:0:0:0:
448,192,33970,1,0,0:0:0:0:
192,192,34058,1,0,0:0:0:0:
64,192,34058,1,0,0:0:0:0:
320,192,34147,1,0,0:0:0:0:
448,192,34147,1,0,0:0:0:0:
192,192,34235,1,0,0:0:0:0:
64,192,34235,1,0,0:0:0:0:
320,192,34323,1,0,0:0:0:0:
448,192,34323,1,0,0:0:0:0:
192,192,34411,1,0,0:0:0:0:
64,192,34411,1,0,0:0:0:0:
320,192,34499,1,0,0:0:0:0:
448,192,34499,1,0,0:0:0:0:
192,192,34588,1,0,0:0:0:0:
64,192,34588,1,0,0:0:0:0:
64,192,35999,1,0,0:0:0:0:
192,192,35999,1,0,0:0:0:0:
320,192,35999,128,0,36705:0:0:0:0:
448,192,35999,128,0,36705:0:0:0:0:
192,192,36352,1,0,0:0:0:0:
64,192,36352,1,0,0:0:0:0:
64,192,36705,128,0,36794:0:0:0:0:
192,192,36794,1,0,0:0:0:0:
64,192,36882,128,0,36970:0:0:0:0:
320,192,36970,1,0,0:0:0:0:
192,192,37058,128,0,37147:0:0:0:0:
448,192,37058,1,0,0:0:0:0:
320,192,37058,1,0,0:0:0:0:
448,192,37147,1,0,0:0:0:0:
192,192,37235,128,0,37323:0:0:0:0:
64,192,37323,1,0,0:0:0:0:
448,192,37411,128,0,37588:0:0:0:0:
320,192,37411,128,0,37588:0:0:0:0:
192,192,37588,1,0,0:0:0:0:
320,192,37676,128,0,37764:0:0:0:0:
448,192,37676,128,0,37764:0:0:0:0:
64,192,37764,1,0,0:0:0:0:
192,192,37764,1,0,0:0:0:0:
448,192,37852,128,0,37941:0:0:0:0:
320,192,37852,128,0,37941:0:0:0:0:
64,192,37941,1,0,0:0:0:0:
192,192,38029,1,0,0:0:0:0:
448,192,38117,128,0,38205:0:0:0:0:
320,192,38205,1,0,0:0:0:0:
448,192,38294,128,0,38382:0:0:0:0:
192,192,38382,1,0,0:0:0:0:
320,192,38470,128,0,38558:0:0:0:0:
192,192,38470,1,0,0:0:0:0:
64,192,38470,1,0,0:0:0:0:
64,192,38558,1,0,0:0:0:0:
320,192,38647,128,0,38735:0:0:0:0:
448,192,38735,1,0,0:0:0:0:
192,192,38823,128,0,38999:0:0:0:0:
64,192,38823,128,0,38999:0:0:0:0:
320,192,38999,1,0,0:0:0:0:
192,192,39088,128,0,39176:0:0:0:0:
64,192,39088,128,0,39176:0:0:0:0:
448,192,39176,1,0,0:0:0:0:
320,192,39176,1,0,0:0:0:0:
192,192,39264,128,0,39352:0:0:0:0:
64,192,39264,128,0,39352:0:0:0:0:
448,192,39352,1,0,0:0:0:0:
320,192,39441,1,0,0:0:0:0:
192,192,39529,128,0,39617:0:0:0:0:
64,192,39705,128,0,39794:0:0:0:0:
320,192,39794,128,0,39882:0:0:0:0:
448,192,39882,128,0,39970:0:0:0:0:
192,192,39882,1,0,0:0:0:0:
64,192,39882,1,0,0:0:0:0:
192,192,39970,128,0,40058:0:0:0:0:
320,192,40058,128,0,40147:0:0:0:0:
64,192,40235,128,0,40323:0:0:0:0:
192,192,40235,128,0,40411:0:0:0:0:
320,192,40235,128,0,40499:0:0:0:0:
448,192,40235,128,0,40588:0:0:0:0:
64,192,40411,128,0,40941:0:0:0:0:
192,192,40499,128,0,40852:0:0:0:0:
320,192,40588,128,0,40764:0:0:0:0:
448,192,40676,1,0,0:0:0:0:
448,192,40764,128,0,41294:0:0:0:0:
320,192,40852,128,0,41205:0:0:0:0:
192,192,40941,128,0,41117:0:0:0:0:
64,192,41029,1,0,0:0:0:0:
64,192,41117,128,0,41558:0:0:0:0:
192,192,41205,128,0,41558:0:0:0:0:
320,192,41294,128,0,41558:0:0:0:0:
448,192,41382,128,0,41558:0:0:0:0:
320,192,41647,1,0,0:0:0:0:
448,192,41647,1,0,0:0:0:0:
64,192,41647,128,0,42352:0:0:0:0:
192,192,41647,128,0,42352:0:0:0:0:
448,192,41999,1,0,0:0:0:0:
320,192,41999,1,0,0:0:0:0:
320,192,42352,1,0,0:0:0:0:
448,192,42441,128,0,42529:0:0:0:0:
320,192,42529,1,0,0:0:0:0:
448,192,42617,1,0,0:0:0:0:
448,192,42705,128,0,42794:0:0:0:0:
192,192,42705,1,0,0:0:0:0:
64,192,42705,1,0,0:0:0:0:
320,192,42794,1,0,0:0:0:0:
448,192,42882,128,0,42970:0:0:0:0:
192,192,42970,1,0,0:0:0:0:
192,192,43058,1,0,0:0:0:0:
192,192,43147,128,0,43235:0:0:0:0:
320,192,43235,1,0,0:0:0:0:
192,192,43323,128,0,43411:0:0:0:0:
320,192,43411,1,0,0:0:0:0:
448,192,43411,1,0,0:0:0:0:
192,192,43499,1,0,0:0:0:0:
192,192,43588,128,0,43676:0:0:0:0:
64,192,43676,1,0,0:0:0:0:
64,192,43764,128,0,43852:0:0:0:0:
320,192,43852,1,0,0:0:0:0:
64,192,43941,1,0,0:0:0:0:
64,192,44029,128,0,44117:0:0:0:0:
320,192,44117,1,0,0:0:0:0:
192,192,44117,1,0,0:0:0:0:
64,192,44205,1,0,0:0:0:0:
64,192,44294,1,0,0:0:0:0:
448,192,44382,128,0,44823:0:0:0:0:
192,192,44382,1,0,0:0:0:0:
320,192,44470,1,0,0:0:0:0:
64,192,44558,1,0,0:0:0:0:
320,192,44647,1,0,0:0:0:0:
192,192,44735,1,0,0:0:0:0:
320,192,44823,1,0,0:0:0:0:
192,192,44823,128,0,45176:0:0:0:0:
320,192,45176,128,0,45264:0:0:0:0:
64,192,45176,1,0,0:0:0:0:
448,192,45264,128,0,45352:0:0:0:0:
192,192,45352,128,0,45441:0:0:0:0:
64,192,45441,128,0,45529:0:0:0:0:
320,192,45529,128,0,45617:0:0:0:0:
192,192,45529,128,0,45617:0:0:0:0:
448,192,45617,128,0,45705:0:0:0:0:
64,192,45705,128,0,45794:0:0:0:0:
192,192,45794,128,0,45882:0:0:0:0:
320,192,45882,128,0,45970:0:0:0:0:
448,192,45882,128,0,45970:0:0:0:0:
320,192,46058,1,0,0:0:0:0:
64,192,46058,128,0,46235:0:0:0:0:
320,192,46147,128,0,46323:0:0:0:0:
448,192,46147,128,0,46323:0:0:0:0:
64,192,46323,1,0,0:0:0:0:
320,192,46411,1,0,0:0:0:0:
64,192,46411,128,0,46588:0:0:0:0:
320,192,46499,1,0,0:0:0:0:
320,192,46588,128,0,46764:0:0:0:0:
448,192,46588,128,0,46764:0:0:0:0:
64,192,46676,128,0,46764:0:0:0:0:
320,192,46852,1,0,0:0:0:0:
64,192,46852,128,0,47205:0:0:0:0:
320,192,46941,128,0,47294:0:0:0:0:
448,192,46941,128,0,47294:0:0:0:0:
64,192,47294,1,0,0:0:0:0:
192,192,47294,128,0,47999:0:0:0:0:
320,192,47647,1,0,0:0:0:0:
448,192,47647,1,0,0:0:0:0:
64,192,47647,1,0,0:0:0:0:
320,192,47999,1,0,0:0:0:0:
448,192,47999,1,0,0:0:0:0:
448,192,48088,1,0,0:0:0:0:
448,192,48176,1,0,0:0:0:0:
320,192,48176,1,0,0:0:0:0:
448,192,48264,1,0,0:0:0:0:
448,192,48352,1,0,0:0:0:0:
320,192,48352,1,0,0:0:0:0:
192,192,48352,1,0,0:0:0:0:
192,192,48441,1,0,0:0:0:0:
192,192,48529,1,0,0:0:0:0:
64,192,48529,1,0,0:0:0:0:
64,192,48617,1,0,0:0:0:0:
64,192,48705,128,0,48794:0:0:0:0:
192,192,48705,128,0,48794:0:0:0:0:
192,192,48882,1,0,0:0:0:0:
192,192,48970,1,0,0:0:0:0:
64,192,48970,1,0,0:0:0:0:
192,192,49058,1,0,0:0:0:0:
320,192,49058,1,0,0:0:0:0:
448,192,49058,1,0,0:0:0:0:
192,192,49147,128,0,49411:0:0:0:0:
64,192,49147,128,0,49411:0:0:0:0:
320,192,49411,1,0,0:0:0:0:
320,192,49499,1,0,0:0:0:0:
448,192,49588,1,0,0:0:0:0:
448,192,49676,1,0,0:0:0:0:
320,192,49764,1,0,0:0:0:0:
192,192,49764,1,0,0:0:0:0:
64,192,49764,1,0,0:0:0:0:
320,192,49852,1,0,0:0:0:0:
448,192,49941,1,0,0:0:0:0:
448,192,50029,1,0,0:0:0:0:
448,192,50117,128,0,50205:0:0:0:0:
320,192,50117,128,0,50205:0:0:0:0:
320,192,50294,1,0,0:0:0:0:
320,192,50382,1,0,0:0:0:0:
448,192,50382,1,0,0:0:0:0:
320,192,50470,1,0,0:0:0:0:
192,192,50470,1,0,0:0:0:0:
64,192,50470,1,0,0:0:0:0:
448,192,50558,128,0,50823:0:0:0:0:
320,192,50558,128,0,50823:0:0:0:0:
192,192,50823,1,0,0:0:0:0:
192,192,50911,1,0,0:0:0:0:
320,192,50999,1,0,0:0:0:0:
320,192,51088,1,0,0:0:0:0:
192,192,51176,1,0,0:0:0:0:
192,192,51264,1,0,0:0:0:0:
320,192,51352,1,0,0:0:0:0:
320,192,51441,1,0,0:0:0:0:
64,192,51529,128,0,51617:0:0:0:0:
448,192,51529,128,0,51705:0:0:0:0:
320,192,51529,128,0,51617:0:0:0:0:
192,192,51617,128,0,51705:0:0:0:0:
320,192,51705,128,0,51794:0:0:0:0:
64,192,51705,128,0,51794:0:0:0:0:
192,192,51882,1,0,0:0:0:0:
320,192,51882,1,0,0:0:0:0:
448,192,51882,1,0,0:0:0:0:
64,192,51882,128,0,52147:0:0:0:0:
192,192,51970,128,0,52058:0:0:0:0:
448,192,51970,128,0,52147:0:0:0:0:
320,192,52058,128,0,52147:0:0:0:0:
320,192,52235,1,0,0:0:0:0:
192,192,52235,1,0,0:0:0:0:
448,192,52235,128,0,52499:0:0:0:0:
320,192,52323,128,0,52411:0:0:0:0:
64,192,52323,128,0,52499:0:0:0:0:
192,192,52411,128,0,52499:0:0:0:0:
320,192,52588,1,0,0:0:0:0:
192,192,52588,1,0,0:0:0:0:
64,192,52588,1,0,0:0:0:0:
448,192,52588,128,0,52676:0:0:0:0:
320,192,52676,128,0,52764:0:0:0:0:
192,192,52764,128,0,52852:0:0:0:0:
64,192,52852,128,0,52941:0:0:0:0:
448,192,52941,1,0,0:0:0:0:
192,192,52941,128,0,53647:0:0:0:0:
320,192,52941,128,0,53647:0:0:0:0:
448,192,53294,1,0,0:0:0:0:
64,192,53294,1,0,0:0:0:0:
64,192,53647,128,0,53735:0:0:0:0:
448,192,53647,128,0,53735:0:0:0:0:
64,192,53823,1,0,0:0:0:0:
448,192,53823,1,0,0:0:0:0:
64,192,53911,128,0,53999:0:0:0:0:
448,192,53911,128,0,53999:0:0:0:0:
320,192,53999,1,0,0:0:0:0:
192,192,53999,1,0,0:0:0:0:
64,192,54088,128,0,54176:0:0:0:0:
448,192,54088,128,0,54176:0:0:0:0:
64,192,54264,128,0,54352:0:0:0:0:
448,192,54264,128,0,54352:0:0:0:0:
192,192,54352,128,0,54529:0:0:0:0:
320,192,54352,128,0,54529:0:0:0:0:
192,192,54617,1,0,0:0:0:0:
320,192,54617,1,0,0:0:0:0:
192,192,54705,128,0,54882:0:0:0:0:
320,192,54705,128,0,54882:0:0:0:0:
448,192,54705,1,0,0:0:0:0:
64,192,54705,1,0,0:0:0:0:
448,192,54970,128,0,55058:0:0:0:0:
64,192,54970,128,0,55058:0:0:0:0:
192,192,55058,1,0,0:0:0:0:
64,192,55147,128,0,55235:0:0:0:0:
448,192,55147,128,0,55235:0:0:0:0:
64,192,55323,1,0,0:0:0:0:
448,192,55323,1,0,0:0:0:0:
64,192,55411,1,0,0:0:0:0:
448,192,55411,1,0,0:0:0:0:
320,192,55411,1,0,0:0:0:0:
192,192,55411,1,0,0:0:0:0:
64,192,55499,128,0,55588:0:0:0:0:
448,192,55499,128,0,55588:0:0:0:0:
448,192,55676,1,0,0:0:0:0:
64,192,55676,1,0,0:0:0:0:
64,192,55764,128,0,55941:0:0:0:0:
448,192,55764,128,0,55941:0:0:0:0:
320,192,55764,1,0,0:0:0:0:
64,192,56029,1,0,0:0:0:0:
448,192,56029,1,0,0:0:0:0:
64,192,56117,128,0,56382:0:0:0:0:
448,192,56117,128,0,56382:0:0:0:0:
320,192,56117,1,0,0:0:0:0:
192,192,56117,1,0,0:0:0:0:
448,192,56470,128,0,56558:0:0:0:0:
192,192,56470,1,0,0:0:0:0:
320,192,56558,128,0,56647:0:0:0:0:
192,192,56647,128,0,56735:0:0:0:0:
64,192,56735,128,0,56823:0:0:0:0:
192,192,56823,128,0,56911:0:0:0:0:
448,192,56823,1,0,0:0:0:0:
320,192,56823,1,0,0:0:0:0:
320,192,56911,128,0,56999:0:0:0:0:
448,192,56999,128,0,57088:0:0:0:0:
448,192,57176,128,0,57264:0:0:0:0:
64,192,57176,128,0,57264:0:0:0:0:
320,192,57264,128,0,57352:0:0:0:0:
192,192,57264,1,0,0:0:0:0:
192,192,57352,128,0,57441:0:0:0:0:
64,192,57441,128,0,57529:0:0:0:0:
320,192,57529,1,0,0:0:0:0:
448,192,57529,1,0,0:0:0:0:
192,192,57617,1,0,0:0:0:0:
64,192,57705,1,0,0:0:0:0:
192,192,57794,1,0,0:0:0:0:
320,192,57882,1,0,0:0:0:0:
448,192,57882,1,0,0:0:0:0:
64,192,57882,1,0,0:0:0:0:
320,192,58235,1,0,0:0:0:0:
192,192,58235,1,0,0:0:0:0:
64,192,58235,1,0,0:0:0:0:
448,192,58235,1,0,0:0:0:0:
448,192,58588,128,0,59205:0:0:0:0:
320,192,58588,1,0,0:0:0:0:
64,192,58588,128,0,58676:0:0:0:0:
192,192,58676,1,0,0:0:0:0:
64,192,58764,128,0,58852:0:0:0:0:
192,192,58852,1,0,0:0:0:0:
64,192,58941,128,0,59029:0:0:0:0:
192,192,59029,1,0,0:0:0:0:
64,192,59117,128,0,59205:0:0:0:0:
192,192,59205,1,0,0:0:0:0:
192,192,59294,128,0,59911:0:0:0:0:
320,192,59294,1,0,0:0:0:0:
448,192,59382,128,0,59470:0:0:0:0:
320,192,59470,1,0,0:0:0:0:
448,192,59558,128,0,59647:0:0:0:0:
320,192,59647,1,0,0:0:0:0:
448,192,59735,128,0,59823:0:0:0:0:
320,192,59823,1,0,0:0:0:0:
448,192,59911,128,0,59999:0:0:0:0:
64,192,59999,128,0,60264:0:0:0:0:
192,192,59999,1,0,0:0:0:0:
192,192,60088,128,0,60176:0:0:0:0:
320,192,60176,1,0,0:0:0:0:
192,192,60264,128,0,60352:0:0:0:0:
448,192,60352,1,0,0:0:0:0:
320,192,60352,128,0,60617:0:0:0:0:
192,192,60441,1,0,0:0:0:0:
64,192,60529,1,0,0:0:0:0:
192,192,60617,1,0,0:0:0:0:
448,192,60705,1,0,0:0:0:0:
64,192,60705,128,0,60794:0:0:0:0:
192,192,60882,128,0,60970:0:0:0:0:
64,192,60882,128,0,60970:0:0:0:0:
192,192,61058,128,0,61323:0:0:0:0:
64,192,61058,128,0,61147:0:0:0:0:
448,192,61411,128,0,62029:0:0:0:0:
320,192,61411,1,0,0:0:0:0:
192,192,61411,1,0,0:0:0:0:
320,192,61499,1,0,0:0:0:0:
320,192,61588,128,0,61676:0:0:0:0:
320,192,61764,128,0,61852:0:0:0:0:
320,192,61941,1,0,0:0:0:0:
320,192,62029,1,0,0:0:0:0:
320,192,62117,1,0,0:0:0:0:
192,192,62117,1,0,0:0:0:0:
64,192,62117,128,0,62735:0:0:0:0:
192,192,62205,1,0,0:0:0:0:
192,192,62294,128,0,62382:0:0:0:0:
192,192,62470,128,0,62558:0:0:0:0:
192,192,62647,1,0,0:0:0:0:
192,192,62735,1,0,0:0:0:0:
320,192,62823,128,0,62999:0:0:0:0:
448,192,62823,128,0,62911:0:0:0:0:
192,192,62999,128,0,63088:0:0:0:0:
448,192,62999,128,0,63176:0:0:0:0:
64,192,63088,128,0,63264:0:0:0:0:
320,192,63088,128,0,63176:0:0:0:0:
192,192,63176,128,0,63352:0:0:0:0:
320,192,63264,128,0,63529:0:0:0:0:
448,192,63264,128,0,63352:0:0:0:0:
64,192,63352,128,0,63441:0:0:0:0:
192,192,63441,128,0,63705:0:0:0:0:
448,192,63441,128,0,63705:0:0:0:0:
64,192,63529,128,0,63617:0:0:0:0:
320,192,63617,128,0,63794:0:0:0:0:
64,192,63705,128,0,63970:0:0:0:0:
192,192,63794,128,0,64147:0:0:0:0:
448,192,63794,128,0,63970:0:0:0:0:
320,192,63882,128,0,64058:0:0:0:0:
64,192,64058,128,0,64147:0:0:0:0:
192,192,64235,128,0,64323:0:0:0:0:
448,192,64235,128,0,64323:0:0:0:0:
192,192,64411,1,0,0:0:0:0:
448,192,64411,1,0,0:0:0:0:
192,192,64499,1,0,0:0:0:0:
448,192,64499,1,0,0:0:0:0:
192,192,64588,128,0,64676:0:0:0:0:
448,192,64588,128,0,64676:0:0:0:0:
448,192,64764,128,0,64852:0:0:0:0:
192,192,64764,128,0,64852:0:0:0:0:
320,192,64941,1,0,0:0:0:0:
192,192,64941,1,0,0:0:0:0:
64,192,64941,1,0,0:0:0:0:
64,192,65029,128,0,65117:0:0:0:0:
320,192,65029,128,0,65117:0:0:0:0:
64,192,65205,128,0,65294:0:0:0:0:
320,192,65205,128,0,65294:0:0:0:0:
64,192,65382,1,0,0:0:0:0:
320,192,65382,1,0,0:0:0:0:
64,192,65470,128,0,65558:0:0:0:0:
320,192,65470,128,0,65558:0:0:0:0:
448,192,65647,1,0,0:0:0:0:
192,192,65647,128,0,65823:0:0:0:0:
320,192,65647,128,0,65823:0:0:0:0:
192,192,65911,1,0,0:0:0:0:
320,192,65911,1,0,0:0:0:0:
192,192,65999,1,0,0:0:0:0:
320,192,65999,1,0,0:0:0:0:
192,192,66088,128,0,66176:0:0:0:0:
320,192,66088,128,0,66176:0:0:0:0:
320,192,66264,128,0,66352:0:0:0:0:
192,192,66264,128,0,66352:0:0:0:0:
320,192,66441,1,0,0:0:0:0:
192,192,66441,1,0,0:0:0:0:
192,192,66529,128,0,66617:0:0:0:0:
320,192,66529,128,0,66617:0:0:0:0:
192,192,66705,128,0,66970:0:0:0:0:
320,192,66705,128,0,66970:0:0:0:0:
64,192,67058,1,0,0:0:0:0:
192,192,67058,1,0,0:0:0:0:
192,192,67147,1,0,0:0:0:0:
192,192,67323,1,0,0:0:0:0:
192,192,67499,1,0,0:0:0:0:
192,192,67588,1,0,0:0:0:0:
448,192,67764,1,0,0:0:0:0:
320,192,67764,1,0,0:0:0:0:
320,192,67852,1,0,0:0:0:0:
320,192,68029,1,0,0:0:0:0:
320,192,68205,1,0,0:0:0:0:
320,192,68294,1,0,0:0:0:0:
192,192,68470,1,0,0:0:0:0:
320,192,68470,1,0,0:0:0:0:
192,192,68558,1,0,0:0:0:0:
192,192,68735,1,0,0:0:0:0:
192,192,68911,1,0,0:0:0:0:
192,192,68999,1,0,0:0:0:0:
192,192,69176,1,0,0:0:0:0:
320,192,69176,1,0,0:0:0:0:
320,192,69264,1,0,0:0:0:0:
320,192,69441,1,0,0:0:0:0:
320,192,69617,1,0,0:0:0:0:
320,192,69705,1,0,0:0:0:0:
192,192,69882,1,0,0:0:0:0:
64,192,69882,1,0,0:0:0:0:
320,192,69882,128,0,69970:0:0:0:0:
448,192,69882,128,0,69970:0:0:0:0:
320,192,70058,1,0,0:0:0:0:
448,192,70058,1,0,0:0:0:0:
448,192,70235,1,0,0:0:0:0:
320,192,70235,1,0,0:0:0:0:
320,192,70323,128,0,70411:0:0:0:0:
448,192,70323,128,0,70411:0:0:0:0:
448,192,70499,1,0,0:0:0:0:
320,192,70499,1,0,0:0:0:0:
320,192,70588,1,0,0:0:0:0:
448,192,70588,1,0,0:0:0:0:
192,192,70588,128,0,70676:0:0:0:0:
64,192,70588,128,0,70676:0:0:0:0:
448,192,70676,1,0,0:0:0:0:
192,192,70764,1,0,0:0:0:0:
64,192,70764,1,0,0:0:0:0:
320,192,70764,1,0,0:0:0:0:
448,192,70852,1,0,0:0:0:0:
192,192,70941,1,0,0:0:0:0:
64,192,70941,1,0,0:0:0:0:
320,192,70941,1,0,0:0:0:0:
64,192,71029,128,0,71117:0:0:0:0:
192,192,71029,128,0,71117:0:0:0:0:
448,192,71029,1,0,0:0:0:0:
320,192,71117,1,0,0:0:0:0:
192,192,71205,1,0,0:0:0:0:
64,192,71205,1,0,0:0:0:0:
448,192,71205,1,0,0:0:0:0:
320,192,71294,1,0,0:0:0:0:
192,192,71294,1,0,0:0:0:0:
64,192,71294,1,0,0:0:0:0:
448,192,71382,1,0,0:0:0:0:
320,192,71470,1,0,0:0:0:0:
448,192,71558,1,0,0:0:0:0:
320,192,71647,1,0,0:0:0:0:
448,192,71735,1,0,0:0:0:0:
320,192,71823,1,0,0:0:0:0:
448,192,71911,1,0,0:0:0:0:
320,192,71999,1,0,0:0:0:0:
192,192,71999,1,0,0:0:0:0:
64,192,71999,1,0,0:0:0:0:
448,192,72088,1,0,0:0:0:0:
320,192,72176,1,0,0:0:0:0:
448,192,72264,1,0,0:0:0:0:
320,192,72352,1,0,0:0:0:0:
192,192,72352,1,0,0:0:0:0:
64,192,72352,1,0,0:0:0:0:
448,192,72352,1,0,0:0:0:0:
448,192,72441,1,0,0:0:0:0:
320,192,72529,1,0,0:0:0:0:
448,192,72617,1,0,0:0:0:0:
320,192,72705,1,0,0:0:0:0:
192,192,72705,1,0,0:0:0:0:
64,192,72705,1,0,0:0:0:0:
448,192,72705,1,0,0:0:0:0:
320,192,72794,1,0,0:0:0:0:
448,192,72794,1,0,0:0:0:0:
192,192,72882,1,0,0:0:0:0:
64,192,72882,1,0,0:0:0:0:
320,192,72970,1,0,0:0:0:0:
448,192,72970,1,0,0:0:0:0:
448,192,73058,1,0,0:0:0:0:
320,192,73058,1,0,0:0:0:0:
192,192,73058,1,0,0:0:0:0:
64,192,73058,1,0,0:0:0:0:
64,192,73147,1,0,0:0:0:0:
192,192,73147,1,0,0:0:0:0:
320,192,73235,1,0,0:0:0:0:
448,192,73235,1,0,0:0:0:0:
192,192,73323,1,0,0:0:0:0:
64,192,73323,1,0,0:0:0:0:
320,192,73411,1,0,0:0:0:0:
448,192,73411,1,0,0:0:0:0:
192,192,73411,1,0,0:0:0:0:
64,192,73411,1,0,0:0:0:0:
192,192,73499,1,0,0:0:0:0:
64,192,73499,1,0,0:0:0:0:
320,192,73588,1,0,0:0:0:0:
448,192,73588,1,0,0:0:0:0:
192,192,73676,1,0,0:0:0:0:
64,192,73676,1,0,0:0:0:0:
320,192,73764,1,0,0:0:0:0:
448,192,73764,1,0,0:0:0:0:
192,192,73764,1,0,0:0:0:0:
64,192,73764,1,0,0:0:0:0:
192,192,73852,1,0,0:0:0:0:
64,192,73852,1,0,0:0:0:0:
320,192,73941,1,0,0:0:0:0:
448,192,73941,1,0,0:0:0:0:
192,192,74029,1,0,0:0:0:0:
64,192,74029,1,0,0:0:0:0:
320,192,75529,1,0,0:0:0:0:
192,192,75529,1,0,0:0:0:0:
64,192,76235,128,0,76852:0:0:0:0:
192,192,76235,128,0,76852:0:0:0:0:
320,192,76235,128,0,76852:0:0:0:0:
448,192,76235,128,0,76852:0:0:0:0:
320,192,76941,128,0,77029:0:0:0:0:
448,192,76941,128,0,77029:0:0:0:0:
448,192,77117,1,0,0:0:0:0:
320,192,77117,1,0,0:0:0:0:
320,192,77205,128,0,77294:0:0:0:0:
448,192,77205,128,0,77294:0:0:0:0:
320,192,77382,128,0,77558:0:0:0:0:
448,192,77382,128,0,77558:0:0:0:0:
320,192,77647,128,0,77823:0:0:0:0:
192,192,77647,128,0,77823:0:0:0:0:
64,192,77647,128,0,77911:0:0:0:0:
192,192,77911,1,0,0:0:0:0:
320,192,77911,1,0,0:0:0:0:
192,192,77999,128,0,78264:0:0:0:0:
320,192,77999,128,0,78264:0:0:0:0:
448,192,77999,128,0,78264:0:0:0:0:
192,192,78352,128,0,78441:0:0:0:0:
64,192,78352,128,0,78441:0:0:0:0:
192,192,78529,1,0,0:0:0:0:
64,192,78529,1,0,0:0:0:0:
192,192,78617,128,0,78705:0:0:0:0:
64,192,78617,128,0,78705:0:0:0:0:
192,192,78794,128,0,78970:0:0:0:0:
64,192,78794,128,0,78970:0:0:0:0:
192,192,79058,128,0,79235:0:0:0:0:
320,192,79058,128,0,79235:0:0:0:0:
448,192,79058,128,0,81882:0:0:0:0:
320,192,79323,1,0,0:0:0:0:
192,192,79323,1,0,0:0:0:0:
320,192,79411,128,0,79676:0:0:0:0:
192,192,79411,128,0,79676:0:0:0:0:
64,192,79411,128,0,79676:0:0:0:0:
64,192,79764,128,0,79852:0:0:0:0:
192,192,79764,128,0,79852:0:0:0:0:
192,192,79941,1,0,0:0:0:0:
320,192,79941,1,0,0:0:0:0:
192,192,80029,128,0,80117:0:0:0:0:
320,192,80029,128,0,80117:0:0:0:0:
192,192,80205,1,0,0:0:0:0:
64,192,80205,1,0,0:0:0:0:
64,192,80294,128,0,80382:0:0:0:0:
192,192,80294,128,0,80382:0:0:0:0:
320,192,80470,1,0,0:0:0:0:
192,192,80558,1,0,0:0:0:0:
64,192,80647,1,0,0:0:0:0:
320,192,80735,1,0,0:0:0:0:
192,192,80823,1,0,0:0:0:0:
64,192,80911,1,0,0:0:0:0:
320,192,80999,1,0,0:0:0:0:
192,192,81088,1,0,0:0:0:0:
64,192,81176,1,0,0:0:0:0:
192,192,81264,1,0,0:0:0:0:
64,192,81352,1,0,0:0:0:0:
192,192,81441,1,0,0:0:0:0:
64,192,81529,1,0,0:0:0:0:
192,192,81617,1,0,0:0:0:0:
64,192,81705,1,0,0:0:0:0:
192,192,81794,1,0,0:0:0:0:
64,192,81882,1,0,0:0:0:0:
192,192,81882,128,0,82499:0:0:0:0:
320,192,81882,128,0,82499:0:0:0:0:
320,192,82588,1,0,0:0:0:0:
192,192,82588,1,0,0:0:0:0:
64,192,82588,1,0,0:0:0:0:
64,192,82676,128,0,82764:0:0:0:0:
192,192,82676,128,0,82764:0:0:0:0:
192,192,82852,1,0,0:0:0:0:
64,192,82852,1,0,0:0:0:0:
64,192,82941,128,0,83029:0:0:0:0:
192,192,82941,128,0,83029:0:0:0:0:
192,192,83117,128,0,83205:0:0:0:0:
64,192,83117,128,0,83205:0:0:0:0:
320,192,83294,128,0,83382:0:0:0:0:
448,192,83294,128,0,83382:0:0:0:0:
320,192,83647,128,0,83911:0:0:0:0:
448,192,83647,128,0,83911:0:0:0:0:
320,192,83999,128,0,84088:0:0:0:0:
448,192,83999,128,0,84088:0:0:0:0:
448,192,84176,1,0,0:0:0:0:
320,192,84176,1,0,0:0:0:0:
448,192,84264,1,0,0:0:0:0:
320,192,84264,1,0,0:0:0:0:
320,192,84352,128,0,84441:0:0:0:0:
448,192,84352,128,0,84441:0:0:0:0:
320,192,84529,128,0,84617:0:0:0:0:
448,192,84529,128,0,84617:0:0:0:0:
192,192,84705,128,0,84794:0:0:0:0:
64,192,84705,128,0,84794:0:0:0:0:
64,192,85058,128,0,87088:0:0:0:0:
192,192,85058,128,0,85676:0:0:0:0:
320,192,85764,128,0,85852:0:0:0:0:
192,192,85764,128,0,85852:0:0:0:0:
320,192,85941,128,0,86029:0:0:0:0:
192,192,85941,128,0,86029:0:0:0:0:
192,192,86117,1,0,0:0:0:0:
320,192,86117,1,0,0:0:0:0:
320,192,86294,1,0,0:0:0:0:
192,192,86294,1,0,0:0:0:0:
192,192,86382,1,0,0:0:0:0:
320,192,86382,1,0,0:0:0:0:
192,192,86558,128,0,86647:0:0:0:0:
320,192,86558,128,0,86647:0:0:0:0:
320,192,86823,128,0,87088:0:0:0:0:
192,192,86823,128,0,87088:0:0:0:0:
192,192,87176,1,0,0:0:0:0:
320,192,87176,1,0,0:0:0:0:
448,192,87176,1,0,0:0:0:0:
64,192,87176,1,0,0:0:0:0:
192,192,87529,128,0,87794:0:0:0:0:
320,192,87529,128,0,88147:0:0:0:0:
448,192,87529,128,0,88499:0:0:0:0:
64,192,87529,128,0,87794:0:0:0:0:
64,192,87882,128,0,87970:0:0:0:0:
192,192,88147,1,0,0:0:0:0:
64,192,88147,1,0,0:0:0:0:
192,192,88235,1,0,0:0:0:0:
64,192,88235,1,0,0:0:0:0:
192,192,88411,1,0,0:0:0:0:
64,192,88411,1,0,0:0:0:0:
192,192,88588,128,0,88676:0:0:0:0:
448,192,88676,1,0,0:0:0:0:
320,192,88676,1,0,0:0:0:0:
448,192,88852,1,0,0:0:0:0:
320,192,88852,1,0,0:0:0:0:
320,192,88941,128,0,89205:0:0:0:0:
448,192,88941,128,0,89205:0:0:0:0:
192,192,89029,1,0,0:0:0:0:
64,192,89029,1,0,0:0:0:0:
192,192,89117,1,0,0:0:0:0:
64,192,89117,1,0,0:0:0:0:
448,192,89294,128,0,89382:0:0:0:0:
192,192,89294,128,0,89558:0:0:0:0:
64,192,89294,128,0,89558:0:0:0:0:
448,192,89470,1,0,0:0:0:0:
320,192,89470,1,0,0:0:0:0:
448,192,89647,128,0,89735:0:0:0:0:
192,192,89647,128,0,89735:0:0:0:0:
320,192,89647,128,0,89735:0:0:0:0:
320,192,89823,1,0,0:0:0:0:
192,192,89823,1,0,0:0:0:0:
320,192,89911,1,0,0:0:0:0:
192,192,89911,1,0,0:0:0:0:
192,192,89999,128,0,90088:0:0:0:0:
320,192,89999,128,0,90088:0:0:0:0:
320,192,90176,128,0,90264:0:0:0:0:
192,192,90176,128,0,90264:0:0:0:0:
320,192,90352,128,0,90529:0:0:0:0:
448,192,90352,128,0,90529:0:0:0:0:
448,192,90617,1,0,0:0:0:0:
320,192,90617,1,0,0:0:0:0:
320,192,90705,128,0,90970:0:0:0:0:
448,192,90705,128,0,90970:0:0:0:0:
448,192,91058,1,0,0:0:0:0:
320,192,91058,1,0,0:0:0:0:
320,192,91147,1,0,0:0:0:0:
192,192,91147,1,0,0:0:0:0:
192,192,91235,1,0,0:0:0:0:
64,192,91235,1,0,0:0:0:0:
192,192,91323,1,0,0:0:0:0:
320,192,91323,1,0,0:0:0:0:
320,192,91411,1,0,0:0:0:0:
448,192,91411,1,0,0:0:0:0:
320,192,91499,1,0,0:0:0:0:
192,192,91499,1,0,0:0:0:0:
64,192,91588,1,0,0:0:0:0:
192,192,91676,1,0,0:0:0:0:
320,192,91764,128,0,91852:0:0:0:0:
192,192,91764,1,0,0:0:0:0:
448,192,91852,128,0,91941:0:0:0:0:
64,192,91852,1,0,0:0:0:0:
192,192,91941,128,0,92029:0:0:0:0:
64,192,92029,128,0,92117:0:0:0:0:
320,192,92029,1,0,0:0:0:0:
320,192,92117,128,0,92205:0:0:0:0:
448,192,92117,1,0,0:0:0:0:
192,192,92205,128,0,92294:0:0:0:0:
448,192,92294,128,0,92382:0:0:0:0:
64,192,92294,1,0,0:0:0:0:
64,192,92382,128,0,92470:0:0:0:0:
320,192,92382,1,0,0:0:0:0:
192,192,92470,1,0,0:0:0:0:
320,192,92558,1,0,0:0:0:0:
192,192,92647,1,0,0:0:0:0:
320,192,92735,1,0,0:0:0:0:
192,192,92823,1,0,0:0:0:0:
448,192,92823,1,0,0:0:0:0:
320,192,92911,1,0,0:0:0:0:
64,192,92911,1,0,0:0:0:0:
192,192,92999,1,0,0:0:0:0:
448,192,92999,1,0,0:0:0:0:
320,192,93088,1,0,0:0:0:0:
64,192,93088,1,0,0:0:0:0:
192,192,93176,128,0,93441:0:0:0:0:
320,192,93176,128,0,93441:0:0:0:0:
448,192,93176,128,0,93441:0:0:0:0:
192,192,93529,128,0,93617:0:0:0:0:
64,192,93529,1,0,0:0:0:0:
320,192,93529,1,0,0:0:0:0:
320,192,93705,1,0,0:0:0:0:
448,192,93705,1,0,0:0:0:0:
448,192,93882,1,0,0:0:0:0:
320,192,93882,1,0,0:0:0:0:
192,192,93882,1,0,0:0:0:0:
448,192,94058,1,0,0:0:0:0:
320,192,94058,1,0,0:0:0:0:
320,192,94235,128,0,94323:0:0:0:0:
448,192,94235,1,0,0:0:0:0:
192,192,94235,128,0,94499:0:0:0:0:
64,192,94588,1,0,0:0:0:0:
192,192,94588,1,0,0:0:0:0:
320,192,94588,128,0,94852:0:0:0:0:
448,192,94588,128,0,94852:0:0:0:0:
64,192,94941,1,0,0:0:0:0:
320,192,94941,128,0,95205:0:0:0:0:
192,192,94941,128,0,95029:0:0:0:0:
448,192,95294,1,0,0:0:0:0:
64,192,95294,128,0,95382:0:0:0:0:
192,192,95294,128,0,95382:0:0:0:0:
320,192,95294,1,0,0:0:0:0:
64,192,95470,1,0,0:0:0:0:
192,192,95470,1,0,0:0:0:0:
64,192,95558,1,0,0:0:0:0:
192,192,95558,1,0,0:0:0:0:
64,192,95647,128,0,95823:0:0:0:0:
192,192,95647,128,0,95823:0:0:0:0:
320,192,95647,128,0,95735:0:0:0:0:
448,192,95999,128,0,96264:0:0:0:0:
64,192,95999,1,0,0:0:0:0:
192,192,95999,128,0,96176:0:0:0:0:
320,192,95999,128,0,96176:0:0:0:0:
64,192,96352,128,0,96617:0:0:0:0:
192,192,96352,1,0,0:0:0:0:
320,192,96352,1,0,0:0:0:0:
448,192,96352,1,0,0:0:0:0:
320,192,96441,1,0,0:0:0:0:
192,192,96529,1,0,0:0:0:0:
320,192,96617,1,0,0:0:0:0:
448,192,96705,1,0,0:0:0:0:
320,192,96794,1,0,0:0:0:0:
448,192,96882,1,0,0:0:0:0:
320,192,96970,1,0,0:0:0:0:
448,192,97058,1,0,0:0:0:0:
320,192,97147,1,0,0:0:0:0:
448,192,97235,1,0,0:0:0:0:
320,192,97323,1,0,0:0:0:0:
448,192,97411,1,0,0:0:0:0:
320,192,97411,1,0,0:0:0:0:
64,192,97411,128,0,97764:0:0:0:0:
192,192,97411,128,0,97764:0:0:0:0:
320,192,97764,128,0,98117:0:0:0:0:
448,192,97764,128,0,98117:0:0:0:0:
192,192,98117,128,0,98470:0:0:0:0:
64,192,98117,128,0,98470:0:0:0:0:
320,192,98470,128,0,98823:0:0:0:0:
448,192,98470,128,0,98823:0:0:0:0:
192,192,98823,128,0,99176:0:0:0:0:
64,192,98823,128,0,99176:0:0:0:0:
320,192,99176,128,0,100147:0:0:0:0:
448,192,99176,128,0,100147:0:0:0:0:
192,192,99529,1,0,0:0:0:0:
64,192,99617,1,0,0:0:0:0:
192,192,99705,1,0,0:0:0:0:
64,192,99794,1,0,0:0:0:0:
192,192,99882,1,0,0:0:0:0:
64,192,99970,1,0,0:0:0:0:
192,192,100058,1,0,0:0:0:0:
64,192,100147,1,0,0:0:0:0:
448,192,100235,1,0,0:0:0:0:
64,192,100235,128,0,100323:0:0:0:0:
192,192,100235,128,0,100411:0:0:0:0:
320,192,100235,128,0,100499:0:0:0:0:
320,192,100588,128,0,100852:0:0:0:0:
192,192,100588,128,0,101205:0:0:0:0:
64,192,100588,128,0,101205:0:0:0:0:
448,192,100941,128,0,101558:0:0:0:0:
320,192,100941,128,0,101911:0:0:0:0:
192,192,101294,128,0,101911:0:0:0:0:
64,192,101294,128,0,101558:0:0:0:0:
64,192,101647,128,0,101911:0:0:0:0:
448,192,101647,128,0,101911:0:0:0:0:
320,192,101999,128,0,102264:0:0:0:0:
192,192,101999,128,0,102264:0:0:0:0:
64,192,101999,128,0,102264:0:0:0:0:
448,192,101999,128,0,102264:0:0:0:0:
64,192,102352,1,0,0:0:0:0:
448,192,102352,1,0,0:0:0:0:
192,192,102441,1,0,0:0:0:0:
320,192,102441,1,0,0:0:0:0:
64,192,102529,1,0,0:0:0:0:
448,192,102529,1,0,0:0:0:0:
192,192,102617,1,0,0:0:0:0:
320,192,102617,1,0,0:0:0:0:
64,192,102705,1,0,0:0:0:0:
448,192,102705,1,0,0:0:0:0:
192,192,102794,1,0,0:0:0:0:
320,192,102794,1,0,0:0:0:0:
64,192,102882,1,0,0:0:0:0:
448,192,102882,1,0,0:0:0:0:
320,192,102970,1,0,0:0:0:0:
192,192,102970,1,0,0:0:0:0:
320,192,103058,1,0,0:0:0:0:
448,192,103058,1,0,0:0:0:0:
64,192,103058,128,0,103323:0:0:0:0:
192,192,103058,128,0,103235:0:0:0:0:
448,192,103411,1,0,0:0:0:0:
320,192,103499,1,0,0:0:0:0:
448,192,103588,1,0,0:0:0:0:
64,192,103676,1,0,0:0:0:0:
192,192,103764,1,0,0:0:0:0:
64,192,103852,1,0,0:0:0:0:
448,192,103941,1,0,0:0:0:0:
320,192,104029,1,0,0:0:0:0:
448,192,104117,1,0,0:0:0:0:
192,192,104205,1,0,0:0:0:0:
64,192,104294,1,0,0:0:0:0:
192,192,104382,1,0,0:0:0:0:
448,192,104470,1,0,0:0:0:0:
320,192,104558,1,0,0:0:0:0:
448,192,104647,1,0,0:0:0:0:
64,192,104735,1,0,0:0:0:0:
192,192,104823,1,0,0:0:0:0:
64,192,104911,1,0,0:0:0:0:
320,192,104999,1,0,0:0:0:0:
448,192,105088,1,0,0:0:0:0:
320,192,105176,1,0,0:0:0:0:
64,192,105264,1,0,0:0:0:0:
192,192,105352,1,0,0:0:0:0:
64,192,105441,1,0,0:0:0:0:
320,192,105529,1,0,0:0:0:0:
192,192,105617,1,0,0:0:0:0:
320,192,105705,1,0,0:0:0:0:
192,192,105794,1,0,0:0:0:0:
64,192,105882,1,0,0:0:0:0:
192,192,105882,128,0,105970:0:0:0:0:
320,192,105882,128,0,106058:0:0:0:0:
448,192,105882,128,0,106147:0:0:0:0:
192,192,106235,1,0,0:0:0:0:
64,192,106235,1,0,0:0:0:0:
320,192,106323,1,0,0:0:0:0:
192,192,106411,1,0,0:0:0:0:
64,192,106499,1,0,0:0:0:0:
192,192,106588,1,0,0:0:0:0:
320,192,106676,1,0,0:0:0:0:
448,192,106764,1,0,0:0:0:0:
320,192,106852,1,0,0:0:0:0:
192,192,106941,1,0,0:0:0:0:
64,192,106941,1,0,0:0:0:0:
320,192,107029,1,0,0:0:0:0:
448,192,107117,1,0,0:0:0:0:
320,192,107205,1,0,0:0:0:0:
192,192,107294,1,0,0:0:0:0:
64,192,107294,1,0,0:0:0:0:
448,192,107294,1,0,0:0:0:0:
320,192,107382,1,0,0:0:0:0:
192,192,107470,1,0,0:0:0:0:
64,192,107558,1,0,0:0:0:0:
192,192,107647,1,0,0:0:0:0:
320,192,107647,128,0,108352:0:0:0:0:
448,192,107647,128,0,108705:0:0:0:0:
64,192,107735,1,0,0:0:0:0:
192,192,107823,1,0,0:0:0:0:
64,192,107911,1,0,0:0:0:0:
192,192,107999,1,0,0:0:0:0:
64,192,108088,1,0,0:0:0:0:
192,192,108176,1,0,0:0:0:0:
64,192,108264,1,0,0:0:0:0:
192,192,108352,1,0,0:0:0:0:
64,192,108352,1,0,0:0:0:0:
320,192,108441,1,0,0:0:0:0:
192,192,108529,1,0,0:0:0:0:
64,192,108617,1,0,0:0:0:0:
320,192,108705,1,0,0:0:0:0:
64,192,108705,128,0,108970:0:0:0:0:
192,192,108705,128,0,108970:0:0:0:0:
320,192,108970,1,0,0:0:0:0:
448,192,108970,1,0,0:0:0:0:
64,192,109058,1,0,0:0:0:0:
192,192,109058,1,0,0:0:0:0:
320,192,109058,128,0,109323:0:0:0:0:
448,192,109058,128,0,109323:0:0:0:0:
192,192,109323,1,0,0:0:0:0:
64,192,109323,1,0,0:0:0:0:
320,192,109411,1,0,0:0:0:0:
448,192,109411,1,0,0:0:0:0:
192,192,109411,128,0,109676:0:0:0:0:
64,192,109411,128,0,109676:0:0:0:0:
320,192,109676,1,0,0:0:0:0:
448,192,109676,1,0,0:0:0:0:
192,192,109764,128,0,110029:0:0:0:0:
320,192,109764,128,0,110029:0:0:0:0:
64,192,109764,1,0,0:0:0:0:
448,192,109764,1,0,0:0:0:0:
448,192,110029,1,0,0:0:0:0:
64,192,110029,1,0,0:0:0:0:
64,192,110117,128,0,110205:0:0:0:0:
192,192,110117,128,0,110382:0:0:0:0:
320,192,110117,128,0,110382:0:0:0:0:
448,192,110117,128,0,110205:0:0:0:0:
64,192,110470,1,0,0:0:0:0:
448,192,110470,1,0,0:0:0:0:
320,192,110470,128,0,110735:0:0:0:0:
192,192,110470,128,0,110735:0:0:0:0:
64,192,110823,128,0,111176:0:0:0:0:
448,192,110823,128,0,111176:0:0:0:0:
320,192,110823,1,0,0:0:0:0:
192,192,110911,1,0,0:0:0:0:
320,192,110999,1,0,0:0:0:0:
192,192,111088,1,0,0:0:0:0:
320,192,111176,128,0,111529:0:0:0:0:
192,192,111176,128,0,111529:0:0:0:0:
448,192,111264,1,0,0:0:0:0:
64,192,111352,1,0,0:0:0:0:
448,192,111441,1,0,0:0:0:0:
64,192,111529,128,0,111882:0:0:0:0:
448,192,111529,128,0,111882:0:0:0:0:
320,192,111617,1,0,0:0:0:0:
192,192,111705,1,0,0:0:0:0:
320,192,111794,1,0,0:0:0:0:
192,192,111882,128,0,112235:0:0:0:0:
320,192,111882,128,0,112235:0:0:0:0:
64,192,111970,1,0,0:0:0:0:
448,192,112058,1,0,0:0:0:0:
64,192,112147,1,0,0:0:0:0:
448,192,112235,128,0,112588:0:0:0:0:
64,192,112235,128,0,112588:0:0:0:0:
320,192,112323,1,0,0:0:0:0:
192,192,112411,1,0,0:0:0:0:
320,192,112499,1,0,0:0:0:0:
192,192,112588,128,0,112852:0:0:0:0:
320,192,112588,128,0,112852:0:0:0:0:
64,192,112676,1,0,0:0:0:0:
448,192,112764,1,0,0:0:0:0:
64,192,112852,1,0,0:0:0:0:
64,192,112941,128,0,114264:0:0:0:0:
192,192,112941,128,0,114264:0:0:0:0:
320,192,112941,128,0,114264:0:0:0:0:
448,192,112941,128,0,114264:0:0:0:0:
64,192,114352,1,0,0:0:0:0:
192,192,114352,1,0,0:0:0:0:
320,192,114352,1,0,0:0:0:0:
448,192,114352,1,0,0:0:0:0:
