osu file format v14

[General]
AudioFilename: audio.mp3
AudioLeadIn: 0
PreviewTime: 7058
Countdown: 0
SampleSet: Soft
StackLeniency: 0.7
Mode: 3
LetterboxInBreaks: 0
SpecialStyle: 0
WidescreenStoryboard: 1

[Editor]
DistanceSpacing: 1
BeatDivisor: 3
GridSize: 4
TimelineZoom: 1

[Metadata]
Title:Kan Kan
TitleUnicode:Kan Kan
Artist:BeautifulDay
ArtistUnicode:BeautifulDay
Creator:Sirinogia
Version:Hard
Source:
Tags:Classical 菠菜进行曲 캉캉!! BeautifulDay KanKan OrchestralDance Can-can
BeatmapID:1502338
BeatmapSetID:710666

[Difficulty]
HPDrainRate:7.3
CircleSize:4
OverallDifficulty:7.5
ApproachRate:5
SliderMultiplier:1.79999990463257
SliderTickRate:1

[Events]
//Background and Video events
0,0,"bg.jpg",0,0
//Break Periods
//Storyboard Layer 0 (Background)
//Storyboard Layer 1 (Fail)
//Storyboard Layer 2 (Pass)
//Storyboard Layer 3 (Foreground)
//Storyboard Sound Samples

[TimingPoints]
0,352.941176470588,4,2,0,30,1,0

[HitObjects]
192,192,1411,5,0,0:0:0:0:
320,192,1529,1,0,0:0:0:0:
192,192,1647,1,0,0:0:0:0:
320,192,1764,1,0,0:0:0:0:
192,192,1882,1,0,0:0:0:0:
320,192,1999,1,0,0:0:0:0:
192,192,2117,1,0,0:0:0:0:
320,192,2235,1,0,0:0:0:0:
192,192,2352,1,0,0:0:0:0:
320,192,2470,1,0,0:0:0:0:
192,192,2588,1,0,0:0:0:0:
320,192,2705,1,0,0:0:0:0:
192,192,2823,1,0,0:0:0:0:
448,192,2823,128,0,5529:0:0:0:0:
320,192,2941,1,0,0:0:0:0:
192,192,3058,1,0,0:0:0:0:
320,192,3176,1,0,0:0:0:0:
192,192,3294,1,0,0:0:0:0:
320,192,3411,1,0,0:0:0:0:
192,192,3529,1,0,0:0:0:0:
320,192,3647,1,0,0:0:0:0:
192,192,3764,1,0,0:0:0:0:
320,192,3882,1,0,0:0:0:0:
192,192,3999,1,0,0:0:0:0:
320,192,4117,1,0,0:0:0:0:
192,192,4235,1,0,0:0:0:0:
320,192,4352,1,0,0:0:0:0:
192,192,4470,1,0,0:0:0:0:
320,192,4588,1,0,0:0:0:0:
192,192,4705,1,0,0:0:0:0:
320,192,4823,1,0,0:0:0:0:
192,192,4941,1,0,0:0:0:0:
320,192,5058,1,0,0:0:0:0:
192,192,5176,1,0,0:0:0:0:
320,192,5294,1,0,0:0:0:0:
192,192,5411,1,0,0:0:0:0:
320,192,5529,1,0,0:0:0:0:
64,192,5529,128,0,5764:0:0:0:0:
192,192,5647,1,0,0:0:0:0:
320,192,5764,1,0,0:0:0:0:
64,192,5882,128,0,6705:0:0:0:0:
192,192,5882,1,0,0:0:0:0:
320,192,5999,1,0,0:0:0:0:
192,192,6117,1,0,0:0:0:0:
320,192,6235,1,0,0:0:0:0:
192,192,6352,1,0,0:0:0:0:
320,192,6470,1,0,0:0:0:0:
192,192,6588,1,0,0:0:0:0:
320,192,6705,1,0,0:0:0:0:
448,192,7058,1,0,0:0:0:0:
448,192,7294,1,0,0:0:0:0:
448,192,7411,1,0,0:0:0:0:
448,192,7647,1,0,0:0:0:0:
448,192,7882,1,0,0:0:0:0:
448,192,7999,1,0,0:0:0:0:
192,192,8117,1,0,0:0:0:0:
64,192,8117,1,0,0:0:0:0:
192,192,8352,1,0,0:0:0:0:
192,192,8470,1,0,0:0:0:0:
192,192,8705,1,0,0:0:0:0:
192,192,8941,1,0,0:0:0:0:
192,192,9058,1,0,0:0:0:0:
320,192,9294,1,0,0:0:0:0:
320,192,9529,1,0,0:0:0:0:
192,192,9529,1,0,0:0:0:0:
320,192,9882,1,0,0:0:0:0:
320,192,9999,1,0,0:0:0:0:
320,192,10117,1,0,0:0:0:0:
320,192,10235,1,0,0:0:0:0:
320,192,10470,1,0,0:0:0:0:
320,192,10705,1,0,0:0:0:0:
320,192,10823,1,0,0:0:0:0:
320,192,10941,1,0,0:0:0:0:
320,192,11058,1,0,0:0:0:0:
64,192,11294,1,0,0:0:0:0:
192,192,11411,1,0,0:0:0:0:
448,192,11529,1,0,0:0:0:0:
320,192,11647,1,0,0:0:0:0:
64,192,11764,1,0,0:0:0:0:
192,192,11882,1,0,0:0:0:0:
448,192,11999,1,0,0:0:0:0:
320,192,12117,1,0,0:0:0:0:
64,192,12235,1,0,0:0:0:0:
192,192,12352,1,0,0:0:0:0:
448,192,12470,1,0,0:0:0:0:
320,192,12588,1,0,0:0:0:0:
192,192,12705,1,0,0:0:0:0:
64,192,12705,1,0,0:0:0:0:
192,192,12941,1,0,0:0:0:0:
192,192,13058,1,0,0:0:0:0:
192,192,13294,1,0,0:0:0:0:
192,192,13529,1,0,0:0:0:0:
192,192,13647,1,0,0:0:0:0:
192,192,13764,1,0,0:0:0:0:
320,192,13999,1,0,0:0:0:0:
448,192,14117,1,0,0:0:0:0:
320,192,14235,1,0,0:0:0:0:
192,192,14352,1,0,0:0:0:0:
64,192,14470,1,0,0:0:0:0:
192,192,14588,1,0,0:0:0:0:
320,192,14705,1,0,0:0:0:0:
448,192,14823,1,0,0:0:0:0:
192,192,14941,1,0,0:0:0:0:
64,192,14941,1,0,0:0:0:0:
320,192,15058,1,0,0:0:0:0:
64,192,15176,1,0,0:0:0:0:
192,192,15176,1,0,0:0:0:0:
448,192,15529,1,0,0:0:0:0:
320,192,15529,1,0,0:0:0:0:
320,192,15764,1,0,0:0:0:0:
320,192,15882,1,0,0:0:0:0:
320,192,16117,1,0,0:0:0:0:
320,192,16352,1,0,0:0:0:0:
320,192,16470,1,0,0:0:0:0:
320,192,16588,1,0,0:0:0:0:
192,192,16823,1,0,0:0:0:0:
64,192,16941,1,0,0:0:0:0:
192,192,17058,1,0,0:0:0:0:
448,192,17176,1,0,0:0:0:0:
320,192,17294,1,0,0:0:0:0:
448,192,17411,1,0,0:0:0:0:
192,192,17529,1,0,0:0:0:0:
192,192,17647,1,0,0:0:0:0:
320,192,17764,1,0,0:0:0:0:
192,192,17882,1,0,0:0:0:0:
192,192,17999,1,0,0:0:0:0:
192,192,18117,1,0,0:0:0:0:
320,192,18352,128,0,18705:0:0:0:0:
448,192,18352,1,0,0:0:0:0:
192,192,18352,1,0,0:0:0:0:
64,192,18705,128,0,19058:0:0:0:0:
192,192,18705,1,0,0:0:0:0:
448,192,19058,128,0,19411:0:0:0:0:
320,192,19058,1,0,0:0:0:0:
192,192,19411,128,0,19764:0:0:0:0:
64,192,19411,1,0,0:0:0:0:
320,192,19764,1,0,0:0:0:0:
320,192,19882,1,0,0:0:0:0:
320,192,19999,1,0,0:0:0:0:
448,192,20117,1,0,0:0:0:0:
320,192,20235,1,0,0:0:0:0:
320,192,20352,1,0,0:0:0:0:
320,192,20470,1,0,0:0:0:0:
192,192,20588,1,0,0:0:0:0:
192,192,20705,1,0,0:0:0:0:
64,192,20705,1,0,0:0:0:0:
192,192,20823,1,0,0:0:0:0:
64,192,20823,1,0,0:0:0:0:
192,192,21176,1,0,0:0:0:0:
64,192,21176,128,0,21529:0:0:0:0:
320,192,21176,1,0,0:0:0:0:
448,192,21529,128,0,21882:0:0:0:0:
320,192,21529,1,0,0:0:0:0:
192,192,21882,1,0,0:0:0:0:
64,192,21882,128,0,22235:0:0:0:0:
448,192,22235,128,0,22588:0:0:0:0:
320,192,22235,1,0,0:0:0:0:
192,192,22588,1,0,0:0:0:0:
192,192,22705,1,0,0:0:0:0:
192,192,22823,1,0,0:0:0:0:
320,192,22941,1,0,0:0:0:0:
192,192,23058,1,0,0:0:0:0:
192,192,23176,1,0,0:0:0:0:
192,192,23294,1,0,0:0:0:0:
320,192,23411,1,0,0:0:0:0:
320,192,23529,1,0,0:0:0:0:
448,192,23529,1,0,0:0:0:0:
320,192,23647,1,0,0:0:0:0:
448,192,23647,1,0,0:0:0:0:
320,192,23999,128,0,24352:0:0:0:0:
192,192,23999,1,0,0:0:0:0:
64,192,23999,1,0,0:0:0:0:
192,192,24352,128,0,24705:0:0:0:0:
448,192,24352,1,0,0:0:0:0:
320,192,24705,128,0,25058:0:0:0:0:
64,192,24705,1,0,0:0:0:0:
192,192,25058,128,0,25411:0:0:0:0:
448,192,25058,1,0,0:0:0:0:
448,192,25411,1,0,0:0:0:0:
448,192,25529,1,0,0:0:0:0:
448,192,25647,1,0,0:0:0:0:
320,192,25764,1,0,0:0:0:0:
448,192,25882,1,0,0:0:0:0:
448,192,25999,1,0,0:0:0:0:
448,192,26117,1,0,0:0:0:0:
320,192,26235,1,0,0:0:0:0:
320,192,26352,1,0,0:0:0:0:
320,192,26470,1,0,0:0:0:0:
192,192,26823,128,0,27176:0:0:0:0:
320,192,26823,1,0,0:0:0:0:
448,192,26823,1,0,0:0:0:0:
448,192,27176,128,0,27529:0:0:0:0:
320,192,27176,1,0,0:0:0:0:
64,192,27529,128,0,27882:0:0:0:0:
192,192,27529,1,0,0:0:0:0:
320,192,27882,128,0,28235:0:0:0:0:
448,192,27882,1,0,0:0:0:0:
192,192,28235,1,0,0:0:0:0:
64,192,28235,1,0,0:0:0:0:
192,192,28352,1,0,0:0:0:0:
192,192,28470,1,0,0:0:0:0:
192,192,28588,1,0,0:0:0:0:
192,192,28705,1,0,0:0:0:0:
192,192,28823,1,0,0:0:0:0:
320,192,28941,1,0,0:0:0:0:
448,192,28941,1,0,0:0:0:0:
448,192,29058,1,0,0:0:0:0:
448,192,29176,1,0,0:0:0:0:
448,192,29294,1,0,0:0:0:0:
320,192,29294,1,0,0:0:0:0:
320,192,29411,1,0,0:0:0:0:
320,192,29529,1,0,0:0:0:0:
192,192,29647,1,0,0:0:0:0:
320,192,29647,1,0,0:0:0:0:
192,192,29764,1,0,0:0:0:0:
192,192,29882,1,0,0:0:0:0:
192,192,29999,1,0,0:0:0:0:
64,192,29999,1,0,0:0:0:0:
64,192,30117,1,0,0:0:0:0:
64,192,30235,1,0,0:0:0:0:
64,192,30352,1,0,0:0:0:0:
448,192,30352,1,0,0:0:0:0:
448,192,30470,1,0,0:0:0:0:
448,192,30588,1,0,0:0:0:0:
448,192,30705,1,0,0:0:0:0:
64,192,30705,1,0,0:0:0:0:
64,192,30823,1,0,0:0:0:0:
64,192,30941,1,0,0:0:0:0:
192,192,31058,1,0,0:0:0:0:
64,192,31058,1,0,0:0:0:0:
192,192,31176,1,0,0:0:0:0:
192,192,31294,1,0,0:0:0:0:
320,192,31411,1,0,0:0:0:0:
192,192,31411,1,0,0:0:0:0:
320,192,31529,1,0,0:0:0:0:
320,192,31647,1,0,0:0:0:0:
320,192,31764,1,0,0:0:0:0:
192,192,31764,1,0,0:0:0:0:
64,192,31882,1,0,0:0:0:0:
192,192,31999,1,0,0:0:0:0:
64,192,32117,1,0,0:0:0:0:
448,192,32235,1,0,0:0:0:0:
320,192,32352,1,0,0:0:0:0:
448,192,32470,1,0,0:0:0:0:
192,192,32588,1,0,0:0:0:0:
64,192,32705,1,0,0:0:0:0:
192,192,32823,1,0,0:0:0:0:
448,192,32941,1,0,0:0:0:0:
320,192,33058,1,0,0:0:0:0:
448,192,33176,1,0,0:0:0:0:
320,192,33294,1,0,0:0:0:0:
192,192,33411,1,0,0:0:0:0:
64,192,33529,1,0,0:0:0:0:
192,192,33647,1,0,0:0:0:0:
320,192,33764,1,0,0:0:0:0:
448,192,33882,1,0,0:0:0:0:
320,192,33999,1,0,0:0:0:0:
192,192,34117,1,0,0:0:0:0:
64,192,34235,1,0,0:0:0:0:
192,192,34352,1,0,0:0:0:0:
320,192,34470,1,0,0:0:0:0:
448,192,34588,1,0,0:0:0:0:
448,192,35999,1,0,0:0:0:0:
64,192,35999,1,0,0:0:0:0:
192,192,35999,128,0,36705:0:0:0:0:
320,192,35999,128,0,36705:0:0:0:0:
64,192,36705,1,0,0:0:0:0:
448,192,36705,1,0,0:0:0:0:
192,192,36823,1,0,0:0:0:0:
320,192,36823,1,0,0:0:0:0:
64,192,36941,1,0,0:0:0:0:
448,192,36941,1,0,0:0:0:0:
192,192,37058,1,0,0:0:0:0:
320,192,37058,1,0,0:0:0:0:
64,192,37176,1,0,0:0:0:0:
448,192,37176,1,0,0:0:0:0:
192,192,37294,1,0,0:0:0:0:
448,192,37411,1,0,0:0:0:0:
320,192,37411,1,0,0:0:0:0:
192,192,37529,1,0,0:0:0:0:
192,192,37647,1,0,0:0:0:0:
448,192,37764,1,0,0:0:0:0:
320,192,37764,1,0,0:0:0:0:
192,192,37882,1,0,0:0:0:0:
64,192,37999,1,0,0:0:0:0:
320,192,38117,1,0,0:0:0:0:
192,192,38117,1,0,0:0:0:0:
64,192,38235,1,0,0:0:0:0:
448,192,38235,1,0,0:0:0:0:
320,192,38352,1,0,0:0:0:0:
192,192,38352,1,0,0:0:0:0:
448,192,38470,1,0,0:0:0:0:
64,192,38470,1,0,0:0:0:0:
320,192,38588,1,0,0:0:0:0:
192,192,38588,1,0,0:0:0:0:
448,192,38705,1,0,0:0:0:0:
192,192,38823,1,0,0:0:0:0:
64,192,38823,1,0,0:0:0:0:
320,192,38941,1,0,0:0:0:0:
320,192,39058,1,0,0:0:0:0:
192,192,39176,1,0,0:0:0:0:
64,192,39176,1,0,0:0:0:0:
448,192,39294,1,0,0:0:0:0:
320,192,39411,1,0,0:0:0:0:
192,192,39529,1,0,0:0:0:0:
64,192,39529,1,0,0:0:0:0:
320,192,39764,1,0,0:0:0:0:
448,192,39764,1,0,0:0:0:0:
192,192,39999,1,0,0:0:0:0:
64,192,39999,1,0,0:0:0:0:
320,192,40235,1,0,0:0:0:0:
192,192,40235,1,0,0:0:0:0:
448,192,40352,1,0,0:0:0:0:
448,192,40470,1,0,0:0:0:0:
448,192,40588,1,0,0:0:0:0:
64,192,40588,1,0,0:0:0:0:
64,192,40705,1,0,0:0:0:0:
64,192,40823,1,0,0:0:0:0:
192,192,40941,1,0,0:0:0:0:
320,192,40941,1,0,0:0:0:0:
320,192,41058,1,0,0:0:0:0:
320,192,41176,1,0,0:0:0:0:
320,192,41294,1,0,0:0:0:0:
64,192,41294,1,0,0:0:0:0:
192,192,41411,1,0,0:0:0:0:
192,192,41529,1,0,0:0:0:0:
192,192,41647,1,0,0:0:0:0:
448,192,41647,128,0,42352:0:0:0:0:
320,192,41647,1,0,0:0:0:0:
320,192,41882,1,0,0:0:0:0:
320,192,41999,1,0,0:0:0:0:
192,192,41999,1,0,0:0:0:0:
192,192,42352,1,0,0:0:0:0:
64,192,42352,1,0,0:0:0:0:
320,192,42470,1,0,0:0:0:0:
448,192,42588,1,0,0:0:0:0:
320,192,42705,1,0,0:0:0:0:
192,192,42823,1,0,0:0:0:0:
64,192,42941,1,0,0:0:0:0:
192,192,43058,1,0,0:0:0:0:
320,192,43058,1,0,0:0:0:0:
192,192,43411,1,0,0:0:0:0:
320,192,43411,1,0,0:0:0:0:
320,192,43647,1,0,0:0:0:0:
192,192,43764,1,0,0:0:0:0:
64,192,43764,1,0,0:0:0:0:
320,192,43882,1,0,0:0:0:0:
448,192,43999,1,0,0:0:0:0:
320,192,44117,1,0,0:0:0:0:
192,192,44235,1,0,0:0:0:0:
64,192,44352,1,0,0:0:0:0:
192,192,44470,1,0,0:0:0:0:
320,192,44470,1,0,0:0:0:0:
320,192,44823,1,0,0:0:0:0:
192,192,44823,1,0,0:0:0:0:
192,192,45058,1,0,0:0:0:0:
320,192,45176,1,0,0:0:0:0:
448,192,45176,1,0,0:0:0:0:
448,192,45411,1,0,0:0:0:0:
448,192,45529,1,0,0:0:0:0:
448,192,45647,1,0,0:0:0:0:
448,192,45882,1,0,0:0:0:0:
320,192,45882,1,0,0:0:0:0:
192,192,45999,1,0,0:0:0:0:
320,192,46117,1,0,0:0:0:0:
320,192,46235,1,0,0:0:0:0:
320,192,46352,1,0,0:0:0:0:
192,192,46470,1,0,0:0:0:0:
320,192,46588,1,0,0:0:0:0:
448,192,46588,1,0,0:0:0:0:
320,192,46941,1,0,0:0:0:0:
192,192,46941,1,0,0:0:0:0:
64,192,46941,1,0,0:0:0:0:
320,192,47294,128,0,47999:0:0:0:0:
448,192,47294,128,0,47999:0:0:0:0:
192,192,47294,1,0,0:0:0:0:
64,192,47294,1,0,0:0:0:0:
192,192,47999,1,0,0:0:0:0:
192,192,48117,1,0,0:0:0:0:
192,192,48235,1,0,0:0:0:0:
320,192,48352,1,0,0:0:0:0:
192,192,48470,1,0,0:0:0:0:
64,192,48588,1,0,0:0:0:0:
192,192,48705,1,0,0:0:0:0:
320,192,48705,1,0,0:0:0:0:
448,192,48823,1,0,0:0:0:0:
448,192,48941,1,0,0:0:0:0:
320,192,49058,1,0,0:0:0:0:
192,192,49058,1,0,0:0:0:0:
64,192,49058,1,0,0:0:0:0:
448,192,49176,1,0,0:0:0:0:
448,192,49294,1,0,0:0:0:0:
448,192,49411,1,0,0:0:0:0:
320,192,49411,1,0,0:0:0:0:
192,192,49411,1,0,0:0:0:0:
64,192,49411,1,0,0:0:0:0:
64,192,49529,1,0,0:0:0:0:
64,192,49647,1,0,0:0:0:0:
192,192,49764,1,0,0:0:0:0:
64,192,49882,1,0,0:0:0:0:
192,192,49999,1,0,0:0:0:0:
64,192,50117,1,0,0:0:0:0:
320,192,50117,1,0,0:0:0:0:
192,192,50235,1,0,0:0:0:0:
192,192,50352,1,0,0:0:0:0:
192,192,50470,1,0,0:0:0:0:
320,192,50470,1,0,0:0:0:0:
448,192,50470,1,0,0:0:0:0:
64,192,50588,1,0,0:0:0:0:
64,192,50705,1,0,0:0:0:0:
64,192,50823,1,0,0:0:0:0:
192,192,50823,1,0,0:0:0:0:
320,192,50823,1,0,0:0:0:0:
448,192,50823,1,0,0:0:0:0:
448,192,50941,1,0,0:0:0:0:
448,192,51058,1,0,0:0:0:0:
320,192,51176,1,0,0:0:0:0:
448,192,51294,1,0,0:0:0:0:
448,192,51411,1,0,0:0:0:0:
448,192,51529,128,0,51647:0:0:0:0:
192,192,51647,128,0,51764:0:0:0:0:
320,192,51764,128,0,51882:0:0:0:0:
64,192,51882,128,0,51999:0:0:0:0:
192,192,51999,128,0,52117:0:0:0:0:
448,192,52117,128,0,52235:0:0:0:0:
320,192,52235,128,0,52352:0:0:0:0:
192,192,52352,128,0,52470:0:0:0:0:
448,192,52470,128,0,52588:0:0:0:0:
64,192,52588,128,0,52705:0:0:0:0:
320,192,52705,128,0,52823:0:0:0:0:
448,192,52823,128,0,52941:0:0:0:0:
64,192,52941,1,0,0:0:0:0:
192,192,52941,128,0,53647:0:0:0:0:
320,192,53647,1,0,0:0:0:0:
448,192,53764,1,0,0:0:0:0:
320,192,53882,1,0,0:0:0:0:
192,192,53999,1,0,0:0:0:0:
64,192,54117,1,0,0:0:0:0:
64,192,54235,1,0,0:0:0:0:
192,192,54352,1,0,0:0:0:0:
320,192,54352,1,0,0:0:0:0:
320,192,54470,1,0,0:0:0:0:
320,192,54588,1,0,0:0:0:0:
192,192,54705,1,0,0:0:0:0:
320,192,54705,1,0,0:0:0:0:
192,192,54823,1,0,0:0:0:0:
192,192,54941,1,0,0:0:0:0:
320,192,55058,1,0,0:0:0:0:
192,192,55058,1,0,0:0:0:0:
64,192,55176,1,0,0:0:0:0:
192,192,55294,1,0,0:0:0:0:
320,192,55411,1,0,0:0:0:0:
448,192,55529,1,0,0:0:0:0:
448,192,55647,1,0,0:0:0:0:
320,192,55764,1,0,0:0:0:0:
192,192,55764,1,0,0:0:0:0:
192,192,55882,1,0,0:0:0:0:
192,192,55999,1,0,0:0:0:0:
320,192,56117,1,0,0:0:0:0:
192,192,56117,1,0,0:0:0:0:
320,192,56235,1,0,0:0:0:0:
320,192,56352,1,0,0:0:0:0:
320,192,56470,1,0,0:0:0:0:
192,192,56470,1,0,0:0:0:0:
64,192,56588,1,0,0:0:0:0:
64,192,56705,1,0,0:0:0:0:
64,192,56941,1,0,0:0:0:0:
320,192,57176,1,0,0:0:0:0:
448,192,57176,1,0,0:0:0:0:
320,192,57294,1,0,0:0:0:0:
320,192,57411,1,0,0:0:0:0:
192,192,57529,1,0,0:0:0:0:
64,192,57529,1,0,0:0:0:0:
320,192,57764,1,0,0:0:0:0:
192,192,57882,1,0,0:0:0:0:
64,192,57882,1,0,0:0:0:0:
448,192,57882,1,0,0:0:0:0:
320,192,57999,1,0,0:0:0:0:
320,192,58117,1,0,0:0:0:0:
320,192,58235,1,0,0:0:0:0:
448,192,58235,1,0,0:0:0:0:
192,192,58235,1,0,0:0:0:0:
64,192,58235,1,0,0:0:0:0:
192,192,58588,128,0,58705:0:0:0:0:
320,192,58588,1,0,0:0:0:0:
448,192,58588,1,0,0:0:0:0:
320,192,58705,1,0,0:0:0:0:
320,192,58823,1,0,0:0:0:0:
320,192,59058,1,0,0:0:0:0:
320,192,59294,1,0,0:0:0:0:
448,192,59294,128,0,59411:0:0:0:0:
320,192,59411,1,0,0:0:0:0:
320,192,59764,1,0,0:0:0:0:
320,192,59882,1,0,0:0:0:0:
64,192,59999,128,0,60117:0:0:0:0:
320,192,59999,1,0,0:0:0:0:
320,192,60235,1,0,0:0:0:0:
448,192,60352,128,0,60470:0:0:0:0:
320,192,60352,1,0,0:0:0:0:
320,192,60588,1,0,0:0:0:0:
192,192,60705,128,0,60823:0:0:0:0:
320,192,60823,1,0,0:0:0:0:
320,192,60941,1,0,0:0:0:0:
320,192,61058,1,0,0:0:0:0:
448,192,61411,128,0,61529:0:0:0:0:
192,192,61411,1,0,0:0:0:0:
192,192,61529,1,0,0:0:0:0:
192,192,61647,1,0,0:0:0:0:
192,192,61882,1,0,0:0:0:0:
192,192,62117,1,0,0:0:0:0:
64,192,62117,128,0,62235:0:0:0:0:
192,192,62235,1,0,0:0:0:0:
192,192,62352,1,0,0:0:0:0:
192,192,62588,1,0,0:0:0:0:
192,192,62823,1,0,0:0:0:0:
192,192,62941,1,0,0:0:0:0:
192,192,63176,1,0,0:0:0:0:
192,192,63294,1,0,0:0:0:0:
192,192,63529,1,0,0:0:0:0:
320,192,63529,128,0,63647:0:0:0:0:
192,192,63647,1,0,0:0:0:0:
192,192,63882,1,0,0:0:0:0:
192,192,63999,1,0,0:0:0:0:
448,192,64235,1,0,0:0:0:0:
64,192,64235,128,0,64941:0:0:0:0:
448,192,64352,1,0,0:0:0:0:
448,192,64470,1,0,0:0:0:0:
448,192,64705,1,0,0:0:0:0:
448,192,64941,1,0,0:0:0:0:
192,192,64941,128,0,65647:0:0:0:0:
448,192,65058,1,0,0:0:0:0:
448,192,65294,1,0,0:0:0:0:
448,192,65529,1,0,0:0:0:0:
320,192,65647,1,0,0:0:0:0:
64,192,65647,128,0,66352:0:0:0:0:
448,192,65764,1,0,0:0:0:0:
320,192,65882,1,0,0:0:0:0:
192,192,65999,1,0,0:0:0:0:
320,192,66117,1,0,0:0:0:0:
448,192,66235,1,0,0:0:0:0:
448,192,66352,1,0,0:0:0:0:
448,192,66588,1,0,0:0:0:0:
448,192,66705,1,0,0:0:0:0:
64,192,67058,128,0,67764:0:0:0:0:
192,192,67058,1,0,0:0:0:0:
192,192,67176,1,0,0:0:0:0:
320,192,67294,1,0,0:0:0:0:
320,192,67411,1,0,0:0:0:0:
448,192,67529,1,0,0:0:0:0:
448,192,67647,1,0,0:0:0:0:
320,192,67764,128,0,68470:0:0:0:0:
192,192,67764,1,0,0:0:0:0:
192,192,67882,1,0,0:0:0:0:
448,192,67999,1,0,0:0:0:0:
448,192,68117,1,0,0:0:0:0:
192,192,68235,1,0,0:0:0:0:
192,192,68352,1,0,0:0:0:0:
64,192,68470,1,0,0:0:0:0:
448,192,68470,128,0,69176:0:0:0:0:
64,192,68588,1,0,0:0:0:0:
192,192,68705,1,0,0:0:0:0:
192,192,68823,1,0,0:0:0:0:
64,192,68941,1,0,0:0:0:0:
64,192,69058,1,0,0:0:0:0:
320,192,69176,1,0,0:0:0:0:
192,192,69176,128,0,69882:0:0:0:0:
320,192,69294,1,0,0:0:0:0:
448,192,69411,1,0,0:0:0:0:
448,192,69529,1,0,0:0:0:0:
320,192,69647,1,0,0:0:0:0:
320,192,69764,1,0,0:0:0:0:
448,192,69882,1,0,0:0:0:0:
64,192,69882,128,0,70588:0:0:0:0:
448,192,69999,1,0,0:0:0:0:
192,192,70117,1,0,0:0:0:0:
192,192,70235,1,0,0:0:0:0:
320,192,70352,1,0,0:0:0:0:
320,192,70470,1,0,0:0:0:0:
192,192,70588,1,0,0:0:0:0:
448,192,70588,1,0,0:0:0:0:
320,192,70705,1,0,0:0:0:0:
448,192,70823,1,0,0:0:0:0:
192,192,70941,1,0,0:0:0:0:
64,192,71058,1,0,0:0:0:0:
320,192,71176,1,0,0:0:0:0:
448,192,71294,1,0,0:0:0:0:
64,192,71294,1,0,0:0:0:0:
192,192,71411,1,0,0:0:0:0:
64,192,71529,1,0,0:0:0:0:
320,192,71647,1,0,0:0:0:0:
448,192,71764,1,0,0:0:0:0:
192,192,71882,1,0,0:0:0:0:
64,192,71999,1,0,0:0:0:0:
320,192,71999,1,0,0:0:0:0:
448,192,72117,1,0,0:0:0:0:
320,192,72235,1,0,0:0:0:0:
64,192,72352,1,0,0:0:0:0:
192,192,72470,1,0,0:0:0:0:
448,192,72588,1,0,0:0:0:0:
320,192,72705,1,0,0:0:0:0:
192,192,72705,1,0,0:0:0:0:
64,192,72823,1,0,0:0:0:0:
192,192,72941,1,0,0:0:0:0:
448,192,73058,1,0,0:0:0:0:
64,192,73058,1,0,0:0:0:0:
320,192,73176,1,0,0:0:0:0:
192,192,73176,1,0,0:0:0:0:
64,192,73294,1,0,0:0:0:0:
448,192,73294,1,0,0:0:0:0:
192,192,73411,1,0,0:0:0:0:
320,192,73411,1,0,0:0:0:0:
448,192,73529,1,0,0:0:0:0:
64,192,73529,1,0,0:0:0:0:
192,192,73647,1,0,0:0:0:0:
320,192,73647,1,0,0:0:0:0:
64,192,73764,1,0,0:0:0:0:
448,192,73764,1,0,0:0:0:0:
320,192,73882,1,0,0:0:0:0:
192,192,73882,1,0,0:0:0:0:
64,192,73999,1,0,0:0:0:0:
448,192,73999,1,0,0:0:0:0:
320,192,75529,1,0,0:0:0:0:
448,192,75529,1,0,0:0:0:0:
448,192,76235,1,0,0:0:0:0:
64,192,76235,128,0,76941:0:0:0:0:
192,192,76235,128,0,76823:0:0:0:0:
320,192,76235,128,0,76705:0:0:0:0:
448,192,76941,1,0,0:0:0:0:
448,192,77058,1,0,0:0:0:0:
448,192,77294,1,0,0:0:0:0:
448,192,77529,1,0,0:0:0:0:
320,192,77647,1,0,0:0:0:0:
64,192,77647,1,0,0:0:0:0:
320,192,77882,1,0,0:0:0:0:
192,192,77999,1,0,0:0:0:0:
448,192,77999,1,0,0:0:0:0:
64,192,78352,1,0,0:0:0:0:
192,192,78352,1,0,0:0:0:0:
192,192,78470,1,0,0:0:0:0:
192,192,78588,1,0,0:0:0:0:
192,192,78823,1,0,0:0:0:0:
192,192,79058,1,0,0:0:0:0:
448,192,79058,128,0,81882:0:0:0:0:
192,192,79294,1,0,0:0:0:0:
64,192,79411,1,0,0:0:0:0:
320,192,79411,1,0,0:0:0:0:
192,192,79764,1,0,0:0:0:0:
64,192,79764,1,0,0:0:0:0:
320,192,79999,1,0,0:0:0:0:
192,192,79999,1,0,0:0:0:0:
64,192,80235,1,0,0:0:0:0:
320,192,80235,1,0,0:0:0:0:
192,192,80470,128,0,80588:0:0:0:0:
64,192,80470,128,0,80588:0:0:0:0:
320,192,80705,128,0,80823:0:0:0:0:
192,192,80705,128,0,80823:0:0:0:0:
320,192,80941,128,0,81058:0:0:0:0:
64,192,80941,128,0,81058:0:0:0:0:
192,192,81176,128,0,81294:0:0:0:0:
320,192,81176,128,0,81294:0:0:0:0:
192,192,81411,128,0,81529:0:0:0:0:
64,192,81411,128,0,81529:0:0:0:0:
64,192,81647,128,0,81882:0:0:0:0:
320,192,81647,128,0,81882:0:0:0:0:
192,192,81882,1,0,0:0:0:0:
192,192,81999,1,0,0:0:0:0:
192,192,82235,1,0,0:0:0:0:
320,192,82235,1,0,0:0:0:0:
192,192,82470,1,0,0:0:0:0:
192,192,82588,1,0,0:0:0:0:
192,192,82705,1,0,0:0:0:0:
192,192,82941,1,0,0:0:0:0:
192,192,83058,1,0,0:0:0:0:
192,192,83176,1,0,0:0:0:0:
320,192,83294,128,0,83411:0:0:0:0:
448,192,83647,1,0,0:0:0:0:
320,192,83647,1,0,0:0:0:0:
320,192,83882,1,0,0:0:0:0:
320,192,83999,1,0,0:0:0:0:
320,192,84235,1,0,0:0:0:0:
320,192,84470,1,0,0:0:0:0:
320,192,84588,1,0,0:0:0:0:
192,192,84705,128,0,84823:0:0:0:0:
192,192,85058,1,0,0:0:0:0:
320,192,85058,1,0,0:0:0:0:
192,192,85176,1,0,0:0:0:0:
192,192,85294,1,0,0:0:0:0:
192,192,85529,1,0,0:0:0:0:
192,192,85647,1,0,0:0:0:0:
192,192,85882,1,0,0:0:0:0:
192,192,86117,1,0,0:0:0:0:
192,192,86235,1,0,0:0:0:0:
320,192,86352,1,0,0:0:0:0:
320,192,86470,1,0,0:0:0:0:
192,192,86588,1,0,0:0:0:0:
192,192,86705,1,0,0:0:0:0:
64,192,86823,1,0,0:0:0:0:
448,192,86823,1,0,0:0:0:0:
320,192,87058,1,0,0:0:0:0:
192,192,87058,1,0,0:0:0:0:
64,192,87176,1,0,0:0:0:0:
448,192,87176,1,0,0:0:0:0:
64,192,87529,128,0,88235:0:0:0:0:
448,192,87529,128,0,88235:0:0:0:0:
320,192,87529,1,0,0:0:0:0:
192,192,87647,1,0,0:0:0:0:
320,192,87764,1,0,0:0:0:0:
192,192,87882,1,0,0:0:0:0:
320,192,87999,1,0,0:0:0:0:
192,192,88117,1,0,0:0:0:0:
320,192,88235,1,0,0:0:0:0:
192,192,88352,1,0,0:0:0:0:
192,192,88470,1,0,0:0:0:0:
320,192,88588,1,0,0:0:0:0:
448,192,88588,128,0,88705:0:0:0:0:
320,192,88705,1,0,0:0:0:0:
320,192,88823,1,0,0:0:0:0:
64,192,88941,1,0,0:0:0:0:
192,192,88941,1,0,0:0:0:0:
64,192,89058,1,0,0:0:0:0:
64,192,89176,1,0,0:0:0:0:
448,192,89294,1,0,0:0:0:0:
320,192,89294,128,0,89411:0:0:0:0:
448,192,89411,1,0,0:0:0:0:
192,192,89647,1,0,0:0:0:0:
64,192,89647,1,0,0:0:0:0:
192,192,89764,1,0,0:0:0:0:
192,192,89882,1,0,0:0:0:0:
320,192,89999,1,0,0:0:0:0:
192,192,89999,128,0,90117:0:0:0:0:
320,192,90117,1,0,0:0:0:0:
320,192,90235,1,0,0:0:0:0:
64,192,90352,1,0,0:0:0:0:
448,192,90352,1,0,0:0:0:0:
192,192,90588,1,0,0:0:0:0:
320,192,90588,1,0,0:0:0:0:
448,192,90705,1,0,0:0:0:0:
64,192,90705,128,0,90823:0:0:0:0:
64,192,90941,1,0,0:0:0:0:
64,192,91058,1,0,0:0:0:0:
64,192,91294,1,0,0:0:0:0:
64,192,91411,1,0,0:0:0:0:
64,192,91529,1,0,0:0:0:0:
64,192,91764,1,0,0:0:0:0:
192,192,91764,128,0,91882:0:0:0:0:
320,192,91882,128,0,91999:0:0:0:0:
448,192,91999,128,0,92117:0:0:0:0:
192,192,92117,128,0,92235:0:0:0:0:
320,192,92235,128,0,92352:0:0:0:0:
448,192,92352,128,0,92470:0:0:0:0:
64,192,92470,128,0,92588:0:0:0:0:
192,192,92588,128,0,92705:0:0:0:0:
320,192,92705,128,0,92823:0:0:0:0:
64,192,92823,128,0,92941:0:0:0:0:
192,192,92941,128,0,93058:0:0:0:0:
320,192,93058,128,0,93176:0:0:0:0:
448,192,93176,128,0,93882:0:0:0:0:
64,192,93176,1,0,0:0:0:0:
192,192,93294,1,0,0:0:0:0:
320,192,93411,1,0,0:0:0:0:
192,192,93529,128,0,93647:0:0:0:0:
64,192,93764,1,0,0:0:0:0:
192,192,93882,1,0,0:0:0:0:
192,192,93999,1,0,0:0:0:0:
192,192,94235,128,0,94352:0:0:0:0:
192,192,94470,1,0,0:0:0:0:
320,192,94588,1,0,0:0:0:0:
448,192,94588,1,0,0:0:0:0:
192,192,94705,1,0,0:0:0:0:
192,192,94823,1,0,0:0:0:0:
448,192,94941,1,0,0:0:0:0:
320,192,94941,1,0,0:0:0:0:
192,192,94941,1,0,0:0:0:0:
64,192,94941,128,0,95058:0:0:0:0:
320,192,95176,1,0,0:0:0:0:
448,192,95294,1,0,0:0:0:0:
320,192,95294,1,0,0:0:0:0:
192,192,95294,1,0,0:0:0:0:
64,192,95294,1,0,0:0:0:0:
320,192,95529,1,0,0:0:0:0:
320,192,95647,128,0,95764:0:0:0:0:
64,192,95999,1,0,0:0:0:0:
192,192,95999,1,0,0:0:0:0:
320,192,95999,1,0,0:0:0:0:
448,192,95999,1,0,0:0:0:0:
320,192,96117,1,0,0:0:0:0:
320,192,96235,1,0,0:0:0:0:
192,192,96352,1,0,0:0:0:0:
320,192,96352,1,0,0:0:0:0:
448,192,96352,1,0,0:0:0:0:
320,192,96470,1,0,0:0:0:0:
448,192,96705,1,0,0:0:0:0:
320,192,96823,1,0,0:0:0:0:
192,192,96941,1,0,0:0:0:0:
64,192,97058,1,0,0:0:0:0:
192,192,97176,1,0,0:0:0:0:
320,192,97294,1,0,0:0:0:0:
448,192,97411,1,0,0:0:0:0:
64,192,97411,128,0,98117:0:0:0:0:
192,192,97529,1,0,0:0:0:0:
192,192,97764,128,0,98470:0:0:0:0:
320,192,97882,1,0,0:0:0:0:
320,192,98117,128,0,98823:0:0:0:0:
448,192,98235,1,0,0:0:0:0:
64,192,98352,1,0,0:0:0:0:
448,192,98470,128,0,99176:0:0:0:0:
192,192,98705,1,0,0:0:0:0:
320,192,99058,1,0,0:0:0:0:
320,192,99176,128,0,100235:0:0:0:0:
192,192,99176,128,0,100235:0:0:0:0:
448,192,99529,1,0,0:0:0:0:
64,192,99647,1,0,0:0:0:0:
448,192,99764,1,0,0:0:0:0:
64,192,99882,1,0,0:0:0:0:
448,192,99999,1,0,0:0:0:0:
64,192,100117,1,0,0:0:0:0:
64,192,100235,128,0,103058:0:0:0:0:
448,192,100235,128,0,103058:0:0:0:0:
320,192,100470,1,0,0:0:0:0:
320,192,100588,128,0,100941:0:0:0:0:
192,192,100823,1,0,0:0:0:0:
192,192,100941,128,0,101294:0:0:0:0:
320,192,101176,1,0,0:0:0:0:
320,192,101294,128,0,101647:0:0:0:0:
192,192,101529,1,0,0:0:0:0:
192,192,101647,128,0,101999:0:0:0:0:
320,192,101882,1,0,0:0:0:0:
320,192,101999,128,0,102352:0:0:0:0:
192,192,102352,1,0,0:0:0:0:
320,192,102470,1,0,0:0:0:0:
192,192,102588,1,0,0:0:0:0:
320,192,102705,1,0,0:0:0:0:
192,192,102823,1,0,0:0:0:0:
320,192,102941,1,0,0:0:0:0:
192,192,103058,1,0,0:0:0:0:
320,192,103058,1,0,0:0:0:0:
448,192,103294,1,0,0:0:0:0:
320,192,103411,1,0,0:0:0:0:
448,192,103529,1,0,0:0:0:0:
192,192,103647,1,0,0:0:0:0:
64,192,103764,1,0,0:0:0:0:
192,192,103882,1,0,0:0:0:0:
448,192,103999,1,0,0:0:0:0:
320,192,104117,1,0,0:0:0:0:
448,192,104235,1,0,0:0:0:0:
192,192,104352,1,0,0:0:0:0:
64,192,104470,1,0,0:0:0:0:
192,192,104588,1,0,0:0:0:0:
448,192,104705,1,0,0:0:0:0:
320,192,104823,1,0,0:0:0:0:
448,192,104941,1,0,0:0:0:0:
64,192,105058,1,0,0:0:0:0:
192,192,105176,1,0,0:0:0:0:
64,192,105294,1,0,0:0:0:0:
320,192,105411,1,0,0:0:0:0:
448,192,105529,1,0,0:0:0:0:
320,192,105647,1,0,0:0:0:0:
64,192,105764,1,0,0:0:0:0:
192,192,105882,128,0,106117:0:0:0:0:
320,192,105882,128,0,106470:0:0:0:0:
448,192,105882,128,0,106823:0:0:0:0:
64,192,105882,1,0,0:0:0:0:
192,192,106235,1,0,0:0:0:0:
448,192,106941,1,0,0:0:0:0:
64,192,107294,1,0,0:0:0:0:
192,192,107294,1,0,0:0:0:0:
320,192,107294,1,0,0:0:0:0:
64,192,107647,1,0,0:0:0:0:
64,192,107764,128,0,108705:0:0:0:0:
192,192,108117,128,0,108705:0:0:0:0:
320,192,108352,1,0,0:0:0:0:
320,192,108470,128,0,108705:0:0:0:0:
448,192,108705,128,0,109058:0:0:0:0:
320,192,109058,1,0,0:0:0:0:
192,192,109058,1,0,0:0:0:0:
64,192,109058,128,0,109411:0:0:0:0:
192,192,109411,1,0,0:0:0:0:
448,192,109411,1,0,0:0:0:0:
320,192,109411,128,0,109764:0:0:0:0:
64,192,109764,1,0,0:0:0:0:
448,192,109764,1,0,0:0:0:0:
192,192,109764,128,0,110117:0:0:0:0:
64,192,110117,1,0,0:0:0:0:
320,192,110117,1,0,0:0:0:0:
448,192,110117,1,0,0:0:0:0:
320,192,110352,1,0,0:0:0:0:
192,192,110470,1,0,0:0:0:0:
64,192,110470,1,0,0:0:0:0:
448,192,110470,1,0,0:0:0:0:
320,192,110823,1,0,0:0:0:0:
448,192,110823,1,0,0:0:0:0:
64,192,110823,1,0,0:0:0:0:
320,192,111058,1,0,0:0:0:0:
448,192,111176,1,0,0:0:0:0:
64,192,111176,1,0,0:0:0:0:
192,192,111176,1,0,0:0:0:0:
64,192,111529,1,0,0:0:0:0:
448,192,111529,1,0,0:0:0:0:
320,192,111529,1,0,0:0:0:0:
192,192,111647,1,0,0:0:0:0:
320,192,111764,1,0,0:0:0:0:
192,192,111882,1,0,0:0:0:0:
64,192,111882,1,0,0:0:0:0:
448,192,111882,1,0,0:0:0:0:
320,192,111999,1,0,0:0:0:0:
192,192,112117,1,0,0:0:0:0:
64,192,112235,1,0,0:0:0:0:
320,192,112235,1,0,0:0:0:0:
448,192,112235,1,0,0:0:0:0:
192,192,112352,1,0,0:0:0:0:
320,192,112470,1,0,0:0:0:0:
192,192,112588,1,0,0:0:0:0:
448,192,112588,1,0,0:0:0:0:
64,192,112588,1,0,0:0:0:0:
320,192,112705,1,0,0:0:0:0:
192,192,112823,1,0,0:0:0:0:
64,192,112941,128,0,114352:0:0:0:0:
192,192,112941,128,0,114352:0:0:0:0:
320,192,112941,128,0,114352:0:0:0:0:
448,192,112941,128,0,114352:0:0:0:0:
