osu file format v13

[General]
AudioFilename: O2Jam - Electro Fantasy.mp3
AudioLeadIn: 0
PreviewTime: 13353
Countdown: 0
SampleSet: Soft
StackLeniency: 0.7
Mode: 3
LetterboxInBreaks: 0
SpecialStyle: 0
WidescreenStoryboard: 1

[Editor]
DistanceSpacing: 0.8
BeatDivisor: 4
GridSize: 8
TimelineZoom: 1

[Metadata]
Title:Electro Fantasy
TitleUnicode:Electro Fantasy
Artist:BeautifulDay
ArtistUnicode:BeautifulDay
Creator:Neiji Razuiya
Version:NM
Source:O2Jam
Tags:electronic ishimaru94
BeatmapID:396750
BeatmapSetID:162693

[Difficulty]
HPDrainRate:7
CircleSize:7
OverallDifficulty:7
ApproachRate:5
SliderMultiplier:1.7
SliderTickRate:1

[Events]
//Background and Video events
0,0,"75digital-abstraction02-m269.jpg",0,0
//Break Periods
//Storyboard Layer 0 (Background)
//Storyboard Layer 1 (Fail)
//Storyboard Layer 2 (Pass)
//Storyboard Layer 3 (Foreground)
//Storyboard Sound Samples
//Background Colour Transformations
3,100,163,162,255

[TimingPoints]
38,428.571428571429,4,2,1,67,1,0
47180,-100,4,3,0,56,0,0
48038,-100,4,2,1,56,0,0

[HitObjects]
182,192,38,5,0,0:0:0:0:
256,192,252,1,0,0:0:0:0:
402,192,466,1,0,0:0:0:0:
256,192,680,1,0,0:0:0:0:
182,192,895,1,0,0:0:0:0:
36,192,1109,1,0,0:0:0:0:
329,192,1323,1,0,0:0:0:0:
182,192,1430,1,0,0:0:0:0:
475,192,1752,1,0,0:0:0:0:
256,192,1966,1,0,0:0:0:0:
36,192,2180,1,0,0:0:0:0:
182,192,2288,1,0,0:0:0:0:
329,192,2502,1,0,0:0:0:0:
475,192,2609,1,0,0:0:0:0:
402,192,2823,1,0,0:0:0:0:
329,192,3038,1,0,0:0:0:0:
256,192,3252,1,0,0:0:0:0:
36,192,3466,1,0,0:0:0:0:
182,192,3680,1,0,0:0:0:0:
402,192,3895,1,0,0:0:0:0:
256,192,4109,1,0,0:0:0:0:
36,192,4323,1,0,0:0:0:0:
402,192,4538,1,0,0:0:0:0:
256,192,4645,1,0,0:0:0:0:
475,192,4752,1,0,0:0:0:0:
182,192,4966,1,0,0:0:0:0:
36,192,5180,1,0,0:0:0:0:
329,192,5395,1,0,0:0:0:0:
182,192,5609,1,0,0:0:0:0:
256,192,5823,1,0,0:0:0:0:
109,192,6038,1,0,0:0:0:0:
402,192,6252,1,0,0:0:0:0:
256,192,6359,1,0,0:0:0:0:
475,192,6466,1,0,0:0:0:0:
182,192,6680,1,0,0:0:0:0:
36,192,6895,1,0,0:0:0:0:
329,192,6895,128,0,10323:0:0:0:0:
256,192,7109,1,0,0:0:0:0:
475,192,7323,1,0,0:0:0:0:
182,192,7538,1,0,0:0:0:0:
36,192,7752,1,0,0:0:0:0:
256,192,7966,1,0,0:0:0:0:
475,192,8180,1,0,0:0:0:0:
182,192,8395,1,0,0:0:0:0:
36,192,8609,1,0,0:0:0:0:
256,192,8823,1,0,0:0:0:0:
402,192,9038,1,0,0:0:0:0:
109,192,9252,1,0,0:0:0:0:
402,192,9466,1,0,0:0:0:0:
182,192,9680,1,0,0:0:0:0:
36,192,9895,1,0,0:0:0:0:
402,192,10109,1,0,0:0:0:0:
182,192,10323,128,0,13752:0:0:0:0:
256,192,10538,1,0,0:0:0:0:
402,192,10752,1,0,0:0:0:0:
36,192,10966,1,0,0:0:0:0:
475,192,11180,1,0,0:0:0:0:
329,192,11395,1,0,0:0:0:0:
256,192,11502,1,0,0:0:0:0:
36,192,11609,1,0,0:0:0:0:
329,192,11823,1,0,0:0:0:0:
475,192,12038,1,0,0:0:0:0:
36,192,12252,1,0,0:0:0:0:
256,192,12466,1,0,0:0:0:0:
329,192,12680,1,0,0:0:0:0:
109,192,12788,1,0,0:0:0:0:
36,192,12895,1,0,0:0:0:0:
256,192,13109,1,0,0:0:0:0:
402,192,13323,1,0,0:0:0:0:
109,192,13538,1,0,0:0:0:0:
329,192,13752,1,2,0:0:0:0:
36,192,13752,128,0,15466:0:0:0:0:
109,192,13966,1,0,0:0:0:0:
256,192,14180,1,0,0:0:0:0:
402,192,14395,1,0,0:0:0:0:
256,192,14609,1,0,0:0:0:0:
182,192,14823,1,0,0:0:0:0:
256,192,15038,1,0,0:0:0:0:
182,192,15252,1,0,0:0:0:0:
402,192,15359,1,0,0:0:0:0:
256,192,15466,128,0,17180:0:0:0:0:
109,192,15466,1,0,0:0:0:0:
329,192,15680,1,0,0:0:0:0:
475,192,15895,1,0,0:0:0:0:
109,192,16109,1,0,0:0:0:0:
402,192,16323,1,0,0:0:0:0:
36,192,16538,1,0,0:0:0:0:
475,192,16752,1,0,0:0:0:0:
109,192,16966,1,0,0:0:0:0:
182,192,17180,128,0,18038:0:0:0:0:
329,192,17395,1,0,0:0:0:0:
475,192,17609,1,0,0:0:0:0:
402,192,17823,1,0,0:0:0:0:
329,192,18038,128,0,18895:0:0:0:0:
256,192,18252,1,0,0:0:0:0:
475,192,18466,1,0,0:0:0:0:
182,192,18680,1,0,0:0:0:0:
402,192,18895,128,0,19752:0:0:0:0:
109,192,18895,1,0,0:0:0:0:
256,192,19109,1,0,0:0:0:0:
182,192,19323,1,0,0:0:0:0:
329,192,19538,1,0,0:0:0:0:
256,192,19752,1,0,0:0:0:0:
109,192,19966,1,0,0:0:0:0:
182,192,20180,128,0,20609:0:0:0:0:
402,192,20180,1,0,0:0:0:0:
329,192,20395,1,0,0:0:0:0:
475,192,20609,1,2,0:0:0:0:
109,192,20609,128,2,21252:0:0:0:0:
256,192,20823,1,0,0:0:0:0:
329,192,21038,1,0,0:0:0:0:
329,192,21252,128,0,22323:0:0:0:0:
182,192,21466,1,0,0:0:0:0:
36,192,21680,1,0,0:0:0:0:
182,192,21895,1,0,0:0:0:0:
475,192,22109,1,0,0:0:0:0:
256,192,22323,1,0,0:0:0:0:
109,192,22323,128,0,22966:0:0:0:0:
256,192,22538,1,0,0:0:0:0:
402,192,22752,1,0,0:0:0:0:
329,192,22966,128,0,24038:0:0:0:0:
256,192,23180,1,0,0:0:0:0:
109,192,23395,1,0,0:0:0:0:
402,192,23609,1,0,0:0:0:0:
256,192,23823,1,0,0:0:0:0:
109,192,24038,1,0,0:0:0:0:
109,192,24252,128,0,24680:0:0:0:0:
256,192,24466,1,0,0:0:0:0:
182,192,24680,128,0,24895:0:0:0:0:
475,192,24788,1,0,0:0:0:0:
329,192,24895,128,0,25752:0:0:0:0:
256,192,25109,1,0,0:0:0:0:
36,192,25323,1,0,0:0:0:0:
182,192,25538,1,0,0:0:0:0:
256,192,25752,128,0,26180:0:0:0:0:
329,192,25966,1,0,0:0:0:0:
109,192,26180,128,0,26609:0:0:0:0:
182,192,26395,1,0,0:0:0:0:
36,192,26609,128,0,27038:0:0:0:0:
256,192,26823,1,0,0:0:0:0:
402,192,27038,128,0,27466:0:0:0:0:
182,192,27252,1,0,0:0:0:0:
36,192,27466,128,2,29180:0:0:0:0:
329,192,27466,1,2,0:0:0:0:
182,192,27680,1,0,0:0:0:0:
329,192,27895,1,8,0:0:0:0:
182,192,28109,1,0,0:0:0:0:
329,192,28323,1,2,0:0:0:0:
182,192,28538,1,0,0:0:0:0:
329,192,28752,1,8,0:0:0:0:
182,192,28966,1,0,0:0:0:0:
475,192,29180,128,0,30895:0:0:0:0:
402,192,29395,1,0,0:0:0:0:
109,192,29609,1,2,0:0:0:0:
402,192,29823,1,0,0:0:0:0:
256,192,30038,1,0,0:0:0:0:
109,192,30252,1,0,0:0:0:0:
256,192,30466,1,8,0:0:0:0:
182,192,30680,1,2,0:0:0:0:
329,192,30680,1,2,0:0:0:0:
256,192,30895,128,2,32609:0:0:0:0:
109,192,30895,1,2,0:0:0:0:
402,192,30895,1,2,0:0:0:0:
329,192,31109,1,0,0:0:0:0:
36,192,31323,1,8,0:0:0:0:
475,192,31538,1,0,0:0:0:0:
182,192,31752,1,0,0:0:0:0:
402,192,31966,1,0,0:0:0:0:
109,192,32180,1,8,0:0:0:0:
329,192,32395,1,0,0:0:0:0:
109,192,32609,128,0,33466:0:0:0:0:
182,192,32823,1,0,0:0:0:0:
256,192,33038,1,8,0:0:0:0:
329,192,33252,1,0,0:0:0:0:
329,192,33466,128,0,34323:0:0:0:0:
256,192,33680,1,0,0:0:0:0:
182,192,33895,1,8,0:0:0:0:
36,192,34109,1,0,0:0:0:0:
256,192,34323,128,2,35180:0:0:0:0:
475,192,34323,1,2,0:0:0:0:
109,192,34323,1,2,0:0:0:0:
182,192,34538,1,0,0:0:0:0:
36,192,34752,1,8,0:0:0:0:
329,192,34966,1,0,0:0:0:0:
109,192,35180,128,0,36038:0:0:0:0:
256,192,35395,1,0,0:0:0:0:
402,192,35609,1,8,0:0:0:0:
475,192,35823,1,0,0:0:0:0:
182,192,36038,128,0,36895:0:0:0:0:
329,192,36252,1,0,0:0:0:0:
402,192,36466,1,8,0:0:0:0:
329,192,36680,1,0,0:0:0:0:
36,192,36895,128,0,37752:0:0:0:0:
182,192,37109,1,0,0:0:0:0:
109,192,37323,1,8,0:0:0:0:
182,192,37538,1,2,0:0:0:0:
402,192,37538,1,2,0:0:0:0:
402,192,37752,1,2,0:0:0:0:
256,192,37752,128,2,38609:0:0:0:0:
182,192,37966,1,0,0:0:0:0:
109,192,38180,1,8,0:0:0:0:
329,192,38395,1,0,0:0:0:0:
109,192,38609,1,0,0:0:0:0:
182,192,38716,1,0,0:0:0:0:
329,192,38823,1,0,0:0:0:0:
182,192,39038,1,8,0:0:0:0:
256,192,39252,1,0,0:0:0:0:
402,192,39466,1,0,0:0:0:0:
182,192,39680,1,0,0:0:0:0:
36,192,39895,1,8,0:0:0:0:
402,192,40109,1,0,0:0:0:0:
256,192,40323,1,0,0:0:0:0:
109,192,40538,1,0,0:0:0:0:
329,192,40752,1,8,0:0:0:0:
182,192,40966,1,0,0:0:0:0:
182,192,41180,128,0,41609:0:0:0:0:
475,192,41288,1,0,0:0:0:0:
329,192,41395,1,0,0:0:0:0:
36,192,41609,128,0,42038:0:0:0:0:
182,192,41823,1,0,0:0:0:0:
256,192,42038,128,0,42466:0:0:0:0:
402,192,42252,1,0,0:0:0:0:
109,192,42466,128,0,42895:0:0:0:0:
329,192,42680,1,0,0:0:0:0:
402,192,42895,128,0,43323:0:0:0:0:
256,192,43109,1,0,0:0:0:0:
256,192,43323,128,0,43752:0:0:0:0:
109,192,43538,1,0,0:0:0:0:
475,192,43752,128,0,44180:0:0:0:0:
329,192,43966,1,0,0:0:0:0:
36,192,44180,128,0,44609:0:0:0:0:
182,192,44395,1,0,0:0:0:0:
402,192,44609,128,0,45038:0:0:0:0:
256,192,44823,1,0,0:0:0:0:
109,192,45038,128,0,45466:0:0:0:0:
329,192,45252,1,0,0:0:0:0:
256,192,45466,128,0,45895:0:0:0:0:
475,192,45680,1,0,0:0:0:0:
182,192,45895,128,0,46323:0:0:0:0:
329,192,46109,1,0,0:0:0:0:
475,192,46323,128,0,46752:0:0:0:0:
256,192,46538,1,0,0:0:0:0:
182,192,46752,128,0,47180:0:0:0:0:
402,192,46859,1,0,0:0:0:0:
329,192,46966,1,0,0:0:0:0:
329,192,47180,128,2,47609:0:0:0:0:
36,192,47395,1,2,0:0:0:0:
109,192,47502,1,2,0:0:0:0:
182,192,47609,1,2,0:0:0:0:
256,192,47609,128,2,48038:0:0:0:0:
475,192,47823,1,0,0:0:0:0:
329,192,47930,1,0,0:0:0:0:
36,192,48038,1,4,0:0:0:0:
182,192,48038,128,0,48895:0:0:0:0:
329,192,48252,1,0,0:0:0:0:
36,192,48466,1,2,0:0:0:0:
402,192,48680,1,0,0:0:0:0:
36,192,48895,1,2,0:0:0:0:
402,192,48895,128,0,49323:0:0:0:0:
256,192,49109,1,0,0:0:0:0:
109,192,49323,1,8,0:0:0:0:
256,192,49538,1,2,0:0:0:0:
36,192,49538,1,2,0:0:0:0:
329,192,49752,1,2,0:0:0:0:
182,192,49752,128,2,50395:0:0:0:0:
475,192,49966,1,0,0:0:0:0:
402,192,50180,1,8,0:0:0:0:
256,192,50180,1,10,0:0:0:0:
109,192,50395,1,0,0:0:0:0:
329,192,50609,1,2,0:0:0:0:
109,192,50609,128,2,51252:0:0:0:0:
402,192,50823,1,0,0:0:0:0:
475,192,51038,1,8,0:0:0:0:
329,192,51038,1,8,0:0:0:0:
182,192,51252,128,2,51466:0:0:0:0:
329,192,51252,1,0,0:0:0:0:
36,192,51466,1,2,0:0:0:0:
329,192,51466,128,2,51895:0:0:0:0:
109,192,51680,1,0,0:0:0:0:
475,192,51895,1,8,0:0:0:0:
256,192,51895,128,10,52323:0:0:0:0:
36,192,52109,1,0,0:0:0:0:
36,192,52323,128,2,53180:0:0:0:0:
402,192,52323,1,2,0:0:0:0:
182,192,52323,1,2,0:0:0:0:
402,192,52538,1,0,0:0:0:0:
182,192,52752,1,8,0:0:0:0:
475,192,52752,1,8,0:0:0:0:
109,192,52966,1,0,0:0:0:0:
402,192,53180,1,2,0:0:0:0:
256,192,53180,128,2,53609:0:0:0:0:
182,192,53180,1,2,0:0:0:0:
109,192,53395,1,0,0:0:0:0:
402,192,53609,128,8,54038:0:0:0:0:
475,192,53609,1,8,0:0:0:0:
109,192,53823,1,0,0:0:0:0:
256,192,54038,1,2,0:0:0:0:
36,192,54038,128,2,54466:0:0:0:0:
182,192,54252,1,0,0:0:0:0:
475,192,54466,128,8,54895:0:0:0:0:
329,192,54466,1,8,0:0:0:0:
109,192,54466,1,8,0:0:0:0:
402,192,54680,1,0,0:0:0:0:
109,192,54895,128,2,55752:0:0:0:0:
256,192,54895,1,2,0:0:0:0:
329,192,55109,1,0,0:0:0:0:
402,192,55323,1,8,0:0:0:0:
36,192,55323,1,8,0:0:0:0:
329,192,55538,1,0,0:0:0:0:
182,192,55752,1,2,0:0:0:0:
475,192,55752,128,2,56395:0:0:0:0:
329,192,55966,1,0,0:0:0:0:
182,192,56180,1,10,0:0:0:0:
36,192,56180,1,2,0:0:0:0:
256,192,56395,128,0,56609:0:0:0:0:
402,192,56609,1,2,0:0:0:0:
109,192,56609,128,2,57252:0:0:0:0:
402,192,56823,1,0,0:0:0:0:
256,192,57038,1,2,0:0:0:0:
36,192,57038,1,8,0:0:0:0:
256,192,57252,128,0,57466:0:0:0:0:
402,192,57466,128,2,57895:0:0:0:0:
36,192,57466,1,2,0:0:0:0:
182,192,57680,1,0,0:0:0:0:
256,192,57895,128,10,58109:0:0:0:0:
329,192,57895,1,2,0:0:0:0:
109,192,58109,128,0,58323:0:0:0:0:
329,192,58323,128,2,58966:0:0:0:0:
402,192,58323,1,2,0:0:0:0:
109,192,58538,1,0,0:0:0:0:
36,192,58752,1,2,0:0:0:0:
109,192,58966,128,0,59180:0:0:0:0:
256,192,59180,128,2,59823:0:0:0:0:
475,192,59180,1,2,0:0:0:0:
329,192,59395,1,0,0:0:0:0:
109,192,59609,1,8,0:0:0:0:
402,192,59823,128,0,60038:0:0:0:0:
109,192,59823,1,0,0:0:0:0:
182,192,60038,128,2,60895:0:0:0:0:
329,192,60252,1,0,0:0:0:0:
475,192,60466,1,0,0:0:0:0:
329,192,60680,1,0,0:0:0:0:
402,192,60895,128,2,61752:0:0:0:0:
109,192,60895,1,0,0:0:0:0:
256,192,61109,1,0,0:0:0:0:
109,192,61323,1,0,0:0:0:0:
256,192,61538,1,0,0:0:0:0:
109,192,61752,128,2,62180:0:0:0:0:
475,192,61752,1,0,0:0:0:0:
329,192,61966,1,0,0:0:0:0:
329,192,62180,128,8,62609:0:0:0:0:
182,192,62180,1,0,0:0:0:0:
475,192,62395,1,0,0:0:0:0:
182,192,62609,128,2,63038:0:0:0:0:
402,192,62609,1,0,0:0:0:0:
329,192,62823,1,0,0:0:0:0:
36,192,63038,128,8,63466:0:0:0:0:
256,192,63038,1,0,0:0:0:0:
182,192,63252,1,0,0:0:0:0:
329,192,63466,128,2,63895:0:0:0:0:
109,192,63466,1,0,0:0:0:0:
182,192,63680,1,0,0:0:0:0:
475,192,63895,128,8,64323:0:0:0:0:
256,192,63895,1,0,0:0:0:0:
329,192,64109,1,0,0:0:0:0:
256,192,64323,128,2,64752:0:0:0:0:
402,192,64323,1,0,0:0:0:0:
475,192,64538,1,0,0:0:0:0:
109,192,64752,128,8,65180:0:0:0:0:
329,192,64752,1,0,0:0:0:0:
256,192,64966,1,0,0:0:0:0:
402,192,65180,128,2,65609:0:0:0:0:
182,192,65180,1,0,0:0:0:0:
182,192,65609,128,0,66038:0:0:0:0:
402,192,66038,128,0,66466:0:0:0:0:
475,192,66466,128,0,66895:0:0:0:0:
36,192,66895,128,0,67323:0:0:0:0:
109,192,67323,128,0,67752:0:0:0:0:
182,192,67752,128,0,68180:0:0:0:0:
256,192,68180,128,0,68609:0:0:0:0:
329,192,68609,1,2,0:0:0:0:
182,192,68609,1,2,0:0:0:0:
109,192,69038,1,2,0:0:0:0:
256,192,69038,1,2,0:0:0:0:
475,192,69466,1,2,0:0:0:0:
182,192,69466,1,2,0:0:0:0:
109,192,69895,1,2,0:0:0:0:
329,192,69895,1,2,0:0:0:0:
402,192,70323,1,2,0:0:0:0:
256,192,70323,1,2,0:0:0:0:
36,192,70752,1,2,0:0:0:0:
475,192,70752,1,2,0:0:0:0:
182,192,71180,1,2,0:0:0:0:
402,192,71180,1,2,0:0:0:0:
109,192,71609,1,2,0:0:0:0:
402,192,71609,1,2,0:0:0:0:
475,192,72038,1,2,0:0:0:0:
256,192,72038,1,2,0:0:0:0:
109,192,72038,128,2,73323:0:0:0:0:
329,192,72252,1,0,0:0:0:0:
36,192,72466,1,2,0:0:0:0:
475,192,72466,1,2,0:0:0:0:
256,192,72680,1,0,0:0:0:0:
329,192,72895,1,2,0:0:0:0:
402,192,73109,1,0,0:0:0:0:
475,192,73323,1,8,0:0:0:0:
256,192,73323,128,2,73752:0:0:0:0:
109,192,73538,1,0,0:0:0:0:
402,192,73752,128,2,74180:0:0:0:0:
182,192,73966,1,0,0:0:0:0:
182,192,74180,128,8,74609:0:0:0:0:
475,192,74180,1,8,0:0:0:0:
402,192,74395,1,0,0:0:0:0:
329,192,74609,128,2,75038:0:0:0:0:
256,192,74823,1,0,0:0:0:0:
475,192,75038,128,8,75466:0:0:0:0:
182,192,75038,1,8,0:0:0:0:
36,192,75252,1,0,0:0:0:0:
329,192,75466,1,0,0:0:0:0:
109,192,75466,1,0,0:0:0:0:
256,192,75680,1,0,0:0:0:0:
402,192,75895,1,8,0:0:0:0:
256,192,76109,1,0,0:0:0:0:
475,192,76395,1,0,0:0:0:0:
329,192,76538,1,0,0:0:0:0:
182,192,76752,1,0,0:0:0:0:
36,192,76966,1,0,0:0:0:0:
182,192,77180,1,0,0:0:0:0:
329,192,77395,1,0,0:0:0:0:
475,192,77609,1,0,0:0:0:0:
329,192,77823,1,0,0:0:0:0:
182,192,78073,1,0,0:0:0:0:
329,192,78180,1,0,0:0:0:0:
475,192,78359,1,0,0:0:0:0:
329,192,78466,1,0,0:0:0:0:
256,192,78680,1,0,0:0:0:0:
329,192,78895,128,4,79752:0:0:0:0:
256,192,79109,1,0,0:0:0:0:
182,192,79323,1,8,0:0:0:0:
475,192,79323,1,8,0:0:0:0:
109,192,79538,1,0,0:0:0:0:
256,192,79752,1,0,0:0:0:0:
109,192,79752,128,0,80180:0:0:0:0:
402,192,79966,1,0,0:0:0:0:
256,192,80180,128,8,80395:0:0:0:0:
475,192,80180,1,8,0:0:0:0:
36,192,80395,1,0,0:0:0:0:
402,192,80395,128,0,80609:0:0:0:0:
182,192,80609,128,0,81466:0:0:0:0:
329,192,80609,1,2,0:0:0:0:
256,192,80823,1,0,0:0:0:0:
329,192,81038,1,8,0:0:0:0:
109,192,81038,1,0,0:0:0:0:
402,192,81252,1,0,0:0:0:0:
475,192,81466,1,2,0:0:0:0:
256,192,81466,128,0,82323:0:0:0:0:
182,192,81680,1,0,0:0:0:0:
109,192,81895,1,8,0:0:0:0:
402,192,81895,1,8,0:0:0:0:
475,192,82109,1,0,0:0:0:0:
182,192,82323,128,2,82752:0:0:0:0:
329,192,82323,1,2,0:0:0:0:
329,192,82752,128,8,83180:0:0:0:0:
475,192,82752,1,2,0:0:0:0:
109,192,83180,128,0,83609:0:0:0:0:
256,192,83180,1,2,0:0:0:0:
329,192,83609,128,0,84038:0:0:0:0:
182,192,83609,1,8,0:0:0:0:
109,192,83823,128,0,84038:0:0:0:0:
256,192,84038,128,2,84895:0:0:0:0:
182,192,84038,1,2,0:0:0:0:
402,192,84466,1,8,0:0:0:0:
329,192,84466,1,8,0:0:0:0:
36,192,84895,128,2,85752:0:0:0:0:
109,192,84895,1,2,0:0:0:0:
329,192,85323,1,8,0:0:0:0:
182,192,85323,1,8,0:0:0:0:
256,192,85538,1,0,0:0:0:0:
402,192,85752,128,2,86609:0:0:0:0:
182,192,85752,1,2,0:0:0:0:
109,192,86180,1,8,0:0:0:0:
256,192,86180,1,8,0:0:0:0:
256,192,86609,128,2,86823:0:0:0:0:
475,192,86609,1,2,0:0:0:0:
109,192,86716,1,0,0:0:0:0:
182,192,86823,128,0,87038:0:0:0:0:
329,192,87038,128,8,87252:0:0:0:0:
182,192,87252,128,0,87466:0:0:0:0:
402,192,87466,1,2,0:0:0:0:
36,192,87466,128,0,87895:0:0:0:0:
109,192,87895,128,0,88323:0:0:0:0:
329,192,87895,1,8,0:0:0:0:
256,192,88109,1,0,0:0:0:0:
402,192,88323,128,0,88752:0:0:0:0:
182,192,88323,1,2,0:0:0:0:
256,192,88752,1,2,0:0:0:0:
475,192,88752,128,0,89180:0:0:0:0:
329,192,88966,1,0,0:0:0:0:
182,192,89180,128,0,89823:0:0:0:0:
402,192,89180,1,2,0:0:0:0:
256,192,89609,1,8,0:0:0:0:
109,192,89609,1,8,0:0:0:0:
36,192,89823,128,0,90038:0:0:0:0:
256,192,90038,1,2,0:0:0:0:
402,192,90038,128,0,90466:0:0:0:0:
256,192,90466,128,0,90895:0:0:0:0:
475,192,90466,1,8,0:0:0:0:
402,192,90680,1,0,0:0:0:0:
329,192,90895,1,2,0:0:0:0:
475,192,90895,128,0,91323:0:0:0:0:
109,192,91323,128,2,91752:0:0:0:0:
402,192,91323,1,8,0:0:0:0:
329,192,91538,1,0,0:0:0:0:
256,192,91752,1,2,0:0:0:0:
329,192,91752,128,0,92180:0:0:0:0:
182,192,92180,1,8,0:0:0:0:
402,192,92180,128,0,92395:0:0:0:0:
256,192,92395,128,0,92609:0:0:0:0:
109,192,92609,1,2,0:0:0:0:
329,192,92609,128,0,93466:0:0:0:0:
182,192,93038,1,8,0:0:0:0:
402,192,93038,1,0,0:0:0:0:
475,192,93252,1,0,0:0:0:0:
109,192,93466,128,0,94323:0:0:0:0:
256,192,93466,1,2,0:0:0:0:
475,192,93895,1,0,0:0:0:0:
182,192,93895,1,2,0:0:0:0:
256,192,94109,1,0,0:0:0:0:
329,192,94323,1,2,0:0:0:0:
36,192,94323,128,0,94752:0:0:0:0:
109,192,94752,128,0,95180:0:0:0:0:
402,192,94752,1,8,0:0:0:0:
475,192,94752,1,8,0:0:0:0:
182,192,95180,128,0,95395:0:0:0:0:
36,192,95180,1,2,0:0:0:0:
256,192,95395,128,0,95609:0:0:0:0:
329,192,95609,128,0,95823:0:0:0:0:
109,192,95609,1,8,0:0:0:0:
402,192,95823,128,0,96038:0:0:0:0:
475,192,96038,128,0,96895:0:0:0:0:
182,192,96038,1,2,0:0:0:0:
329,192,96466,1,8,0:0:0:0:
109,192,96466,1,0,0:0:0:0:
402,192,96680,1,0,0:0:0:0:
329,192,96895,128,2,97752:0:0:0:0:
256,192,97323,1,0,0:0:0:0:
475,192,97323,1,8,0:0:0:0:
182,192,97538,1,0,0:0:0:0:
36,192,97752,1,2,0:0:0:0:
402,192,97752,128,0,98180:0:0:0:0:
256,192,98180,1,8,0:0:0:0:
475,192,98180,128,0,98609:0:0:0:0:
36,192,98395,1,0,0:0:0:0:
256,192,98609,128,0,99466:0:0:0:0:
329,192,98609,1,2,0:0:0:0:
109,192,99038,1,8,0:0:0:0:
402,192,99038,1,8,0:0:0:0:
182,192,99252,1,0,0:0:0:0:
329,192,99466,1,2,0:0:0:0:
109,192,99466,128,0,100323:0:0:0:0:
329,192,99895,1,8,0:0:0:0:
182,192,99895,1,8,0:0:0:0:
256,192,100109,1,0,0:0:0:0:
182,192,100323,1,2,0:0:0:0:
402,192,100323,128,0,100752:0:0:0:0:
182,192,100752,128,0,100966:0:0:0:0:
109,192,100752,1,8,0:0:0:0:
256,192,100966,128,0,101180:0:0:0:0:
402,192,101180,1,2,0:0:0:0:
182,192,101180,128,0,101609:0:0:0:0:
402,192,101609,128,0,102038:0:0:0:0:
329,192,101609,1,8,0:0:0:0:
182,192,101823,1,0,0:0:0:0:
329,192,102038,1,2,0:0:0:0:
36,192,102038,128,0,102466:0:0:0:0:
182,192,102466,128,0,102895:0:0:0:0:
256,192,102466,1,8,0:0:0:0:
329,192,102680,1,0,0:0:0:0:
402,192,102895,1,2,0:0:0:0:
109,192,102895,128,0,103752:0:0:0:0:
256,192,103323,1,8,0:0:0:0:
475,192,103323,1,8,0:0:0:0:
402,192,103538,1,0,0:0:0:0:
329,192,103752,1,2,0:0:0:0:
182,192,103752,128,0,104180:0:0:0:0:
256,192,104180,1,8,0:0:0:0:
36,192,104180,128,0,104609:0:0:0:0:
329,192,104395,1,0,0:0:0:0:
109,192,104609,1,2,0:0:0:0:
329,192,104609,128,0,105038:0:0:0:0:
182,192,105038,1,8,0:0:0:0:
402,192,105038,128,0,105466:0:0:0:0:
256,192,105252,1,0,0:0:0:0:
329,192,105466,128,0,105895:0:0:0:0:
109,192,105466,1,2,0:0:0:0:
182,192,105895,128,0,106323:0:0:0:0:
475,192,105895,1,8,0:0:0:0:
329,192,106109,1,0,0:0:0:0:
256,192,106323,1,2,0:0:0:0:
402,192,106323,1,2,0:0:0:0:
109,192,106323,128,2,108038:0:0:0:0:
329,192,106538,1,0,0:0:0:0:
256,192,106752,1,0,0:0:0:0:
182,192,106966,1,0,0:0:0:0:
256,192,107180,1,2,0:0:0:0:
329,192,107395,1,0,0:0:0:0:
402,192,107609,1,0,0:0:0:0:
475,192,107823,1,0,0:0:0:0:
402,192,108038,1,2,0:0:0:0:
329,192,108038,128,2,109752:0:0:0:0:
256,192,108252,1,0,0:0:0:0:
182,192,108466,1,0,0:0:0:0:
109,192,108680,1,0,0:0:0:0:
36,192,108895,1,2,0:0:0:0:
109,192,109109,1,0,0:0:0:0:
182,192,109323,1,0,0:0:0:0:
256,192,109538,1,0,0:0:0:0:
402,192,109752,128,2,110823:0:0:0:0:
256,192,109752,1,2,0:0:0:0:
475,192,109966,1,0,0:0:0:0:
329,192,110180,1,2,0:0:0:0:
256,192,110395,1,0,0:0:0:0:
182,192,110609,1,2,0:0:0:0:
109,192,110823,1,0,0:0:0:0:
256,192,110823,128,0,112538:0:0:0:0:
36,192,111038,1,2,0:0:0:0:
109,192,111252,1,0,0:0:0:0:
182,192,111466,1,2,0:0:0:0:
329,192,111680,1,0,0:0:0:0:
402,192,111895,1,2,0:0:0:0:
475,192,112109,1,0,0:0:0:0:
402,192,112323,1,2,0:0:0:0:
109,192,112538,128,0,113609:0:0:0:0:
182,192,112752,1,2,0:0:0:0:
36,192,112966,1,0,0:0:0:0:
182,192,113180,1,2,0:0:0:0:
256,192,113395,1,0,0:0:0:0:
256,192,113609,128,2,114252:0:0:0:0:
329,192,113609,1,2,0:0:0:0:
475,192,113823,1,0,0:0:0:0:
402,192,114038,1,8,0:0:0:0:
329,192,114252,1,0,0:0:0:0:
182,192,114252,128,2,114895:0:0:0:0:
109,192,114466,1,8,0:0:0:0:
329,192,114466,1,8,0:0:0:0:
36,192,114680,1,0,0:0:0:0:
329,192,114895,1,2,0:0:0:0:
475,192,114895,128,2,116609:0:0:0:0:
182,192,115109,1,0,0:0:0:0:
36,192,115323,1,8,0:0:0:0:
402,192,115323,1,8,0:0:0:0:
182,192,115538,1,0,0:0:0:0:
329,192,115752,1,2,0:0:0:0:
109,192,115752,1,2,0:0:0:0:
182,192,115966,1,0,0:0:0:0:
36,192,116180,1,8,0:0:0:0:
256,192,116180,1,8,0:0:0:0:
182,192,116395,1,0,0:0:0:0:
329,192,116609,1,2,0:0:0:0:
109,192,116609,128,2,116823:0:0:0:0:
182,192,116823,128,0,118538:0:0:0:0:
256,192,117038,1,8,0:0:0:0:
36,192,117038,1,8,0:0:0:0:
329,192,117252,1,0,0:0:0:0:
402,192,117466,1,2,0:0:0:0:
109,192,117466,1,2,0:0:0:0:
329,192,117680,1,0,0:0:0:0:
36,192,117895,1,8,0:0:0:0:
256,192,117895,1,8,0:0:0:0:
329,192,118109,1,0,0:0:0:0:
109,192,118323,1,2,0:0:0:0:
475,192,118323,1,2,0:0:0:0:
256,192,118538,128,0,119180:0:0:0:0:
402,192,118752,1,8,0:0:0:0:
182,192,118752,1,8,0:0:0:0:
109,192,118966,1,0,0:0:0:0:
329,192,119180,1,2,0:0:0:0:
36,192,119180,128,2,120038:0:0:0:0:
182,192,119395,1,0,0:0:0:0:
109,192,119609,1,8,0:0:0:0:
402,192,119609,1,8,0:0:0:0:
256,192,119823,1,0,0:0:0:0:
182,192,120038,1,2,0:0:0:0:
256,192,120038,128,2,120895:0:0:0:0:
329,192,120252,1,0,0:0:0:0:
475,192,120466,1,8,0:0:0:0:
182,192,120466,1,8,0:0:0:0:
109,192,120680,1,0,0:0:0:0:
36,192,120895,1,2,0:0:0:0:
329,192,120895,1,2,0:0:0:0:
256,192,121109,1,0,0:0:0:0:
109,192,121323,1,8,0:0:0:0:
329,192,121323,1,8,0:0:0:0:
256,192,121538,1,0,0:0:0:0:
402,192,121752,1,2,0:0:0:0:
109,192,121752,1,2,0:0:0:0:
182,192,121966,1,0,0:0:0:0:
36,192,122180,1,8,0:0:0:0:
329,192,122180,1,8,0:0:0:0:
329,192,122395,1,0,0:0:0:0:
475,192,122609,1,2,0:0:0:0:
256,192,122609,1,2,0:0:0:0:
109,192,122823,1,0,0:0:0:0:
329,192,123038,1,8,0:0:0:0:
182,192,123038,1,8,0:0:0:0:
109,192,123252,1,0,0:0:0:0:
36,192,123466,1,2,0:0:0:0:
256,192,123466,1,2,0:0:0:0:
182,192,123680,1,2,0:0:0:0:
402,192,123895,1,2,0:0:0:0:
475,192,123895,1,2,0:0:0:0:
36,192,124109,1,2,0:0:0:0:
109,192,124109,1,2,0:0:0:0:
182,192,124323,1,2,0:0:0:0:
329,192,124323,1,2,0:0:0:0:
256,192,124538,1,2,0:0:0:0:
109,192,124538,1,2,0:0:0:0:
182,192,124752,1,2,0:0:0:0:
329,192,124752,1,2,0:0:0:0:
256,192,124966,1,2,0:0:0:0:
402,192,124966,1,2,0:0:0:0:
182,192,125180,128,2,127752:0:0:0:0:
329,192,125180,128,2,126895:0:0:0:0:
36,192,125180,128,2,128609:0:0:0:0:
