osu file format v14

[General]
AudioFilename: O2Jam - Electro Fantasy.mp3
AudioLeadIn: 0
PreviewTime: 13353
Countdown: 0
SampleSet: Soft
StackLeniency: 0.7
Mode: 3
LetterboxInBreaks: 0
SpecialStyle: 0
WidescreenStoryboard: 0

[Editor]
DistanceSpacing: 0.8
BeatDivisor: 4
GridSize: 8
TimelineZoom: 1

[Metadata]
Title:Electro Fantasy
TitleUnicode:Electro Fantasy
Artist:BeautifulDay
ArtistUnicode:BeautifulDay
Creator:Neiji Razuiya
Version:HD
Source:O2Jam
Tags:electronic ishimaru94
BeatmapID:396749
BeatmapSetID:162693

[Difficulty]
HPDrainRate:6
CircleSize:7
OverallDifficulty:7
ApproachRate:5
SliderMultiplier:1.7
SliderTickRate:1

[Events]
//Background and Video events
0,0,"75digital-abstraction02-m269.jpg",0,0
//Break Periods
//Storyboard Layer 0 (Background)
//Storyboard Layer 1 (Fail)
//Storyboard Layer 2 (Pass)
//Storyboard Layer 3 (Foreground)
//Storyboard Sound Samples
Sample,27469,0,"soft-hitwhistle.ogg",70
Sample,28752,0,"soft-hitclap.ogg",70

[TimingPoints]
38,428.571428571429,4,2,1,56,1,0
46645,-100,4,3,1,100,0,0
48038,-100,4,2,1,50,0,0
68609,-28.5714285714286,4,2,1,100,0,0
68823,-100,4,1,0,100,0,0
69038,-28.5714285714286,4,2,1,100,0,0
69252,-100,4,1,0,100,0,0
69466,-28.5714285714286,4,2,1,100,0,0
69680,-100,4,1,0,100,0,0
69895,-28.5714285714286,4,2,1,100,0,0
70109,-100,4,1,0,100,0,0
70323,-28.5714285714286,4,2,1,100,0,0
70538,-100,4,1,0,100,0,0
70752,-28.5714285714286,4,2,1,100,0,0
70966,-100,4,1,0,100,0,0
71180,-28.5714285714286,4,2,1,100,0,0
71395,-100,4,1,0,100,0,0
71609,-28.5714285714286,4,2,1,100,0,0
71823,-100,4,2,1,100,0,0
125180,-100,4,1,0,8,0,0

[HitObjects]
36,192,38,5,0,0:0:0:0:
182,192,38,1,0,0:0:0:0:
402,192,145,1,0,0:0:0:0:
182,192,252,1,0,0:0:0:0:
402,192,359,1,0,0:0:0:0:
36,192,466,1,0,0:0:0:0:
256,192,573,1,0,0:0:0:0:
475,192,680,1,0,0:0:0:0:
109,192,788,1,0,0:0:0:0:
402,192,895,1,0,0:0:0:0:
256,192,1002,1,0,0:0:0:0:
109,192,1109,1,0,0:0:0:0:
256,192,1216,1,0,0:0:0:0:
402,192,1323,1,0,0:0:0:0:
182,192,1430,1,0,0:0:0:0:
329,192,1538,1,0,0:0:0:0:
182,192,1645,1,0,0:0:0:0:
36,192,1752,1,0,0:0:0:0:
329,192,1859,1,0,0:0:0:0:
182,192,1966,1,0,0:0:0:0:
402,192,2073,1,0,0:0:0:0:
256,192,2180,1,0,0:0:0:0:
109,192,2288,1,0,0:0:0:0:
475,192,2395,1,0,0:0:0:0:
329,192,2502,1,0,0:0:0:0:
182,192,2609,1,0,0:0:0:0:
36,192,2716,1,0,0:0:0:0:
256,192,2823,1,0,0:0:0:0:
109,192,2930,1,0,0:0:0:0:
402,192,3038,1,0,0:0:0:0:
256,192,3145,1,0,0:0:0:0:
109,192,3252,1,0,0:0:0:0:
256,192,3359,1,0,0:0:0:0:
475,192,3466,1,0,0:0:0:0:
329,192,3466,1,0,0:0:0:0:
182,192,3573,1,0,0:0:0:0:
475,192,3680,1,0,0:0:0:0:
36,192,3788,1,0,0:0:0:0:
256,192,3895,1,0,0:0:0:0:
36,192,4002,1,0,0:0:0:0:
329,192,4109,1,0,0:0:0:0:
182,192,4109,1,0,0:0:0:0:
475,192,4216,1,0,0:0:0:0:
36,192,4323,1,0,0:0:0:0:
402,192,4430,1,0,0:0:0:0:
109,192,4538,1,0,0:0:0:0:
256,192,4645,1,0,0:0:0:0:
402,192,4645,1,0,0:0:0:0:
109,192,4752,1,0,0:0:0:0:
256,192,4859,1,0,0:0:0:0:
36,192,4859,1,0,0:0:0:0:
402,192,4966,1,0,0:0:0:0:
182,192,5073,1,0,0:0:0:0:
402,192,5180,1,0,0:0:0:0:
109,192,5288,1,0,0:0:0:0:
329,192,5395,1,0,0:0:0:0:
182,192,5502,1,0,0:0:0:0:
475,192,5609,1,0,0:0:0:0:
256,192,5716,1,0,0:0:0:0:
402,192,5823,1,0,0:0:0:0:
109,192,5930,1,0,0:0:0:0:
475,192,6038,1,0,0:0:0:0:
256,192,6145,1,0,0:0:0:0:
402,192,6252,1,0,0:0:0:0:
182,192,6359,1,0,0:0:0:0:
475,192,6466,1,0,0:0:0:0:
256,192,6573,1,0,0:0:0:0:
109,192,6680,1,0,0:0:0:0:
402,192,6788,1,0,0:0:0:0:
256,192,6895,1,0,0:0:0:0:
109,192,6895,1,0,0:0:0:0:
402,192,7002,1,0,0:0:0:0:
109,192,7109,1,0,0:0:0:0:
329,192,7216,1,0,0:0:0:0:
182,192,7323,1,0,0:0:0:0:
36,192,7430,1,0,0:0:0:0:
329,192,7538,1,0,0:0:0:0:
182,192,7645,1,0,0:0:0:0:
475,192,7752,1,0,0:0:0:0:
256,192,7859,5,0,0:0:0:0:
109,192,7966,1,0,0:0:0:0:
402,192,8073,1,0,0:0:0:0:
182,192,8180,1,0,0:0:0:0:
329,192,8288,1,0,0:0:0:0:
182,192,8395,1,0,0:0:0:0:
329,192,8502,1,0,0:0:0:0:
402,192,8609,1,0,0:0:0:0:
109,192,8716,1,0,0:0:0:0:
256,192,8823,1,0,0:0:0:0:
109,192,8930,1,0,0:0:0:0:
402,192,9038,1,0,0:0:0:0:
256,192,9145,1,0,0:0:0:0:
109,192,9252,1,0,0:0:0:0:
256,192,9359,1,0,0:0:0:0:
402,192,9466,1,0,0:0:0:0:
182,192,9573,1,0,0:0:0:0:
475,192,9680,1,0,0:0:0:0:
256,192,9788,1,0,0:0:0:0:
402,192,9895,1,0,0:0:0:0:
109,192,10002,1,0,0:0:0:0:
402,192,10109,1,0,0:0:0:0:
182,192,10216,1,0,0:0:0:0:
36,192,10323,1,0,0:0:0:0:
329,192,10323,1,0,0:0:0:0:
256,192,10430,1,0,0:0:0:0:
109,192,10538,1,0,0:0:0:0:
475,192,10645,1,0,0:0:0:0:
182,192,10752,1,0,0:0:0:0:
329,192,10859,1,0,0:0:0:0:
36,192,10966,1,0,0:0:0:0:
182,192,10966,1,0,0:0:0:0:
402,192,11073,1,0,0:0:0:0:
182,192,11180,1,0,0:0:0:0:
475,192,11288,1,0,0:0:0:0:
182,192,11395,1,0,0:0:0:0:
329,192,11502,1,0,0:0:0:0:
109,192,11502,1,0,0:0:0:0:
36,192,11609,1,0,0:0:0:0:
256,192,11716,1,0,0:0:0:0:
109,192,11823,1,0,0:0:0:0:
329,192,11930,1,0,0:0:0:0:
36,192,12038,1,0,0:0:0:0:
182,192,12145,1,0,0:0:0:0:
329,192,12252,1,0,0:0:0:0:
109,192,12359,1,0,0:0:0:0:
256,192,12466,1,0,0:0:0:0:
475,192,12573,5,0,0:0:0:0:
329,192,12680,1,0,0:0:0:0:
182,192,12788,1,0,0:0:0:0:
475,192,12895,1,0,0:0:0:0:
329,192,13002,1,0,0:0:0:0:
182,192,13109,1,0,0:0:0:0:
36,192,13216,1,0,0:0:0:0:
182,192,13323,1,0,0:0:0:0:
402,192,13430,1,0,0:0:0:0:
256,192,13538,1,0,0:0:0:0:
475,192,13645,1,0,0:0:0:0:
256,192,13752,1,2,0:0:0:0:
182,192,13859,1,0,0:0:0:0:
329,192,13966,1,0,0:0:0:0:
475,192,14073,1,0,0:0:0:0:
329,192,14180,1,0,0:0:0:0:
182,192,14288,1,0,0:0:0:0:
36,192,14395,1,0,0:0:0:0:
182,192,14502,1,0,0:0:0:0:
329,192,14609,1,0,0:0:0:0:
475,192,14716,1,0,0:0:0:0:
329,192,14823,1,0,0:0:0:0:
182,192,14930,1,0,0:0:0:0:
36,192,15038,1,0,0:0:0:0:
182,192,15145,1,0,0:0:0:0:
329,192,15252,1,0,0:0:0:0:
402,192,15359,1,0,0:0:0:0:
402,192,15573,1,0,0:0:0:0:
109,192,15573,1,0,0:0:0:0:
36,192,15680,1,0,0:0:0:0:
182,192,15788,1,0,0:0:0:0:
329,192,15895,1,0,0:0:0:0:
475,192,16002,1,0,0:0:0:0:
402,192,16109,1,0,0:0:0:0:
182,192,16216,1,0,0:0:0:0:
329,192,16323,1,0,0:0:0:0:
182,192,16430,1,0,0:0:0:0:
329,192,16538,1,0,0:0:0:0:
36,192,16645,1,0,0:0:0:0:
402,192,16752,1,0,0:0:0:0:
182,192,16859,1,0,0:0:0:0:
256,192,16966,1,0,0:0:0:0:
329,192,17073,1,0,0:0:0:0:
182,192,17180,1,0,0:0:0:0:
109,192,17288,1,0,0:0:0:0:
182,192,17395,1,0,0:0:0:0:
256,192,17502,1,0,0:0:0:0:
329,192,17609,1,0,0:0:0:0:
256,192,17716,1,0,0:0:0:0:
182,192,17823,1,0,0:0:0:0:
109,192,17930,1,0,0:0:0:0:
475,192,18038,1,0,0:0:0:0:
402,192,18145,1,0,0:0:0:0:
329,192,18252,1,0,0:0:0:0:
256,192,18359,1,0,0:0:0:0:
329,192,18466,1,0,0:0:0:0:
256,192,18573,1,0,0:0:0:0:
182,192,18680,1,0,0:0:0:0:
109,192,18788,1,0,0:0:0:0:
36,192,18895,1,0,0:0:0:0:
182,192,19002,1,0,0:0:0:0:
329,192,19109,1,0,0:0:0:0:
402,192,19216,1,0,0:0:0:0:
256,192,19323,1,0,0:0:0:0:
109,192,19430,1,0,0:0:0:0:
256,192,19538,1,0,0:0:0:0:
402,192,19645,1,0,0:0:0:0:
256,192,19752,1,0,0:0:0:0:
109,192,19859,1,0,0:0:0:0:
329,192,19966,1,0,0:0:0:0:
182,192,20073,1,0,0:0:0:0:
329,192,20180,1,0,0:0:0:0:
475,192,20288,1,0,0:0:0:0:
109,192,20395,1,0,0:0:0:0:
256,192,20502,1,0,0:0:0:0:
182,192,20609,1,2,0:0:0:0:
402,192,20609,1,2,0:0:0:0:
329,192,20609,1,2,0:0:0:0:
36,192,20716,1,0,0:0:0:0:
182,192,20823,1,0,0:0:0:0:
329,192,20930,1,0,0:0:0:0:
182,192,21038,1,0,0:0:0:0:
475,192,21145,1,0,0:0:0:0:
329,192,21252,1,0,0:0:0:0:
182,192,21359,1,0,0:0:0:0:
109,192,21466,1,0,0:0:0:0:
182,192,21573,1,0,0:0:0:0:
256,192,21680,1,0,0:0:0:0:
402,192,21788,1,0,0:0:0:0:
256,192,21895,1,0,0:0:0:0:
182,192,22002,1,0,0:0:0:0:
109,192,22109,1,0,0:0:0:0:
256,192,22216,1,0,0:0:0:0:
329,192,22323,1,0,0:0:0:0:
36,192,22430,1,0,0:0:0:0:
182,192,22538,1,0,0:0:0:0:
329,192,22645,1,0,0:0:0:0:
475,192,22752,1,0,0:0:0:0:
329,192,22859,1,0,0:0:0:0:
182,192,22966,1,0,0:0:0:0:
109,192,23073,1,0,0:0:0:0:
182,192,23180,1,0,0:0:0:0:
256,192,23288,1,0,0:0:0:0:
402,192,23395,1,0,0:0:0:0:
109,192,23502,1,0,0:0:0:0:
256,192,23609,1,0,0:0:0:0:
182,192,23716,1,0,0:0:0:0:
256,192,23823,1,0,0:0:0:0:
182,192,23930,1,0,0:0:0:0:
402,192,24038,1,0,0:0:0:0:
109,192,24145,1,0,0:0:0:0:
256,192,24252,5,0,0:0:0:0:
182,192,24359,1,0,0:0:0:0:
109,192,24466,1,0,0:0:0:0:
256,192,24573,1,0,0:0:0:0:
402,192,24680,1,0,0:0:0:0:
182,192,24788,1,0,0:0:0:0:
329,192,24895,1,0,0:0:0:0:
256,192,25002,1,0,0:0:0:0:
182,192,25109,1,0,0:0:0:0:
36,192,25216,1,0,0:0:0:0:
109,192,25323,1,0,0:0:0:0:
182,192,25430,1,0,0:0:0:0:
256,192,25538,1,0,0:0:0:0:
475,192,25645,1,0,0:0:0:0:
402,192,25752,1,0,0:0:0:0:
475,192,25859,1,0,0:0:0:0:
256,192,25966,1,0,0:0:0:0:
329,192,26073,1,0,0:0:0:0:
182,192,26180,1,0,0:0:0:0:
36,192,26288,5,0,0:0:0:0:
182,192,26395,5,0,0:0:0:0:
402,192,26502,1,0,0:0:0:0:
256,192,26609,1,0,0:0:0:0:
36,192,26716,1,0,0:0:0:0:
182,192,26823,1,0,0:0:0:0:
329,192,26930,1,0,0:0:0:0:
475,192,27038,1,0,0:0:0:0:
402,192,27145,1,0,0:0:0:0:
256,192,27252,1,0,0:0:0:0:
109,192,27359,1,0,0:0:0:0:
256,192,27466,5,0,0:0:0:70:soft-hitwhistle.ogg
402,192,27466,1,2,0:0:0:0:
182,192,27573,1,0,0:0:0:0:
109,192,27680,1,0,0:0:0:0:
182,192,27788,1,0,0:0:0:0:
475,192,27895,1,0,0:0:0:70:soft-hitclap.ogg
36,192,27895,1,0,0:0:0:70:soft-hitclap.ogg
109,192,28002,1,0,0:0:0:0:
182,192,28109,1,0,0:0:0:0:
109,192,28216,1,0,0:0:0:0:
256,192,28323,1,0,0:0:0:0:
402,192,28323,1,0,0:0:0:0:
182,192,28430,1,0,0:0:0:0:
109,192,28538,1,0,0:0:0:0:
182,192,28645,1,0,0:0:0:0:
36,192,28752,1,0,0:0:0:70:soft-hitclap.ogg
475,192,28752,1,0,0:0:0:70:soft-hitclap.ogg
109,192,28859,1,0,0:0:0:0:
182,192,28966,1,0,0:0:0:0:
109,192,29073,1,0,0:0:0:0:
256,192,29180,1,0,0:0:0:0:
109,192,29180,1,0,0:0:0:0:
402,192,29288,1,0,0:0:0:0:
329,192,29395,1,0,0:0:0:0:
475,192,29502,1,0,0:0:0:0:
256,192,29609,1,0,0:0:0:70:soft-hitclap.ogg
36,192,29609,1,0,0:0:0:70:soft-hitclap.ogg
402,192,29716,1,0,0:0:0:0:
329,192,29823,1,0,0:0:0:0:
475,192,29930,1,0,0:0:0:0:
256,192,30038,1,0,0:0:0:0:
109,192,30038,1,0,0:0:0:0:
402,192,30145,1,0,0:0:0:0:
182,192,30252,1,0,0:0:0:0:
475,192,30359,1,0,0:0:0:0:
256,192,30466,1,0,0:0:0:70:soft-hitclap.ogg
36,192,30466,1,0,0:0:0:70:soft-hitclap.ogg
402,192,30573,1,0,0:0:0:0:
182,192,30680,1,2,0:0:0:0:
475,192,30788,1,0,0:0:0:0:
256,192,30895,5,2,0:0:0:0:
402,192,30895,1,2,0:0:0:0:
182,192,31002,1,0,0:0:0:0:
109,192,31109,1,0,0:0:0:0:
182,192,31217,1,0,0:0:0:0:
329,192,31323,1,8,0:0:0:0:
36,192,31324,1,8,0:0:0:0:
109,192,31431,1,0,0:0:0:0:
182,192,31538,1,0,0:0:0:0:
109,192,31645,1,0,0:0:0:0:
256,192,31752,5,0,0:0:0:0:
475,192,31752,1,0,0:0:0:0:
182,192,31859,1,0,0:0:0:0:
109,192,31966,1,0,0:0:0:0:
182,192,32074,1,0,0:0:0:0:
329,192,32180,1,8,0:0:0:0:
36,192,32181,1,8,0:0:0:0:
109,192,32288,1,0,0:0:0:0:
182,192,32395,1,0,0:0:0:0:
109,192,32502,1,0,0:0:0:0:
256,192,32609,5,0,0:0:0:0:
109,192,32609,1,0,0:0:0:0:
329,192,32716,1,0,0:0:0:0:
402,192,32823,1,0,0:0:0:0:
329,192,32931,1,0,0:0:0:0:
475,192,33038,1,8,0:0:0:0:
36,192,33038,1,8,0:0:0:0:
402,192,33145,1,0,0:0:0:0:
329,192,33252,1,0,0:0:0:0:
402,192,33359,1,0,0:0:0:0:
256,192,33466,5,0,0:0:0:0:
109,192,33466,1,0,0:0:0:0:
329,192,33573,1,0,0:0:0:0:
402,192,33680,1,0,0:0:0:0:
329,192,33788,1,0,0:0:0:0:
475,192,33895,1,8,0:0:0:0:
36,192,33895,1,8,0:0:0:0:
402,192,34002,1,0,0:0:0:0:
329,192,34109,1,0,0:0:0:0:
402,192,34216,1,0,0:0:0:0:
256,192,34323,1,2,0:0:0:0:
329,192,34323,1,2,0:0:0:0:
475,192,34323,1,2,0:0:0:0:
36,192,34323,1,0,0:0:0:0:
182,192,34430,1,0,0:0:0:0:
109,192,34538,1,0,0:0:0:0:
182,192,34645,1,0,0:0:0:0:
36,192,34752,1,8,0:0:0:0:
475,192,34752,1,8,0:0:0:0:
256,192,34859,1,0,0:0:0:0:
36,192,34966,1,0,0:0:0:0:
256,192,35073,1,0,0:0:0:0:
182,192,35180,1,0,0:0:0:0:
402,192,35180,1,0,0:0:0:0:
36,192,35288,1,0,0:0:0:0:
109,192,35395,1,0,0:0:0:0:
256,192,35502,1,0,0:0:0:0:
36,192,35609,1,8,0:0:0:0:
329,192,35609,1,8,0:0:0:0:
182,192,35716,1,0,0:0:0:0:
109,192,35823,1,0,0:0:0:0:
256,192,35930,1,0,0:0:0:0:
329,192,36038,1,0,0:0:0:0:
36,192,36038,1,0,0:0:0:0:
475,192,36145,1,0,0:0:0:0:
256,192,36252,1,0,0:0:0:0:
402,192,36359,1,0,0:0:0:0:
475,192,36466,1,8,0:0:0:0:
182,192,36466,1,8,0:0:0:0:
329,192,36573,1,0,0:0:0:0:
475,192,36680,1,0,0:0:0:0:
329,192,36788,1,0,0:0:0:0:
256,192,36895,1,0,0:0:0:0:
36,192,36895,1,0,0:0:0:0:
402,192,37002,1,0,0:0:0:0:
256,192,37109,1,0,0:0:0:0:
475,192,37216,1,0,0:0:0:0:
329,192,37323,1,8,0:0:0:0:
109,192,37323,1,8,0:0:0:0:
256,192,37430,1,0,0:0:0:0:
475,192,37538,1,2,0:0:0:0:
329,192,37645,1,0,0:0:0:0:
475,192,37752,1,2,0:0:0:0:
182,192,37752,1,2,0:0:0:0:
402,192,37859,1,0,0:0:0:0:
256,192,37966,1,0,0:0:0:0:
402,192,38073,1,0,0:0:0:0:
329,192,38180,1,8,0:0:0:0:
36,192,38180,1,8,0:0:0:0:
475,192,38288,1,0,0:0:0:0:
402,192,38395,1,0,0:0:0:0:
475,192,38502,1,0,0:0:0:0:
256,192,38609,1,0,0:0:0:0:
402,192,38609,1,0,0:0:0:0:
182,192,38716,1,0,0:0:0:0:
109,192,38823,1,0,0:0:0:0:
329,192,39038,1,8,0:0:0:0:
402,192,39145,1,0,0:0:0:0:
475,192,39252,1,0,0:0:0:0:
36,192,39466,1,0,0:0:0:0:
109,192,39573,1,0,0:0:0:0:
182,192,39680,1,0,0:0:0:0:
36,192,39895,1,8,0:0:0:0:
475,192,39895,1,8,0:0:0:0:
256,192,40002,1,0,0:0:0:0:
182,192,40109,1,0,0:0:0:0:
109,192,40216,1,0,0:0:0:0:
329,192,40323,1,0,0:0:0:0:
402,192,40430,1,0,0:0:0:0:
329,192,40538,1,0,0:0:0:0:
182,192,40752,1,8,0:0:0:0:
109,192,40859,1,0,0:0:0:0:
36,192,40966,1,0,0:0:0:0:
256,192,41180,1,0,0:0:0:0:
109,192,41288,1,0,0:0:0:0:
182,192,41395,1,0,0:0:0:0:
329,192,41609,1,0,0:0:0:0:
402,192,41716,1,0,0:0:0:0:
256,192,41823,1,0,0:0:0:0:
182,192,42038,1,0,0:0:0:0:
256,192,42145,1,0,0:0:0:0:
182,192,42252,1,0,0:0:0:0:
402,192,42466,1,0,0:0:0:0:
329,192,42573,1,0,0:0:0:0:
402,192,42680,1,0,0:0:0:0:
182,192,42895,1,0,0:0:0:0:
109,192,43002,1,0,0:0:0:0:
36,192,43109,1,0,0:0:0:0:
329,192,43323,1,0,0:0:0:0:
402,192,43430,1,0,0:0:0:0:
475,192,43538,1,0,0:0:0:0:
182,192,43752,1,0,0:0:0:0:
256,192,43859,1,0,0:0:0:0:
182,192,43966,1,0,0:0:0:0:
256,192,44180,1,0,0:0:0:0:
182,192,44288,1,0,0:0:0:0:
256,192,44395,1,0,0:0:0:0:
182,192,44609,1,0,0:0:0:0:
109,192,44716,1,0,0:0:0:0:
109,192,44823,1,0,0:0:0:0:
329,192,45038,1,0,0:0:0:0:
402,192,45145,1,0,0:0:0:0:
402,192,45252,1,0,0:0:0:0:
109,192,45466,5,0,0:0:0:0:
402,192,45573,1,0,0:0:0:0:
182,192,45680,1,0,0:0:0:0:
36,192,45895,1,0,0:0:0:0:
402,192,46002,1,0,0:0:0:0:
256,192,46109,1,0,0:0:0:0:
182,192,46323,1,0,0:0:0:0:
256,192,46430,1,0,0:0:0:0:
182,192,46538,1,0,0:0:0:0:
36,192,46752,1,0,0:0:0:0:
475,192,46752,1,0,0:0:0:0:
182,192,46966,1,0,0:0:0:0:
256,192,47073,1,0,0:0:0:0:
329,192,47180,1,0,0:0:0:0:
36,192,47395,1,0,0:0:0:0:
475,192,47395,1,0,0:0:0:0:
256,192,47502,1,0,0:0:0:0:
182,192,47609,1,0,0:0:0:0:
182,192,47823,1,0,0:0:0:0:
329,192,47930,1,0,0:0:0:0:
475,192,48038,1,2,0:0:0:0:
256,192,48038,1,0,0:0:0:0:
109,192,48038,1,0,0:0:0:0:
329,192,48252,1,0,0:0:0:0:
182,192,48252,1,0,0:0:0:0:
182,192,48466,1,8,0:0:0:0:
402,192,48466,1,0,0:0:0:0:
36,192,48466,1,0,0:0:0:0:
36,192,48680,1,0,0:0:0:0:
256,192,48680,1,0,0:0:0:0:
36,192,48895,1,2,0:0:0:0:
256,192,48895,1,2,0:0:0:0:
402,192,48895,1,0,0:0:0:0:
402,192,49109,1,0,0:0:0:0:
182,192,49109,1,0,0:0:0:0:
109,192,49323,1,8,0:0:0:0:
402,192,49323,1,8,0:0:0:0:
256,192,49323,1,0,0:0:0:0:
36,192,49538,1,2,0:0:0:0:
256,192,49538,1,2,0:0:0:0:
402,192,49538,1,0,0:0:0:0:
109,192,49752,1,2,0:0:0:0:
256,192,49752,1,0,0:0:0:0:
475,192,49752,1,0,0:0:0:0:
329,192,49752,1,0,0:0:0:0:
36,192,49966,1,0,0:0:0:0:
182,192,49966,1,0,0:0:0:0:
256,192,50180,1,10,0:0:0:0:
402,192,50180,1,10,0:0:0:0:
109,192,50180,1,0,0:0:0:0:
475,192,50395,1,0,0:0:0:0:
182,192,50395,1,0,0:0:0:0:
475,192,50609,1,2,0:0:0:0:
256,192,50609,1,2,0:0:0:0:
109,192,50609,1,0,0:0:0:0:
256,192,50823,1,0,0:0:0:0:
109,192,50823,1,0,0:0:0:0:
182,192,51038,1,8,0:0:0:0:
402,192,51038,1,8,0:0:0:0:
36,192,51038,1,0,0:0:0:0:
329,192,51252,1,2,0:0:0:0:
475,192,51252,1,2,0:0:0:0:
182,192,51252,1,0,0:0:0:0:
256,192,51466,1,2,0:0:0:0:
36,192,51466,1,2,0:0:0:0:
402,192,51466,1,0,0:0:0:0:
109,192,51466,1,0,0:0:0:0:
402,192,51680,1,0,0:0:0:0:
182,192,51680,1,0,0:0:0:0:
329,192,51895,1,10,0:0:0:0:
475,192,51895,1,10,0:0:0:0:
109,192,51895,1,0,0:0:0:0:
182,192,52109,1,0,0:0:0:0:
402,192,52109,1,0,0:0:0:0:
256,192,52323,1,2,0:0:0:0:
36,192,52323,1,2,0:0:0:0:
402,192,52323,1,0,0:0:0:0:
109,192,52538,1,0,0:0:0:0:
329,192,52538,1,0,0:0:0:0:
256,192,52752,1,10,0:0:0:0:
36,192,52752,1,10,0:0:0:0:
475,192,52752,1,0,0:0:0:0:
256,192,52966,1,0,0:0:0:0:
109,192,52966,1,0,0:0:0:0:
402,192,53180,1,2,0:0:0:0:
475,192,53180,1,2,0:0:0:0:
256,192,53180,1,0,0:0:0:0:
329,192,53395,1,0,0:0:0:0:
182,192,53395,1,0,0:0:0:0:
109,192,53609,1,10,0:0:0:0:
329,192,53609,1,10,0:0:0:0:
256,192,53823,1,0,0:0:0:0:
182,192,53823,1,0,0:0:0:0:
475,192,54038,1,2,0:0:0:0:
256,192,54038,1,2,0:0:0:0:
109,192,54038,1,0,0:0:0:0:
182,192,54252,1,0,0:0:0:0:
402,192,54252,1,0,0:0:0:0:
36,192,54466,1,10,0:0:0:0:
182,192,54466,1,10,0:0:0:0:
402,192,54466,1,0,0:0:0:0:
182,192,54680,1,0,0:0:0:0:
329,192,54680,1,0,0:0:0:0:
182,192,54895,1,2,0:0:0:0:
329,192,54895,1,2,0:0:0:0:
109,192,54895,1,0,0:0:0:0:
182,192,55109,1,0,0:0:0:0:
402,192,55109,1,0,0:0:0:0:
329,192,55323,1,10,0:0:0:0:
109,192,55323,1,10,0:0:0:0:
475,192,55323,1,0,0:0:0:0:
182,192,55538,1,0,0:0:0:0:
402,192,55538,1,0,0:0:0:0:
36,192,55752,1,2,0:0:0:0:
109,192,55752,1,2,0:0:0:0:
256,192,55752,1,0,0:0:0:0:
329,192,55966,1,0,0:0:0:0:
182,192,55966,1,0,0:0:0:0:
402,192,56180,1,0,0:0:0:0:
182,192,56180,1,0,0:0:0:0:
256,192,56180,1,2,0:0:0:0:
402,192,56395,1,0,0:0:0:0:
109,192,56395,1,0,0:0:0:0:
402,192,56609,1,2,0:0:0:0:
182,192,56609,1,2,0:0:0:0:
256,192,56716,1,0,0:0:0:0:
329,192,56823,1,0,0:0:0:0:
402,192,56930,1,0,0:0:0:0:
329,192,57038,1,10,0:0:0:0:
109,192,57038,1,10,0:0:0:0:
256,192,57145,1,0,0:0:0:0:
182,192,57252,1,0,0:0:0:0:
109,192,57359,1,0,0:0:0:0:
36,192,57466,1,2,0:0:0:0:
329,192,57466,1,2,0:0:0:0:
109,192,57573,1,0,0:0:0:0:
256,192,57680,1,0,0:0:0:0:
182,192,57788,1,0,0:0:0:0:
109,192,57895,1,10,0:0:0:0:
402,192,57895,1,10,0:0:0:0:
329,192,58002,1,0,0:0:0:0:
256,192,58109,1,0,0:0:0:0:
109,192,58216,1,0,0:0:0:0:
402,192,58323,1,2,0:0:0:0:
256,192,58323,1,2,0:0:0:0:
329,192,58430,1,0,0:0:0:0:
182,192,58538,1,0,0:0:0:0:
402,192,58645,1,0,0:0:0:0:
256,192,58752,1,2,0:0:0:0:
36,192,58752,1,10,0:0:0:0:
329,192,58859,1,0,0:0:0:0:
109,192,58966,1,0,0:0:0:0:
329,192,59073,1,0,0:0:0:0:
475,192,59180,1,2,0:0:0:0:
182,192,59180,1,0,0:0:0:0:
109,192,59288,1,0,0:0:0:0:
36,192,59395,1,0,0:0:0:0:
402,192,59395,1,0,0:0:0:0:
256,192,59502,1,0,0:0:0:0:
182,192,59609,1,2,0:0:0:0:
402,192,59609,1,8,0:0:0:0:
329,192,59716,1,0,0:0:0:0:
256,192,59823,1,0,0:0:0:0:
329,192,59930,1,0,0:0:0:0:
256,192,60038,1,2,0:0:0:0:
402,192,60038,1,2,0:0:0:0:
109,192,60145,1,0,0:0:0:0:
329,192,60252,1,0,0:0:0:0:
109,192,60359,1,0,0:0:0:0:
329,192,60466,1,10,0:0:0:0:
182,192,60466,1,10,0:0:0:0:
402,192,60573,1,0,0:0:0:0:
256,192,60680,1,0,0:0:0:0:
109,192,60788,1,0,0:0:0:0:
36,192,60895,1,2,0:0:0:0:
182,192,60895,1,2,0:0:0:0:
402,192,61002,1,0,0:0:0:0:
329,192,61109,1,0,0:0:0:0:
475,192,61109,1,0,0:0:0:0:
182,192,61216,1,0,0:0:0:0:
256,192,61323,1,10,0:0:0:0:
402,192,61323,1,10,0:0:0:0:
182,192,61430,1,0,0:0:0:0:
256,192,61538,1,0,0:0:0:0:
182,192,61645,1,0,0:0:0:0:
256,192,61752,1,2,0:0:0:0:
109,192,61752,1,2,0:0:0:0:
329,192,61859,1,0,0:0:0:0:
182,192,61966,1,0,0:0:0:0:
256,192,62073,1,0,0:0:0:0:
329,192,62180,1,10,0:0:0:0:
475,192,62180,1,10,0:0:0:0:
256,192,62288,1,0,0:0:0:0:
182,192,62395,1,0,0:0:0:0:
36,192,62502,1,0,0:0:0:0:
256,192,62609,1,2,0:0:0:0:
402,192,62609,1,2,0:0:0:0:
475,192,62716,1,0,0:0:0:0:
329,192,62823,1,0,0:0:0:0:
182,192,62930,1,0,0:0:0:0:
329,192,63038,1,10,0:0:0:0:
36,192,63038,1,10,0:0:0:0:
402,192,63145,1,0,0:0:0:0:
329,192,63252,1,0,0:0:0:0:
256,192,63359,1,0,0:0:0:0:
182,192,63466,1,2,0:0:0:0:
36,192,63466,1,2,0:0:0:0:
256,192,63573,1,0,0:0:0:0:
182,192,63680,1,0,0:0:0:0:
256,192,63788,1,0,0:0:0:0:
402,192,63895,1,10,0:0:0:0:
109,192,63895,1,10,0:0:0:0:
329,192,64002,1,0,0:0:0:0:
256,192,64109,1,0,0:0:0:0:
329,192,64216,1,0,0:0:0:0:
402,192,64323,1,2,0:0:0:0:
182,192,64323,1,2,0:0:0:0:
475,192,64430,1,0,0:0:0:0:
329,192,64538,1,0,0:0:0:0:
182,192,64645,1,0,0:0:0:0:
256,192,64752,1,10,0:0:0:0:
475,192,64859,1,0,0:0:0:0:
402,192,64966,1,0,0:0:0:0:
475,192,65073,1,0,0:0:0:0:
109,192,65180,1,8,0:0:0:0:
182,192,65180,1,4,0:0:0:0:
256,192,65180,1,2,0:0:0:0:
402,192,65288,1,0,0:0:0:0:
329,192,65395,1,0,0:0:0:0:
402,192,65502,1,0,0:0:0:0:
475,192,65609,1,0,0:0:0:0:
402,192,65716,1,0,0:0:0:0:
329,192,65823,1,0,0:0:0:0:
256,192,65930,1,0,0:0:0:0:
182,192,66038,1,0,0:0:0:0:
109,192,66145,1,0,0:0:0:0:
36,192,66252,1,0,0:0:0:0:
109,192,66359,1,0,0:0:0:0:
182,192,66466,1,0,0:0:0:0:
256,192,66573,1,0,0:0:0:0:
329,192,66680,1,0,0:0:0:0:
402,192,66788,1,0,0:0:0:0:
475,192,66895,1,0,0:0:0:0:
402,192,67002,1,0,0:0:0:0:
329,192,67109,1,0,0:0:0:0:
256,192,67216,1,0,0:0:0:0:
182,192,67323,1,0,0:0:0:0:
109,192,67430,1,0,0:0:0:0:
36,192,67538,1,0,0:0:0:0:
109,192,67645,1,0,0:0:0:0:
182,192,67752,1,0,0:0:0:0:
256,192,67859,1,0,0:0:0:0:
329,192,67966,1,0,0:0:0:0:
402,192,68073,1,0,0:0:0:0:
475,192,68180,1,0,0:0:0:0:
402,192,68288,1,0,0:0:0:0:
329,192,68395,1,0,0:0:0:0:
256,192,68502,1,0,0:0:0:0:
182,192,68609,1,2,0:0:0:0:
402,192,68609,1,2,0:0:0:0:
329,192,68609,1,6,0:0:0:0:
36,192,69038,1,2,0:0:0:0:
475,192,69038,1,2,0:0:0:0:
256,192,69038,1,0,0:0:0:0:
182,192,69466,1,2,0:0:0:0:
329,192,69466,1,6,0:0:0:0:
182,192,69895,1,6,0:0:0:0:
36,192,69895,1,2,0:0:0:0:
329,192,69895,1,6,0:0:0:0:
475,192,69895,1,2,0:0:0:0:
182,192,70323,1,6,0:0:0:0:
329,192,70323,1,2,0:0:0:0:
182,192,70752,1,2,0:0:0:0:
329,192,70752,1,6,0:0:0:0:
36,192,71180,1,6,0:0:0:0:
256,192,71180,1,6,0:0:0:0:
475,192,71180,1,2,0:0:0:0:
109,192,71609,1,2,0:0:0:0:
402,192,71609,1,2,0:0:0:0:
256,192,71609,1,6,0:0:0:0:
109,192,72038,1,2,0:0:0:0:
256,192,72038,1,6,0:0:0:0:
402,192,72038,1,0,0:0:0:0:
36,192,72252,1,0,0:0:0:0:
256,192,72466,1,12,0:0:0:0:
109,192,72680,1,0,0:0:0:0:
182,192,72895,1,2,0:0:0:0:
329,192,72895,1,2,0:0:0:0:
109,192,73109,1,0,0:0:0:0:
402,192,73323,1,8,0:0:0:0:
182,192,73538,1,0,0:0:0:0:
402,192,73752,1,2,0:0:0:0:
36,192,73752,1,2,0:0:0:0:
256,192,73966,1,0,0:0:0:0:
329,192,74180,1,8,0:0:0:0:
109,192,74180,1,8,0:0:0:0:
36,192,74395,1,0,0:0:0:0:
329,192,74609,1,2,0:0:0:0:
109,192,74609,1,2,0:0:0:0:
329,192,74823,1,0,0:0:0:0:
402,192,75038,1,8,0:0:0:0:
182,192,75038,1,8,0:0:0:0:
109,192,75252,1,0,0:0:0:0:
329,192,75466,1,2,0:0:0:0:
36,192,75466,1,2,0:0:0:0:
256,192,75680,1,0,0:0:0:0:
402,192,75895,1,8,0:0:0:0:
109,192,75895,1,8,0:0:0:0:
329,192,76109,1,0,0:0:0:0:
475,192,76323,1,2,0:0:0:0:
329,192,76538,1,0,0:0:0:0:
182,192,76645,1,0,0:0:0:0:
36,192,76752,1,0,0:0:0:0:
402,192,76752,1,8,0:0:0:0:
256,192,76966,1,0,0:0:0:0:
182,192,77180,1,0,0:0:0:0:
402,192,77180,1,0,0:0:0:0:
36,192,77395,1,0,0:0:0:0:
329,192,77502,1,0,0:0:0:0:
475,192,77609,1,8,0:0:0:0:
109,192,77609,1,8,0:0:0:0:
256,192,77823,1,0,0:0:0:0:
475,192,77895,1,0,0:0:0:0:
182,192,78038,1,2,0:0:0:0:
329,192,78038,1,0,0:0:0:0:
402,192,78252,1,0,0:0:0:0:
329,192,78323,1,0,0:0:0:0:
182,192,78466,1,0,0:0:0:0:
36,192,78466,1,8,0:0:0:0:
256,192,78609,1,0,0:0:0:0:
402,192,78752,1,0,0:0:0:0:
36,192,78895,1,2,0:0:0:0:
182,192,78895,1,2,0:0:0:0:
329,192,78895,1,0,0:0:0:0:
329,192,79109,1,0,0:0:0:0:
182,192,79323,1,8,0:0:0:0:
402,192,79323,1,0,0:0:0:0:
329,192,79538,1,0,0:0:0:0:
402,192,79752,1,2,0:0:0:0:
109,192,79752,1,2,0:0:0:0:
256,192,79966,1,0,0:0:0:0:
329,192,80073,1,0,0:0:0:0:
402,192,80180,1,8,0:0:0:0:
182,192,80180,1,8,0:0:0:0:
329,192,80395,1,0,0:0:0:0:
256,192,80502,1,0,0:0:0:0:
182,192,80609,1,2,0:0:0:0:
402,192,80609,1,2,0:0:0:0:
329,192,80823,1,0,0:0:0:0:
256,192,80930,1,0,0:0:0:0:
36,192,81038,1,8,0:0:0:0:
182,192,81038,1,8,0:0:0:0:
256,192,81252,1,0,0:0:0:0:
36,192,81359,1,0,0:0:0:0:
256,192,81466,1,2,0:0:0:0:
475,192,81466,1,2,0:0:0:0:
402,192,81680,1,0,0:0:0:0:
329,192,81788,1,0,0:0:0:0:
109,192,81895,1,8,0:0:0:0:
256,192,81895,1,8,0:0:0:0:
256,192,82109,1,0,0:0:0:0:
402,192,82216,1,0,0:0:0:0:
475,192,82323,1,2,0:0:0:0:
329,192,82323,1,2,0:0:0:0:
36,192,82538,1,0,0:0:0:0:
182,192,82645,1,0,0:0:0:0:
329,192,82752,1,8,0:0:0:0:
475,192,82752,1,8,0:0:0:0:
109,192,82966,1,0,0:0:0:0:
329,192,83073,1,0,0:0:0:0:
36,192,83180,1,2,0:0:0:0:
182,192,83180,1,2,0:0:0:0:
256,192,83395,1,0,0:0:0:0:
109,192,83502,1,0,0:0:0:0:
36,192,83609,1,8,0:0:0:0:
182,192,83609,1,8,0:0:0:0:
329,192,83823,1,0,0:0:0:0:
402,192,83930,1,0,0:0:0:0:
182,192,84038,1,2,0:0:0:0:
329,192,84038,1,2,0:0:0:0:
109,192,84252,1,0,0:0:0:0:
475,192,84359,1,0,0:0:0:0:
402,192,84466,1,8,0:0:0:0:
36,192,84466,1,8,0:0:0:0:
109,192,84680,1,0,0:0:0:0:
329,192,84788,1,0,0:0:0:0:
402,192,84895,1,2,0:0:0:0:
109,192,84895,1,2,0:0:0:0:
36,192,85109,1,0,0:0:0:0:
182,192,85216,1,0,0:0:0:0:
402,192,85323,1,8,0:0:0:0:
256,192,85323,1,8,0:0:0:0:
329,192,85538,1,0,0:0:0:0:
256,192,85645,1,0,0:0:0:0:
182,192,85752,1,2,0:0:0:0:
36,192,85752,1,2,0:0:0:0:
402,192,85966,1,0,0:0:0:0:
475,192,86073,1,0,0:0:0:0:
256,192,86180,1,8,0:0:0:0:
109,192,86180,1,8,0:0:0:0:
36,192,86395,1,0,0:0:0:0:
182,192,86502,1,0,0:0:0:0:
329,192,86609,1,2,0:0:0:0:
475,192,86609,1,2,0:0:0:0:
182,192,86823,1,0,0:0:0:0:
109,192,86930,1,0,0:0:0:0:
256,192,87038,1,8,0:0:0:0:
475,192,87038,1,8,0:0:0:0:
256,192,87252,1,0,0:0:0:0:
329,192,87359,1,0,0:0:0:0:
402,192,87466,1,2,0:0:0:0:
109,192,87466,1,2,0:0:0:0:
329,192,87680,1,0,0:0:0:0:
402,192,87788,1,0,0:0:0:0:
329,192,87895,1,8,0:0:0:0:
109,192,87895,1,8,0:0:0:0:
329,192,88109,1,0,0:0:0:0:
256,192,88216,1,0,0:0:0:0:
182,192,88323,1,2,0:0:0:0:
36,192,88323,1,2,0:0:0:0:
182,192,88538,1,0,0:0:0:0:
256,192,88645,1,0,0:0:0:0:
329,192,88752,1,8,0:0:0:0:
475,192,88752,1,8,0:0:0:0:
109,192,88966,1,0,0:0:0:0:
256,192,89073,1,0,0:0:0:0:
329,192,89180,1,2,0:0:0:0:
475,192,89180,1,2,0:0:0:0:
182,192,89395,1,0,0:0:0:0:
256,192,89502,1,0,0:0:0:0:
329,192,89609,1,8,0:0:0:0:
475,192,89609,1,8,0:0:0:0:
256,192,89823,1,0,0:0:0:0:
182,192,89930,1,0,0:0:0:0:
36,192,90038,1,2,0:0:0:0:
256,192,90038,1,2,0:0:0:0:
402,192,90252,1,0,0:0:0:0:
475,192,90359,1,0,0:0:0:0:
109,192,90466,1,8,0:0:0:0:
256,192,90466,1,8,0:0:0:0:
182,192,90680,1,0,0:0:0:0:
109,192,90788,1,0,0:0:0:0:
36,192,90895,1,2,0:0:0:0:
182,192,90895,1,2,0:0:0:0:
329,192,91109,1,0,0:0:0:0:
402,192,91216,1,0,0:0:0:0:
182,192,91323,1,8,0:0:0:0:
36,192,91323,1,8,0:0:0:0:
256,192,91538,1,0,0:0:0:0:
182,192,91645,1,0,0:0:0:0:
256,192,91752,1,2,0:0:0:0:
36,192,91752,1,2,0:0:0:0:
329,192,91966,1,0,0:0:0:0:
109,192,92073,1,0,0:0:0:0:
182,192,92180,1,8,0:0:0:0:
402,192,92180,1,8,0:0:0:0:
182,192,92395,1,0,0:0:0:0:
256,192,92502,1,0,0:0:0:0:
329,192,92609,1,2,0:0:0:0:
475,192,92609,1,2,0:0:0:0:
109,192,92609,1,0,0:0:0:0:
182,192,92823,1,0,0:0:0:0:
36,192,92930,1,0,0:0:0:0:
109,192,93038,1,8,0:0:0:0:
256,192,93038,1,8,0:0:0:0:
256,192,93252,1,0,0:0:0:0:
182,192,93359,1,0,0:0:0:0:
109,192,93466,1,2,0:0:0:0:
329,192,93466,1,2,0:0:0:0:
329,192,93680,1,0,0:0:0:0:
402,192,93788,1,0,0:0:0:0:
256,192,93895,1,8,0:0:0:0:
36,192,93895,1,8,0:0:0:0:
329,192,94109,1,0,0:0:0:0:
402,192,94216,1,0,0:0:0:0:
109,192,94323,1,2,0:0:0:0:
329,192,94323,1,2,0:0:0:0:
475,192,94538,1,0,0:0:0:0:
256,192,94645,1,0,0:0:0:0:
36,192,94752,1,8,0:0:0:0:
329,192,94752,1,2,0:0:0:0:
182,192,94966,1,0,0:0:0:0:
109,192,95073,1,0,0:0:0:0:
36,192,95180,1,0,0:0:0:0:
256,192,95180,1,0,0:0:0:0:
402,192,95288,1,0,0:0:0:0:
475,192,95395,1,0,0:0:0:0:
402,192,95502,1,0,0:0:0:0:
329,192,95609,1,0,0:0:0:0:
182,192,95716,1,0,0:0:0:0:
256,192,95823,1,0,0:0:0:0:
109,192,95930,1,0,0:0:0:0:
329,192,96038,1,2,0:0:0:0:
36,192,96038,1,2,0:0:0:0:
402,192,96252,1,0,0:0:0:0:
475,192,96359,1,0,0:0:0:0:
329,192,96466,1,8,0:0:0:0:
182,192,96466,1,8,0:0:0:0:
329,192,96680,1,0,0:0:0:0:
402,192,96788,1,0,0:0:0:0:
182,192,96895,1,2,0:0:0:0:
36,192,96895,1,2,0:0:0:0:
329,192,97109,1,0,0:0:0:0:
402,192,97216,1,0,0:0:0:0:
182,192,97323,1,8,0:0:0:0:
475,192,97323,1,8,0:0:0:0:
256,192,97538,1,0,0:0:0:0:
402,192,97645,1,0,0:0:0:0:
36,192,97752,1,2,0:0:0:0:
182,192,97752,1,2,0:0:0:0:
402,192,97966,1,0,0:0:0:0:
329,192,98073,1,0,0:0:0:0:
182,192,98180,1,8,0:0:0:0:
402,192,98180,1,8,0:0:0:0:
182,192,98395,1,0,0:0:0:0:
256,192,98502,1,0,0:0:0:0:
329,192,98609,1,2,0:0:0:0:
475,192,98609,1,2,0:0:0:0:
182,192,98823,1,0,0:0:0:0:
329,192,98930,1,0,0:0:0:0:
182,192,99038,1,8,0:0:0:0:
402,192,99038,1,8,0:0:0:0:
256,192,99252,1,0,0:0:0:0:
329,192,99359,1,0,0:0:0:0:
256,192,99466,1,2,0:0:0:0:
475,192,99466,1,2,0:0:0:0:
182,192,99680,1,0,0:0:0:0:
109,192,99788,1,0,0:0:0:0:
36,192,99895,1,8,0:0:0:0:
182,192,99895,1,8,0:0:0:0:
182,192,100109,1,0,0:0:0:0:
329,192,100216,1,0,0:0:0:0:
256,192,100323,1,2,0:0:0:0:
109,192,100323,1,2,0:0:0:0:
182,192,100538,1,0,0:0:0:0:
256,192,100645,1,0,0:0:0:0:
36,192,100752,1,8,0:0:0:0:
402,192,100752,1,8,0:0:0:0:
256,192,100966,1,0,0:0:0:0:
402,192,101073,1,0,0:0:0:0:
182,192,101180,1,2,0:0:0:0:
329,192,101180,1,2,0:0:0:0:
182,192,101395,1,0,0:0:0:0:
256,192,101502,1,0,0:0:0:0:
402,192,101609,1,8,0:0:0:0:
182,192,101609,1,8,0:0:0:0:
329,192,101823,1,0,0:0:0:0:
182,192,101930,1,0,0:0:0:0:
36,192,102038,1,2,0:0:0:0:
402,192,102038,1,2,0:0:0:0:
329,192,102252,1,0,0:0:0:0:
402,192,102359,1,0,0:0:0:0:
475,192,102466,1,8,0:0:0:0:
256,192,102466,1,8,0:0:0:0:
109,192,102680,1,0,0:0:0:0:
36,192,102788,1,0,0:0:0:0:
182,192,102895,1,2,0:0:0:0:
329,192,102895,1,2,0:0:0:0:
475,192,103109,1,0,0:0:0:0:
402,192,103216,1,0,0:0:0:0:
329,192,103323,1,8,0:0:0:0:
109,192,103323,1,8,0:0:0:0:
256,192,103538,1,0,0:0:0:0:
329,192,103645,1,0,0:0:0:0:
182,192,103752,1,2,0:0:0:0:
402,192,103752,1,2,0:0:0:0:
109,192,103966,1,0,0:0:0:0:
182,192,104073,1,0,0:0:0:0:
256,192,104180,1,8,0:0:0:0:
36,192,104180,1,8,0:0:0:0:
256,192,104395,1,0,0:0:0:0:
182,192,104502,1,0,0:0:0:0:
329,192,104609,1,2,0:0:0:0:
109,192,104609,1,2,0:0:0:0:
329,192,104823,1,0,0:0:0:0:
182,192,104930,1,0,0:0:0:0:
109,192,105038,1,8,0:0:0:0:
329,192,105038,1,8,0:0:0:0:
36,192,105252,1,0,0:0:0:0:
329,192,105359,1,0,0:0:0:0:
182,192,105466,1,2,0:0:0:0:
402,192,105466,1,2,0:0:0:0:
182,192,105680,1,0,0:0:0:0:
329,192,105788,1,0,0:0:0:0:
109,192,105895,1,8,0:0:0:0:
256,192,105895,1,8,0:0:0:0:
256,192,106109,1,0,0:0:0:0:
329,192,106216,1,0,0:0:0:0:
182,192,106323,1,2,0:0:0:0:
36,192,106323,1,2,0:0:0:0:
329,192,106538,1,0,0:0:0:0:
402,192,106645,1,0,0:0:0:0:
475,192,106752,1,2,0:0:0:0:
256,192,106752,1,2,0:0:0:0:
182,192,106966,1,0,0:0:0:0:
256,192,107180,1,2,0:0:0:0:
109,192,107180,1,2,0:0:0:0:
402,192,107395,1,0,0:0:0:0:
475,192,107609,1,2,0:0:0:0:
329,192,107609,1,2,0:0:0:0:
109,192,107823,1,0,0:0:0:0:
36,192,108038,1,2,0:0:0:0:
182,192,108038,1,2,0:0:0:0:
329,192,108252,1,0,0:0:0:0:
109,192,108466,1,2,0:0:0:0:
256,192,108466,1,2,0:0:0:0:
402,192,108680,1,0,0:0:0:0:
256,192,108895,1,2,0:0:0:0:
475,192,108895,1,2,0:0:0:0:
329,192,109109,1,0,0:0:0:0:
182,192,109323,1,2,0:0:0:0:
36,192,109323,1,2,0:0:0:0:
109,192,109538,1,0,0:0:0:0:
256,192,109752,1,2,0:0:0:0:
475,192,109752,1,2,0:0:0:0:
182,192,109966,1,0,0:0:0:0:
36,192,110180,1,2,0:0:0:0:
182,192,110180,1,2,0:0:0:0:
256,192,110288,1,0,0:0:0:0:
329,192,110395,1,0,0:0:0:0:
402,192,110502,1,0,0:0:0:0:
475,192,110609,1,2,0:0:0:0:
109,192,110609,1,2,0:0:0:0:
182,192,110716,1,0,0:0:0:0:
109,192,110823,1,0,0:0:0:0:
36,192,110930,1,0,0:0:0:0:
109,192,111038,1,2,0:0:0:0:
329,192,111038,1,2,0:0:0:0:
256,192,111145,1,0,0:0:0:0:
182,192,111252,1,0,0:0:0:0:
182,192,111466,1,2,0:0:0:0:
402,192,111466,1,2,0:0:0:0:
329,192,111573,1,0,0:0:0:0:
256,192,111680,1,0,0:0:0:0:
109,192,111895,1,2,0:0:0:0:
329,192,111895,1,2,0:0:0:0:
182,192,112002,1,0,0:0:0:0:
256,192,112109,1,0,0:0:0:0:
402,192,112323,1,2,0:0:0:0:
182,192,112323,1,0,0:0:0:0:
329,192,112430,1,2,0:0:0:0:
256,192,112538,1,0,0:0:0:0:
182,192,112645,1,0,0:0:0:0:
109,192,112752,1,2,0:0:0:0:
329,192,112752,1,2,0:0:0:0:
256,192,112966,1,0,0:0:0:0:
329,192,113073,1,0,0:0:0:0:
256,192,113180,1,2,0:0:0:0:
182,192,113180,1,2,0:0:0:0:
182,192,113395,1,0,0:0:0:0:
256,192,113502,1,0,0:0:0:0:
329,192,113609,1,8,0:0:0:0:
109,192,113609,1,8,0:0:0:0:
182,192,113823,1,0,0:0:0:0:
109,192,113930,1,0,0:0:0:0:
36,192,114038,1,2,0:0:0:0:
329,192,114038,1,2,0:0:0:0:
182,192,114145,1,0,0:0:0:0:
256,192,114252,1,0,0:0:0:0:
329,192,114359,1,0,0:0:0:0:
402,192,114466,1,8,0:0:0:0:
256,192,114466,1,8,0:0:0:0:
182,192,114680,1,0,0:0:0:0:
109,192,114788,1,0,0:0:0:0:
36,192,114895,1,2,0:0:0:0:
329,192,114895,1,2,0:0:0:0:
329,192,115109,1,0,0:0:0:0:
402,192,115216,1,0,0:0:0:0:
475,192,115323,1,8,0:0:0:0:
256,192,115323,1,8,0:0:0:0:
109,192,115430,1,0,0:0:0:0:
182,192,115538,1,0,0:0:0:0:
402,192,115645,1,0,0:0:0:0:
329,192,115752,1,2,0:0:0:0:
109,192,115752,1,2,0:0:0:0:
182,192,115966,1,0,0:0:0:0:
109,192,116073,1,0,0:0:0:0:
182,192,116180,1,8,0:0:0:0:
256,192,116180,1,8,0:0:0:0:
329,192,116288,1,0,0:0:0:0:
402,192,116395,1,0,0:0:0:0:
329,192,116502,1,0,0:0:0:0:
182,192,116609,1,2,0:0:0:0:
36,192,116609,1,2,0:0:0:0:
256,192,116716,1,0,0:0:0:0:
182,192,116823,1,0,0:0:0:0:
402,192,116930,1,0,0:0:0:0:
109,192,117038,1,8,0:0:0:0:
36,192,117038,1,8,0:0:0:0:
256,192,117252,1,0,0:0:0:0:
329,192,117359,1,0,0:0:0:0:
475,192,117466,1,2,0:0:0:0:
182,192,117466,1,2,0:0:0:0:
109,192,117680,1,0,0:0:0:0:
402,192,117788,1,0,0:0:0:0:
475,192,117895,1,8,0:0:0:0:
329,192,117895,1,8,0:0:0:0:
182,192,118109,1,0,0:0:0:0:
109,192,118216,1,0,0:0:0:0:
475,192,118323,1,2,0:0:0:0:
182,192,118323,1,2,0:0:0:0:
182,192,118538,1,0,0:0:0:0:
109,192,118645,1,0,0:0:0:0:
36,192,118752,1,8,0:0:0:0:
402,192,118752,1,8,0:0:0:0:
329,192,118966,1,0,0:0:0:0:
402,192,119073,1,0,0:0:0:0:
475,192,119180,1,2,0:0:0:0:
329,192,119180,1,2,0:0:0:0:
329,192,119395,1,0,0:0:0:0:
402,192,119502,1,0,0:0:0:0:
256,192,119609,1,8,0:0:0:0:
109,192,119609,1,8,0:0:0:0:
109,192,119823,1,0,0:0:0:0:
36,192,119930,1,0,0:0:0:0:
109,192,120038,1,2,0:0:0:0:
256,192,120038,1,2,0:0:0:0:
329,192,120252,1,0,0:0:0:0:
256,192,120359,1,0,0:0:0:0:
36,192,120466,1,8,0:0:0:0:
402,192,120466,1,8,0:0:0:0:
182,192,120680,1,0,0:0:0:0:
256,192,120788,1,0,0:0:0:0:
329,192,120895,1,2,0:0:0:0:
182,192,120895,1,2,0:0:0:0:
256,192,121109,1,0,0:0:0:0:
402,192,121216,1,0,0:0:0:0:
256,192,121323,1,8,0:0:0:0:
475,192,121323,1,8,0:0:0:0:
36,192,121538,1,0,0:0:0:0:
256,192,121645,1,0,0:0:0:0:
475,192,121752,1,2,0:0:0:0:
329,192,121752,1,2,0:0:0:0:
109,192,121966,1,0,0:0:0:0:
256,192,122073,1,0,0:0:0:0:
329,192,122180,1,8,0:0:0:0:
402,192,122180,1,8,0:0:0:0:
402,192,122395,1,0,0:0:0:0:
109,192,122502,1,0,0:0:0:0:
256,192,122609,1,2,0:0:0:0:
329,192,122609,1,2,0:0:0:0:
109,192,122823,1,0,0:0:0:0:
182,192,122930,1,0,0:0:0:0:
329,192,123038,1,8,0:0:0:0:
475,192,123038,1,8,0:0:0:0:
182,192,123252,1,0,0:0:0:0:
109,192,123359,1,0,0:0:0:0:
182,192,123466,1,2,0:0:0:0:
329,192,123466,1,2,0:0:0:0:
109,192,123680,1,8,0:0:0:0:
256,192,123680,1,0,0:0:0:0:
36,192,123895,1,2,0:0:0:0:
182,192,123895,1,0,0:0:0:0:
256,192,124109,1,8,0:0:0:0:
109,192,124109,1,0,0:0:0:0:
402,192,124323,1,0,0:0:0:0:
256,192,124323,1,0,0:0:0:0:
182,192,124538,1,8,0:0:0:0:
329,192,124538,1,0,0:0:0:0:
256,192,124752,1,2,0:0:0:0:
109,192,124752,1,2,0:0:0:0:
36,192,124859,1,2,0:0:0:0:
182,192,124859,1,2,0:0:0:0:
329,192,124966,1,2,0:0:0:0:
475,192,124966,1,2,0:0:0:0:
256,192,125073,1,2,0:0:0:0:
402,192,125073,1,2,0:0:0:0:
329,192,125180,128,0,127752:0:0:0:0:
36,192,125180,128,0,129466:0:0:0:0:
475,192,125180,128,0,126895:0:0:0:0:
182,192,125180,128,0,128609:0:0:0:0:
