osu file format v14

[General]
AudioFilename: O2Jam - Electro Fantasy.mp3
AudioLeadIn: 0
PreviewTime: 13353
Countdown: 0
SampleSet: None
StackLeniency: 0.7
Mode: 3
LetterboxInBreaks: 0
SpecialStyle: 0
WidescreenStoryboard: 1

[Editor]
DistanceSpacing: 0.8
BeatDivisor: 4
GridSize: 8
TimelineZoom: 2.799999

[Metadata]
Title:Electro Fantasy
TitleUnicode:Electro Fantasy
Artist:BeautifulDay
ArtistUnicode:BeautifulDay
Creator:Neiji Razuiya
Version:BLACK SHD
Source:O2Jam
Tags:electronic ishimaru94
BeatmapID:849208
BeatmapSetID:162693

[Difficulty]
HPDrainRate:8
CircleSize:7
OverallDifficulty:8
ApproachRate:5
SliderMultiplier:1.7
SliderTickRate:1

[Events]
//Background and Video events
0,0,"75digital-abstraction02-m269.jpg",0,0
//Break Periods
//Storyboard Layer 0 (Background)
//Storyboard Layer 1 (Fail)
//Storyboard Layer 2 (Pass)
//Storyboard Layer 3 (Foreground)
//Storyboard Sound Samples
Sample,27469,0,"soft-hitwhistle.ogg",70
Sample,28752,0,"soft-hitclap.ogg",70

[TimingPoints]
38,428.571428571429,4,2,1,56,1,0
13751,-100,4,2,1,56,0,1
27460,-100,4,2,1,56,0,0
48038,-100,4,2,1,50,0,1
65180,-100,4,2,1,50,0,0
68609,-28.5714285714286,4,2,1,100,0,0
68823,-100,4,1,0,100,0,0
69038,-28.5714285714286,4,2,1,100,0,0
69252,-100,4,1,0,100,0,0
69466,-28.5714285714286,4,2,1,100,0,0
69680,-100,4,1,0,100,0,0
69895,-28.5714285714286,4,2,1,100,0,0
70109,-100,4,1,0,100,0,0
70323,-28.5714285714286,4,2,1,100,0,0
70538,-100,4,1,0,100,0,0
70752,-28.5714285714286,4,2,1,100,0,0
70966,-100,4,1,0,100,0,0
71180,-28.5714285714286,4,2,1,100,0,0
71395,-100,4,1,0,100,0,0
71609,-28.5714285714286,4,2,1,100,0,0
71823,-100,4,2,1,100,0,0
125180,-100,4,1,0,8,0,0

[HitObjects]
36,192,38,5,0,0:0:0:0:
182,192,38,1,0,0:0:0:0:
402,192,145,1,0,0:0:0:0:
256,192,252,1,0,0:0:0:0:
109,192,359,1,0,0:0:0:0:
329,192,466,1,0,0:0:0:0:
182,192,573,1,0,0:0:0:0:
475,192,680,1,0,0:0:0:0:
329,192,788,1,0,0:0:0:0:
36,192,895,1,0,0:0:0:0:
182,192,895,1,0,0:0:0:0:
256,192,1002,1,0,0:0:0:0:
109,192,1109,1,0,0:0:0:0:
475,192,1109,1,0,0:0:0:0:
329,192,1216,1,0,0:0:0:0:
182,192,1323,1,0,0:0:0:0:
475,192,1430,1,0,0:0:0:0:
402,192,1538,1,0,0:0:0:0:
109,192,1538,1,0,0:0:0:0:
36,192,1645,1,0,0:0:0:0:
182,192,1752,1,0,0:0:0:0:
109,192,1859,1,0,0:0:0:0:
475,192,1859,1,0,0:0:0:0:
402,192,1966,1,0,0:0:0:0:
256,192,2073,1,0,0:0:0:0:
109,192,2073,1,0,0:0:0:0:
36,192,2180,1,0,0:0:0:0:
329,192,2180,1,0,0:0:0:0:
475,192,2288,1,0,0:0:0:0:
329,192,2395,1,0,0:0:0:0:
182,192,2395,1,0,0:0:0:0:
109,192,2502,1,0,0:0:0:0:
182,192,2609,1,0,0:0:0:0:
36,192,2609,1,0,0:0:0:0:
402,192,2716,1,0,0:0:0:0:
36,192,2823,1,0,0:0:0:0:
256,192,2930,1,0,0:0:0:0:
475,192,2930,1,0,0:0:0:0:
109,192,3038,1,0,0:0:0:0:
475,192,3145,1,0,0:0:0:0:
182,192,3145,1,0,0:0:0:0:
329,192,3252,1,0,0:0:0:0:
109,192,3359,1,0,0:0:0:0:
475,192,3466,1,0,0:0:0:0:
36,192,3466,1,0,0:0:0:0:
256,192,3466,1,0,0:0:0:0:
182,192,3573,1,0,0:0:0:0:
402,192,3680,1,0,0:0:0:0:
109,192,3680,1,0,0:0:0:0:
36,192,3788,1,0,0:0:0:0:
256,192,3895,1,0,0:0:0:0:
329,192,3895,1,0,0:0:0:0:
475,192,3895,1,0,0:0:0:0:
109,192,4002,1,0,0:0:0:0:
402,192,4109,1,0,0:0:0:0:
36,192,4109,1,0,0:0:0:0:
475,192,4109,1,0,0:0:0:0:
182,192,4216,1,0,0:0:0:0:
329,192,4216,1,0,0:0:0:0:
475,192,4323,1,0,0:0:0:0:
109,192,4323,1,0,0:0:0:0:
36,192,4430,1,0,0:0:0:0:
402,192,4430,1,0,0:0:0:0:
329,192,4538,1,0,0:0:0:0:
182,192,4538,1,0,0:0:0:0:
256,192,4538,1,0,0:0:0:0:
109,192,4645,1,0,0:0:0:0:
402,192,4645,1,0,0:0:0:0:
475,192,4752,1,0,0:0:0:0:
36,192,4752,1,0,0:0:0:0:
256,192,4859,1,0,0:0:0:0:
36,192,4966,1,0,0:0:0:0:
402,192,5073,1,0,0:0:0:0:
182,192,5180,1,0,0:0:0:0:
475,192,5288,1,0,0:0:0:0:
109,192,5395,1,0,0:0:0:0:
402,192,5395,1,0,0:0:0:0:
329,192,5502,1,0,0:0:0:0:
36,192,5502,1,0,0:0:0:0:
475,192,5609,1,0,0:0:0:0:
182,192,5609,1,0,0:0:0:0:
109,192,5716,1,0,0:0:0:0:
402,192,5823,1,0,0:0:0:0:
256,192,5930,1,0,0:0:0:0:
36,192,5930,1,0,0:0:0:0:
329,192,6038,1,0,0:0:0:0:
475,192,6145,1,0,0:0:0:0:
109,192,6145,1,0,0:0:0:0:
256,192,6252,1,0,0:0:0:0:
109,192,6359,1,0,0:0:0:0:
329,192,6359,1,0,0:0:0:0:
402,192,6466,128,0,7966:0:0:0:0:
182,192,6573,1,0,0:0:0:0:
475,192,6680,1,0,0:0:0:0:
36,192,6680,1,0,0:0:0:0:
109,192,6788,1,0,0:0:0:0:
256,192,6895,1,0,0:0:0:0:
475,192,7002,1,0,0:0:0:0:
36,192,7002,1,0,0:0:0:0:
182,192,7109,1,0,0:0:0:0:
329,192,7216,1,0,0:0:0:0:
109,192,7323,1,0,0:0:0:0:
256,192,7430,1,0,0:0:0:0:
36,192,7538,1,0,0:0:0:0:
475,192,7645,1,0,0:0:0:0:
182,192,7752,1,0,0:0:0:0:
475,192,7859,1,0,0:0:0:0:
36,192,7859,1,0,0:0:0:0:
329,192,7966,128,0,10323:0:0:0:0:
256,192,7966,1,0,0:0:0:0:
109,192,8073,1,0,0:0:0:0:
402,192,8180,1,0,0:0:0:0:
36,192,8288,1,0,0:0:0:0:
256,192,8395,1,0,0:0:0:0:
475,192,8395,1,0,0:0:0:0:
109,192,8502,1,0,0:0:0:0:
475,192,8609,1,0,0:0:0:0:
182,192,8716,1,0,0:0:0:0:
36,192,8823,1,0,0:0:0:0:
402,192,8823,1,0,0:0:0:0:
475,192,8930,1,0,0:0:0:0:
109,192,9038,1,0,0:0:0:0:
402,192,9145,1,0,0:0:0:0:
36,192,9252,1,0,0:0:0:0:
256,192,9252,1,0,0:0:0:0:
182,192,9359,1,0,0:0:0:0:
475,192,9466,1,0,0:0:0:0:
36,192,9573,1,0,0:0:0:0:
402,192,9680,1,0,0:0:0:0:
109,192,9788,1,0,0:0:0:0:
475,192,9895,1,0,0:0:0:0:
182,192,9895,1,0,0:0:0:0:
402,192,10002,1,0,0:0:0:0:
36,192,10002,1,0,0:0:0:0:
256,192,10109,1,0,0:0:0:0:
109,192,10216,1,0,0:0:0:0:
256,192,10323,128,0,11609:0:0:0:0:
182,192,10323,1,0,0:0:0:0:
402,192,10323,1,0,0:0:0:0:
475,192,10430,1,0,0:0:0:0:
402,192,10538,1,0,0:0:0:0:
36,192,10538,1,0,0:0:0:0:
109,192,10645,1,0,0:0:0:0:
475,192,10752,1,0,0:0:0:0:
329,192,10752,1,0,0:0:0:0:
182,192,10859,1,0,0:0:0:0:
36,192,10966,1,0,0:0:0:0:
329,192,11073,1,0,0:0:0:0:
475,192,11180,1,0,0:0:0:0:
182,192,11180,1,0,0:0:0:0:
109,192,11288,1,0,0:0:0:0:
402,192,11395,1,0,0:0:0:0:
329,192,11502,1,0,0:0:0:0:
182,192,11609,128,0,12895:0:0:0:0:
475,192,11609,1,0,0:0:0:0:
402,192,11716,1,0,0:0:0:0:
36,192,11716,1,0,0:0:0:0:
109,192,11823,1,0,0:0:0:0:
329,192,11930,1,0,0:0:0:0:
36,192,12038,1,0,0:0:0:0:
402,192,12145,1,0,0:0:0:0:
109,192,12252,1,0,0:0:0:0:
475,192,12252,1,0,0:0:0:0:
402,192,12359,1,0,0:0:0:0:
329,192,12466,1,0,0:0:0:0:
109,192,12466,1,0,0:0:0:0:
475,192,12573,1,0,0:0:0:0:
256,192,12573,1,0,0:0:0:0:
36,192,12573,1,0,0:0:0:0:
402,192,12680,1,0,0:0:0:0:
329,192,12788,1,0,0:0:0:0:
109,192,12895,1,0,0:0:0:0:
36,192,12895,1,0,0:0:0:0:
256,192,12895,1,0,0:0:0:0:
109,192,13002,1,0,0:0:0:0:
36,192,13002,1,0,0:0:0:0:
109,192,13109,1,0,0:0:0:0:
36,192,13109,1,0,0:0:0:0:
256,192,13216,1,0,0:0:0:0:
329,192,13216,1,0,0:0:0:0:
402,192,13216,1,0,0:0:0:0:
475,192,13216,1,0,0:0:0:0:
182,192,13216,1,0,0:0:0:0:
182,192,13323,1,0,0:0:0:0:
182,192,13430,1,0,0:0:0:0:
182,192,13538,1,0,0:0:0:0:
256,192,13645,1,0,0:0:0:0:
475,192,13645,1,0,0:0:0:0:
329,192,13645,1,0,0:0:0:0:
109,192,13645,1,0,0:0:0:0:
36,192,13645,1,0,0:0:0:0:
256,192,13752,1,4,0:0:0:0:
329,192,13752,1,0,0:0:0:0:
475,192,13752,1,0,0:0:0:0:
182,192,13752,1,4,0:0:0:0:
109,192,13752,1,0,0:0:0:0:
36,192,13752,1,0,0:0:0:0:
402,192,13859,128,0,13966:0:0:0:0:
329,192,13966,128,0,14073:0:0:0:0:
36,192,13966,1,0,0:0:0:0:
182,192,14073,128,0,14180:0:0:0:0:
475,192,14073,1,0,0:0:0:0:
256,192,14180,128,0,14288:0:0:0:0:
109,192,14180,1,0,0:0:0:0:
402,192,14288,128,0,14395:0:0:0:0:
36,192,14288,1,0,0:0:0:0:
109,192,14395,128,0,14502:0:0:0:0:
475,192,14395,1,0,0:0:0:0:
182,192,14502,128,0,14609:0:0:0:0:
329,192,14502,1,0,0:0:0:0:
256,192,14609,128,0,14716:0:0:0:0:
36,192,14609,1,0,0:0:0:0:
329,192,14716,128,0,14823:0:0:0:0:
109,192,14716,1,0,0:0:0:0:
182,192,14823,128,0,14930:0:0:0:0:
475,192,14823,1,0,0:0:0:0:
256,192,14930,128,0,15038:0:0:0:0:
109,192,14930,1,0,0:0:0:0:
402,192,15038,128,0,15145:0:0:0:0:
475,192,15038,1,0,0:0:0:0:
36,192,15038,1,0,0:0:0:0:
329,192,15145,128,0,15252:0:0:0:0:
109,192,15145,1,0,0:0:0:0:
182,192,15252,128,0,15359:0:0:0:0:
256,192,15252,1,0,0:0:0:0:
475,192,15359,128,0,15573:0:0:0:0:
109,192,15359,1,0,0:0:0:0:
402,192,15466,1,0,0:0:0:0:
109,192,15573,128,0,15680:0:0:0:0:
182,192,15680,128,0,15788:0:0:0:0:
402,192,15680,1,0,0:0:0:0:
36,192,15680,1,0,0:0:0:0:
329,192,15788,128,0,15895:0:0:0:0:
475,192,15788,1,0,0:0:0:0:
256,192,15895,128,0,16002:0:0:0:0:
402,192,15895,1,0,0:0:0:0:
36,192,15895,1,0,0:0:0:0:
109,192,16002,128,0,16109:0:0:0:0:
475,192,16002,1,0,0:0:0:0:
402,192,16109,1,0,0:0:0:0:
182,192,16109,1,0,0:0:0:0:
256,192,16216,128,0,16323:0:0:0:0:
36,192,16216,1,0,0:0:0:0:
329,192,16323,128,0,16430:0:0:0:0:
109,192,16323,1,0,0:0:0:0:
402,192,16430,128,0,16538:0:0:0:0:
182,192,16430,1,0,0:0:0:0:
109,192,16538,128,0,16645:0:0:0:0:
475,192,16538,1,0,0:0:0:0:
256,192,16645,128,0,16752:0:0:0:0:
329,192,16645,1,0,0:0:0:0:
36,192,16645,1,0,0:0:0:0:
182,192,16752,128,0,16859:0:0:0:0:
475,192,16752,1,0,0:0:0:0:
36,192,16859,128,0,16966:0:0:0:0:
402,192,16859,1,0,0:0:0:0:
109,192,16966,128,0,17073:0:0:0:0:
256,192,16966,1,0,0:0:0:0:
329,192,17073,128,0,17288:0:0:0:0:
475,192,17073,1,0,0:0:0:0:
36,192,17180,1,0,0:0:0:0:
182,192,17288,128,0,17395:0:0:0:0:
109,192,17288,1,0,0:0:0:0:
256,192,17395,128,0,17502:0:0:0:0:
475,192,17395,1,0,0:0:0:0:
329,192,17502,128,0,17609:0:0:0:0:
402,192,17502,1,0,0:0:0:0:
402,192,17609,128,0,17716:0:0:0:0:
109,192,17609,1,0,0:0:0:0:
182,192,17716,128,0,17823:0:0:0:0:
36,192,17716,1,0,0:0:0:0:
256,192,17823,128,0,17930:0:0:0:0:
329,192,17823,1,0,0:0:0:0:
475,192,17930,128,0,18038:0:0:0:0:
109,192,17930,1,0,0:0:0:0:
402,192,18038,128,0,18145:0:0:0:0:
36,192,18038,1,0,0:0:0:0:
329,192,18145,128,0,18252:0:0:0:0:
182,192,18145,1,0,0:0:0:0:
256,192,18252,128,0,18359:0:0:0:0:
36,192,18252,1,0,0:0:0:0:
109,192,18252,1,0,0:0:0:0:
475,192,18252,1,0,0:0:0:0:
182,192,18359,128,0,18466:0:0:0:0:
402,192,18359,1,0,0:0:0:0:
36,192,18466,128,0,18573:0:0:0:0:
329,192,18466,1,0,0:0:0:0:
475,192,18466,1,0,0:0:0:0:
256,192,18573,128,0,18680:0:0:0:0:
402,192,18573,1,0,0:0:0:0:
109,192,18573,1,0,0:0:0:0:
182,192,18680,128,0,18788:0:0:0:0:
329,192,18680,1,0,0:0:0:0:
475,192,18680,1,0,0:0:0:0:
109,192,18788,128,0,18895:0:0:0:0:
402,192,18788,1,0,0:0:0:0:
329,192,18895,128,0,19002:0:0:0:0:
475,192,18895,1,0,0:0:0:0:
36,192,18895,1,0,0:0:0:0:
256,192,19002,128,0,19109:0:0:0:0:
402,192,19002,1,0,0:0:0:0:
182,192,19109,128,0,19216:0:0:0:0:
36,192,19109,1,0,0:0:0:0:
109,192,19216,128,0,19323:0:0:0:0:
402,192,19216,1,0,0:0:0:0:
329,192,19323,128,0,19430:0:0:0:0:
475,192,19323,1,0,0:0:0:0:
256,192,19430,128,0,19538:0:0:0:0:
36,192,19430,1,0,0:0:0:0:
402,192,19538,128,0,19645:0:0:0:0:
109,192,19538,1,0,0:0:0:0:
329,192,19645,128,0,19752:0:0:0:0:
475,192,19645,1,0,0:0:0:0:
182,192,19752,128,0,19859:0:0:0:0:
36,192,19752,1,0,0:0:0:0:
402,192,19859,128,0,19966:0:0:0:0:
475,192,19859,1,0,0:0:0:0:
256,192,19966,128,0,20073:0:0:0:0:
329,192,19966,1,0,0:0:0:0:
329,192,20073,128,0,20180:0:0:0:0:
475,192,20073,1,0,0:0:0:0:
182,192,20180,128,0,20288:0:0:0:0:
36,192,20180,1,0,0:0:0:0:
109,192,20288,128,0,20395:0:0:0:0:
402,192,20288,1,0,0:0:0:0:
256,192,20395,128,0,20502:0:0:0:0:
475,192,20395,1,0,0:0:0:0:
329,192,20395,1,0,0:0:0:0:
36,192,20502,128,0,20609:0:0:0:0:
109,192,20609,128,0,20716:0:0:0:0:
329,192,20609,1,0,0:0:0:0:
402,192,20609,1,0,0:0:0:0:
475,192,20609,1,0,0:0:0:0:
256,192,20716,128,0,20823:0:0:0:0:
475,192,20716,1,0,0:0:0:0:
182,192,20823,128,0,20930:0:0:0:0:
329,192,20823,1,0,0:0:0:0:
402,192,20823,1,0,0:0:0:0:
36,192,20930,128,0,21038:0:0:0:0:
475,192,20930,1,0,0:0:0:0:
256,192,21038,128,0,21145:0:0:0:0:
329,192,21038,1,0,0:0:0:0:
109,192,21145,128,0,21252:0:0:0:0:
182,192,21145,1,0,0:0:0:0:
402,192,21252,128,0,21359:0:0:0:0:
36,192,21252,1,0,0:0:0:0:
475,192,21252,1,0,0:0:0:0:
329,192,21359,128,0,21466:0:0:0:0:
256,192,21359,1,0,0:0:0:0:
182,192,21466,128,0,21573:0:0:0:0:
109,192,21466,1,0,0:0:0:0:
256,192,21573,128,0,21680:0:0:0:0:
402,192,21573,1,0,0:0:0:0:
36,192,21680,128,0,21788:0:0:0:0:
475,192,21680,1,0,0:0:0:0:
109,192,21680,1,0,0:0:0:0:
329,192,21788,128,0,21895:0:0:0:0:
182,192,21788,1,0,0:0:0:0:
182,192,21895,128,0,22002:0:0:0:0:
402,192,21895,1,0,0:0:0:0:
256,192,22002,128,0,22109:0:0:0:0:
36,192,22002,1,0,0:0:0:0:
475,192,22002,1,0,0:0:0:0:
109,192,22109,128,0,22216:0:0:0:0:
329,192,22109,1,0,0:0:0:0:
402,192,22216,128,0,22430:0:0:0:0:
475,192,22216,1,0,0:0:0:0:
182,192,22323,1,0,0:0:0:0:
256,192,22430,128,0,22538:0:0:0:0:
36,192,22430,1,0,0:0:0:0:
182,192,22538,128,0,22645:0:0:0:0:
475,192,22538,1,0,0:0:0:0:
329,192,22645,128,0,22752:0:0:0:0:
109,192,22752,128,0,22859:0:0:0:0:
256,192,22752,1,0,0:0:0:0:
36,192,22859,128,0,22966:0:0:0:0:
402,192,22859,1,0,0:0:0:0:
256,192,22966,128,0,23073:0:0:0:0:
182,192,22966,1,0,0:0:0:0:
329,192,23073,128,0,23180:0:0:0:0:
475,192,23073,1,0,0:0:0:0:
109,192,23073,1,0,0:0:0:0:
182,192,23180,128,0,23288:0:0:0:0:
36,192,23180,1,0,0:0:0:0:
109,192,23288,128,0,23395:0:0:0:0:
402,192,23288,1,0,0:0:0:0:
256,192,23395,128,0,23502:0:0:0:0:
475,192,23395,1,0,0:0:0:0:
36,192,23502,128,0,23609:0:0:0:0:
329,192,23502,1,0,0:0:0:0:
402,192,23609,128,0,23716:0:0:0:0:
109,192,23609,1,0,0:0:0:0:
182,192,23716,128,0,23823:0:0:0:0:
256,192,23716,1,0,0:0:0:0:
109,192,23823,128,0,23930:0:0:0:0:
475,192,23823,1,0,0:0:0:0:
329,192,23930,128,0,24038:0:0:0:0:
402,192,23930,1,0,0:0:0:0:
256,192,23930,1,0,0:0:0:0:
182,192,24038,128,0,24145:0:0:0:0:
36,192,24038,1,0,0:0:0:0:
256,192,24145,128,0,24252:0:0:0:0:
109,192,24145,1,0,0:0:0:0:
402,192,24252,128,0,24359:0:0:0:0:
475,192,24252,1,0,0:0:0:0:
109,192,24359,128,0,24466:0:0:0:0:
329,192,24359,1,0,0:0:0:0:
182,192,24466,128,0,24573:0:0:0:0:
475,192,24466,1,0,0:0:0:0:
36,192,24466,1,0,0:0:0:0:
329,192,24573,128,0,24680:0:0:0:0:
256,192,24680,128,0,24788:0:0:0:0:
109,192,24680,1,0,0:0:0:0:
402,192,24788,128,0,24895:0:0:0:0:
36,192,24788,1,0,0:0:0:0:
182,192,24895,128,0,25002:0:0:0:0:
475,192,24895,1,0,0:0:0:0:
475,192,25002,128,0,25109:0:0:0:0:
109,192,25002,1,0,0:0:0:0:
256,192,25109,128,0,25216:0:0:0:0:
329,192,25109,1,0,0:0:0:0:
402,192,25216,128,0,25323:0:0:0:0:
182,192,25216,1,0,0:0:0:0:
329,192,25323,128,0,25430:0:0:0:0:
109,192,25323,1,0,0:0:0:0:
36,192,25323,1,0,0:0:0:0:
182,192,25430,128,0,25538:0:0:0:0:
475,192,25430,1,0,0:0:0:0:
402,192,25538,128,0,25645:0:0:0:0:
256,192,25538,1,0,0:0:0:0:
256,192,25645,128,0,25752:0:0:0:0:
36,192,25645,1,0,0:0:0:0:
109,192,25752,128,0,25859:0:0:0:0:
329,192,25752,1,0,0:0:0:0:
475,192,25752,1,0,0:0:0:0:
182,192,25752,1,0,0:0:0:0:
329,192,25859,128,0,25966:0:0:0:0:
36,192,25859,1,0,0:0:0:0:
402,192,25966,128,0,26073:0:0:0:0:
256,192,25966,1,0,0:0:0:0:
182,192,26073,128,0,26180:0:0:0:0:
109,192,26073,1,0,0:0:0:0:
256,192,26180,128,0,26288:0:0:0:0:
36,192,26180,1,0,0:0:0:0:
475,192,26180,1,0,0:0:0:0:
329,192,26180,1,0,0:0:0:0:
109,192,26288,128,0,26395:0:0:0:0:
402,192,26288,1,0,0:0:0:0:
182,192,26395,128,0,26502:0:0:0:0:
329,192,26395,1,0,0:0:0:0:
402,192,26502,128,0,26609:0:0:0:0:
256,192,26502,1,0,0:0:0:0:
329,192,26609,128,0,26716:0:0:0:0:
36,192,26609,1,0,0:0:0:0:
475,192,26609,1,0,0:0:0:0:
109,192,26716,128,0,26823:0:0:0:0:
256,192,26716,1,0,0:0:0:0:
182,192,26823,128,0,26930:0:0:0:0:
402,192,26823,1,0,0:0:0:0:
36,192,26930,128,0,27038:0:0:0:0:
475,192,26930,1,0,0:0:0:0:
329,192,26930,1,0,0:0:0:0:
256,192,27038,128,0,27145:0:0:0:0:
402,192,27038,1,0,0:0:0:0:
182,192,27145,128,0,27252:0:0:0:0:
475,192,27145,1,0,0:0:0:0:
329,192,27252,128,0,27359:0:0:0:0:
36,192,27252,1,0,0:0:0:0:
109,192,27359,128,0,27466:0:0:0:0:
402,192,27359,1,0,0:0:0:0:
182,192,27466,128,0,27895:0:0:0:0:
256,192,27466,1,4,0:0:0:0:
36,192,27466,1,0,0:0:0:0:
402,192,27466,1,0,0:0:0:0:
475,192,27466,1,0,0:0:0:0:
329,192,27680,1,0,0:0:0:0:
402,192,27788,1,0,0:0:0:0:
109,192,27895,128,0,28323:0:0:0:0:
36,192,27895,1,0,0:0:0:0:
475,192,27895,1,0,0:0:0:0:
329,192,28109,1,0,0:0:0:0:
256,192,28216,1,0,0:0:0:0:
329,192,28323,128,0,28752:0:0:0:0:
182,192,28323,1,0,0:0:0:0:
36,192,28323,1,0,0:0:0:0:
475,192,28323,1,0,0:0:0:0:
256,192,28752,128,0,29180:0:0:0:0:
402,192,28752,1,0,0:0:0:0:
182,192,28752,1,0,0:0:0:0:
475,192,28752,1,0,0:0:0:0:
109,192,28752,1,0,0:0:0:0:
36,192,28966,1,0,0:0:0:0:
329,192,29073,1,0,0:0:0:0:
109,192,29180,128,0,29609:0:0:0:0:
402,192,29180,128,0,29609:0:0:0:0:
182,192,29180,1,0,0:0:0:0:
475,192,29288,1,0,0:0:0:0:
36,192,29288,1,0,0:0:0:0:
182,192,29395,1,0,0:0:0:0:
36,192,29502,1,0,0:0:0:0:
182,192,29609,128,0,30038:0:0:0:0:
329,192,29609,128,0,30038:0:0:0:0:
475,192,29609,1,0,0:0:0:0:
256,192,29716,1,0,0:0:0:0:
109,192,29823,1,0,0:0:0:0:
402,192,29930,1,0,0:0:0:0:
256,192,30038,128,0,30466:0:0:0:0:
36,192,30038,1,0,0:0:0:0:
402,192,30145,1,0,0:0:0:0:
109,192,30252,1,0,0:0:0:0:
182,192,30359,1,0,0:0:0:0:
36,192,30466,128,0,30895:0:0:0:0:
329,192,30466,1,0,0:0:0:0:
402,192,30466,1,0,0:0:0:0:
475,192,30466,1,0,0:0:0:0:
109,192,30466,1,0,0:0:0:0:
182,192,30573,1,0,0:0:0:0:
329,192,30680,1,0,0:0:0:0:
402,192,30680,1,0,0:0:0:0:
109,192,30680,1,0,0:0:0:0:
256,192,30788,1,0,0:0:0:0:
402,192,30895,128,0,31323:0:0:0:0:
329,192,30895,1,0,0:0:0:0:
109,192,30895,1,0,0:0:0:0:
182,192,30895,1,0,0:0:0:0:
475,192,30895,1,0,0:0:0:0:
256,192,31109,1,0,0:0:0:0:
182,192,31216,1,0,0:0:0:0:
329,192,31323,128,0,31752:0:0:0:0:
109,192,31323,1,0,0:0:0:0:
36,192,31323,1,0,0:0:0:0:
475,192,31323,1,0,0:0:0:0:
182,192,31538,1,0,0:0:0:0:
475,192,31645,1,0,0:0:0:0:
109,192,31752,128,0,32180:0:0:0:0:
402,192,31752,1,0,0:0:0:0:
256,192,31752,1,0,0:0:0:0:
36,192,31752,1,0,0:0:0:0:
182,192,31966,1,0,0:0:0:0:
256,192,32073,1,0,0:0:0:0:
182,192,32180,128,0,32609:0:0:0:0:
329,192,32180,1,0,0:0:0:0:
475,192,32395,1,0,0:0:0:0:
256,192,32395,1,0,0:0:0:0:
109,192,32395,1,0,0:0:0:0:
402,192,32502,1,0,0:0:0:0:
329,192,32609,1,0,0:0:0:0:
109,192,32609,1,0,0:0:0:0:
36,192,32609,1,0,0:0:0:0:
256,192,32609,128,0,33038:0:0:0:0:
402,192,32823,1,0,0:0:0:0:
109,192,32930,1,0,0:0:0:0:
182,192,33038,128,0,33466:0:0:0:0:
475,192,33038,1,0,0:0:0:0:
36,192,33145,1,0,0:0:0:0:
329,192,33252,1,0,0:0:0:0:
109,192,33359,1,0,0:0:0:0:
36,192,33466,128,0,33895:0:0:0:0:
402,192,33466,1,0,0:0:0:0:
475,192,33466,128,0,33895:0:0:0:0:
256,192,33573,1,0,0:0:0:0:
109,192,33680,1,0,0:0:0:0:
402,192,33788,1,0,0:0:0:0:
329,192,33895,128,0,34323:0:0:0:0:
182,192,33895,128,0,34323:0:0:0:0:
256,192,33895,1,0,0:0:0:0:
109,192,34002,1,0,0:0:0:0:
475,192,34109,1,0,0:0:0:0:
256,192,34109,1,0,0:0:0:0:
36,192,34109,1,0,0:0:0:0:
256,192,34216,1,0,0:0:0:0:
256,192,34323,128,0,34752:0:0:0:0:
109,192,34323,128,0,34752:0:0:0:0:
402,192,34323,128,0,34752:0:0:0:0:
475,192,34323,1,0,0:0:0:0:
36,192,34323,1,0,0:0:0:0:
329,192,34538,1,0,0:0:0:0:
182,192,34538,1,0,0:0:0:0:
475,192,34752,128,0,35180:0:0:0:0:
36,192,34752,128,0,35180:0:0:0:0:
182,192,34752,1,0,0:0:0:0:
329,192,34752,1,0,0:0:0:0:
256,192,34966,1,0,0:0:0:0:
182,192,35073,1,0,0:0:0:0:
256,192,35180,128,0,35609:0:0:0:0:
109,192,35180,1,0,0:0:0:0:
329,192,35180,1,0,0:0:0:0:
402,192,35180,1,0,0:0:0:0:
329,192,35395,1,0,0:0:0:0:
402,192,35502,1,0,0:0:0:0:
182,192,35609,128,0,36038:0:0:0:0:
109,192,35609,1,0,0:0:0:0:
475,192,35609,1,0,0:0:0:0:
36,192,35609,1,0,0:0:0:0:
329,192,35823,1,0,0:0:0:0:
475,192,35930,1,0,0:0:0:0:
36,192,36038,128,0,36466:0:0:0:0:
109,192,36038,1,0,0:0:0:0:
329,192,36038,1,0,0:0:0:0:
256,192,36038,1,0,0:0:0:0:
256,192,36252,1,0,0:0:0:0:
182,192,36359,1,0,0:0:0:0:
329,192,36466,128,0,36895:0:0:0:0:
256,192,36466,1,0,0:0:0:0:
109,192,36466,1,0,0:0:0:0:
402,192,36466,1,0,0:0:0:0:
475,192,36466,1,0,0:0:0:0:
475,192,36680,1,0,0:0:0:0:
182,192,36788,1,0,0:0:0:0:
256,192,36895,128,0,37323:0:0:0:0:
402,192,36895,1,0,0:0:0:0:
109,192,37002,1,0,0:0:0:0:
475,192,37109,1,0,0:0:0:0:
36,192,37216,1,0,0:0:0:0:
109,192,37323,128,0,37752:0:0:0:0:
182,192,37323,1,0,0:0:0:0:
402,192,37430,1,0,0:0:0:0:
329,192,37538,1,0,0:0:0:0:
256,192,37538,1,0,0:0:0:0:
36,192,37538,1,0,0:0:0:0:
475,192,37538,1,0,0:0:0:0:
402,192,37645,1,0,0:0:0:0:
182,192,37752,128,0,38180:0:0:0:0:
256,192,37752,1,0,0:0:0:0:
329,192,37752,1,0,0:0:0:0:
36,192,37752,1,0,0:0:0:0:
475,192,37752,1,0,0:0:0:0:
402,192,37966,1,0,0:0:0:0:
329,192,38073,1,0,0:0:0:0:
402,192,38180,128,0,38609:0:0:0:0:
109,192,38180,1,0,0:0:0:0:
36,192,38180,1,0,0:0:0:0:
475,192,38180,1,0,0:0:0:0:
182,192,38395,1,0,0:0:0:0:
256,192,38502,1,0,0:0:0:0:
109,192,38609,128,0,39038:0:0:0:0:
36,192,38609,1,0,0:0:0:0:
329,192,38609,1,0,0:0:0:0:
475,192,38609,1,0,0:0:0:0:
256,192,38823,128,0,38930:0:0:0:0:
329,192,38930,128,0,39038:0:0:0:0:
36,192,39038,128,0,39466:0:0:0:0:
402,192,39038,128,0,39145:0:0:0:0:
182,192,39145,128,0,39252:0:0:0:0:
475,192,39252,128,0,39359:0:0:0:0:
256,192,39359,128,0,39466:0:0:0:0:
182,192,39466,128,0,39895:0:0:0:0:
402,192,39466,128,0,39573:0:0:0:0:
329,192,39573,128,0,39680:0:0:0:0:
109,192,39680,128,0,39788:0:0:0:0:
475,192,39788,128,0,39895:0:0:0:0:
329,192,39895,128,0,40002:0:0:0:0:
109,192,40002,128,0,40109:0:0:0:0:
36,192,40109,128,0,40216:0:0:0:0:
256,192,40216,128,0,40323:0:0:0:0:
109,192,40323,128,0,40430:0:0:0:0:
182,192,40430,128,0,40538:0:0:0:0:
329,192,40538,128,0,40645:0:0:0:0:
256,192,40645,128,0,40752:0:0:0:0:
109,192,40752,128,0,40859:0:0:0:0:
329,192,40859,128,0,40966:0:0:0:0:
182,192,40966,128,0,41073:0:0:0:0:
109,192,41073,128,0,41180:0:0:0:0:
256,192,41180,128,0,41288:0:0:0:0:
402,192,41288,128,0,41502:0:0:0:0:
182,192,41288,128,0,41395:0:0:0:0:
475,192,41395,128,0,41502:0:0:0:0:
109,192,41395,128,0,41502:0:0:0:0:
256,192,41502,128,0,41716:0:0:0:0:
36,192,41502,128,0,41609:0:0:0:0:
182,192,41609,128,0,41716:0:0:0:0:
402,192,41716,128,0,41930:0:0:0:0:
109,192,41716,128,0,41823:0:0:0:0:
329,192,41823,128,0,41930:0:0:0:0:
36,192,41823,128,0,41930:0:0:0:0:
182,192,41930,128,0,42145:0:0:0:0:
475,192,41930,128,0,42038:0:0:0:0:
109,192,42038,128,0,42145:0:0:0:0:
402,192,42038,128,0,42145:0:0:0:0:
329,192,42145,128,0,42359:0:0:0:0:
256,192,42145,128,0,42252:0:0:0:0:
402,192,42252,128,0,42359:0:0:0:0:
109,192,42359,128,0,42573:0:0:0:0:
475,192,42359,128,0,42466:0:0:0:0:
36,192,42466,128,0,42573:0:0:0:0:
402,192,42466,128,0,42573:0:0:0:0:
182,192,42573,128,0,42788:0:0:0:0:
329,192,42573,128,0,42680:0:0:0:0:
256,192,42680,128,0,42788:0:0:0:0:
402,192,42788,128,0,43002:0:0:0:0:
109,192,42788,128,0,42895:0:0:0:0:
329,192,42895,128,0,43002:0:0:0:0:
36,192,42895,128,0,43002:0:0:0:0:
256,192,43002,128,0,43216:0:0:0:0:
109,192,43002,128,0,43109:0:0:0:0:
182,192,43109,128,0,43216:0:0:0:0:
475,192,43109,128,0,43216:0:0:0:0:
402,192,43216,128,0,43430:0:0:0:0:
329,192,43323,128,0,43430:0:0:0:0:
109,192,43430,128,0,43645:0:0:0:0:
256,192,43430,128,0,43538:0:0:0:0:
36,192,43538,128,0,43645:0:0:0:0:
182,192,43538,128,0,43645:0:0:0:0:
329,192,43645,128,0,43859:0:0:0:0:
402,192,43645,128,0,43752:0:0:0:0:
256,192,43752,128,0,43859:0:0:0:0:
475,192,43752,128,0,43859:0:0:0:0:
182,192,43859,128,0,44073:0:0:0:0:
109,192,43966,128,0,44073:0:0:0:0:
402,192,43966,128,0,44073:0:0:0:0:
36,192,44073,128,0,44288:0:0:0:0:
329,192,44073,128,0,44180:0:0:0:0:
109,192,44180,128,0,44288:0:0:0:0:
475,192,44180,128,0,44288:0:0:0:0:
256,192,44288,128,0,44502:0:0:0:0:
402,192,44288,128,0,44395:0:0:0:0:
182,192,44395,128,0,44502:0:0:0:0:
36,192,44395,128,0,44502:0:0:0:0:
109,192,44502,128,0,44716:0:0:0:0:
329,192,44502,128,0,44609:0:0:0:0:
36,192,44609,128,0,44716:0:0:0:0:
256,192,44609,128,0,44716:0:0:0:0:
475,192,44716,128,0,44930:0:0:0:0:
329,192,44716,128,0,44823:0:0:0:0:
402,192,44823,128,0,44930:0:0:0:0:
182,192,44823,128,0,44930:0:0:0:0:
36,192,44823,128,0,44930:0:0:0:0:
109,192,44930,128,0,45145:0:0:0:0:
256,192,44930,128,0,45038:0:0:0:0:
182,192,45038,128,0,45145:0:0:0:0:
402,192,45145,128,0,45252:0:0:0:0:
256,192,45252,128,0,45466:0:0:0:0:
329,192,45252,128,0,45359:0:0:0:0:
182,192,45359,128,0,45466:0:0:0:0:
109,192,45466,128,0,45680:0:0:0:0:
402,192,45466,128,0,45573:0:0:0:0:
36,192,45573,128,0,45680:0:0:0:0:
475,192,45573,128,0,45680:0:0:0:0:
256,192,45680,128,0,45895:0:0:0:0:
182,192,45680,128,0,45788:0:0:0:0:
329,192,45788,128,0,45895:0:0:0:0:
109,192,45895,128,0,46109:0:0:0:0:
402,192,45895,128,0,46002:0:0:0:0:
182,192,46002,128,0,46109:0:0:0:0:
475,192,46002,128,0,46109:0:0:0:0:
36,192,46109,128,0,46323:0:0:0:0:
329,192,46109,128,0,46216:0:0:0:0:
109,192,46216,128,0,46323:0:0:0:0:
256,192,46216,128,0,46323:0:0:0:0:
182,192,46323,128,0,46538:0:0:0:0:
402,192,46323,128,0,46430:0:0:0:0:
109,192,46430,128,0,46538:0:0:0:0:
329,192,46538,128,0,46752:0:0:0:0:
36,192,46538,128,0,46645:0:0:0:0:
256,192,46645,128,0,46752:0:0:0:0:
109,192,46752,128,0,46966:0:0:0:0:
402,192,46752,128,0,46859:0:0:0:0:
36,192,46859,128,0,46966:0:0:0:0:
475,192,46859,128,0,46966:0:0:0:0:
182,192,46966,128,0,47180:0:0:0:0:
329,192,46966,128,0,47073:0:0:0:0:
256,192,47073,128,0,47180:0:0:0:0:
402,192,47073,128,0,47180:0:0:0:0:
109,192,47180,128,0,47395:0:0:0:0:
475,192,47180,128,0,47288:0:0:0:0:
36,192,47288,128,0,47395:0:0:0:0:
329,192,47288,128,0,47395:0:0:0:0:
256,192,47395,128,0,47609:0:0:0:0:
402,192,47395,128,0,47502:0:0:0:0:
182,192,47502,128,0,47609:0:0:0:0:
329,192,47502,1,0,0:0:0:0:
36,192,47609,128,0,47823:0:0:0:0:
475,192,47609,128,0,47716:0:0:0:0:
329,192,47609,1,0,0:0:0:0:
109,192,47716,128,0,47823:0:0:0:0:
329,192,47716,128,0,47823:0:0:0:0:
402,192,47716,1,0,0:0:0:0:
256,192,47823,128,0,48038:0:0:0:0:
402,192,47823,128,0,47930:0:0:0:0:
182,192,47930,128,0,48038:0:0:0:0:
36,192,48038,128,0,48145:0:0:0:0:
475,192,48038,1,0,0:0:0:0:
329,192,48038,1,0,0:0:0:0:
109,192,48038,1,0,0:0:0:0:
109,192,48145,128,0,48252:0:0:0:0:
402,192,48145,1,0,0:0:0:0:
182,192,48252,128,0,48359:0:0:0:0:
256,192,48252,1,0,0:0:0:0:
329,192,48252,1,0,0:0:0:0:
475,192,48252,1,0,0:0:0:0:
402,192,48359,128,0,48466:0:0:0:0:
36,192,48359,1,0,0:0:0:0:
256,192,48466,128,0,48573:0:0:0:0:
109,192,48466,1,0,0:0:0:0:
329,192,48466,1,0,0:0:0:0:
475,192,48466,1,0,0:0:0:0:
109,192,48573,128,0,48680:0:0:0:0:
182,192,48573,1,0,0:0:0:0:
182,192,48680,128,0,48788:0:0:0:0:
402,192,48680,1,0,0:0:0:0:
329,192,48788,128,0,48895:0:0:0:0:
36,192,48788,1,0,0:0:0:0:
402,192,48895,128,0,49002:0:0:0:0:
256,192,48895,1,0,0:0:0:0:
475,192,48895,1,0,0:0:0:0:
182,192,49002,128,0,49109:0:0:0:0:
36,192,49002,1,0,0:0:0:0:
329,192,49109,128,0,49216:0:0:0:0:
475,192,49109,1,0,0:0:0:0:
109,192,49109,1,0,0:0:0:0:
109,192,49216,128,0,49323:0:0:0:0:
36,192,49216,1,0,0:0:0:0:
402,192,49323,128,0,49430:0:0:0:0:
182,192,49323,1,0,0:0:0:0:
256,192,49323,1,0,0:0:0:0:
475,192,49323,1,0,0:0:0:0:
256,192,49430,128,0,49538:0:0:0:0:
36,192,49430,1,0,0:0:0:0:
329,192,49538,128,0,49645:0:0:0:0:
109,192,49538,1,0,0:0:0:0:
402,192,49645,128,0,49859:0:0:0:0:
36,192,49645,1,0,0:0:0:0:
475,192,49645,1,0,0:0:0:0:
256,192,49752,1,0,0:0:0:0:
182,192,49859,128,0,49966:0:0:0:0:
36,192,49859,1,0,0:0:0:0:
109,192,49966,128,0,50073:0:0:0:0:
329,192,49966,1,0,0:0:0:0:
256,192,50073,128,0,50180:0:0:0:0:
475,192,50073,1,0,0:0:0:0:
36,192,50180,128,0,50288:0:0:0:0:
182,192,50180,1,0,0:0:0:0:
329,192,50180,1,0,0:0:0:0:
402,192,50180,1,0,0:0:0:0:
182,192,50288,128,0,50395:0:0:0:0:
475,192,50288,1,0,0:0:0:0:
329,192,50395,128,0,50502:0:0:0:0:
109,192,50395,1,0,0:0:0:0:
109,192,50502,128,0,50609:0:0:0:0:
402,192,50502,1,0,0:0:0:0:
182,192,50609,128,0,50716:0:0:0:0:
36,192,50609,1,0,0:0:0:0:
256,192,50609,1,0,0:0:0:0:
475,192,50609,1,0,0:0:0:0:
402,192,50716,128,0,50823:0:0:0:0:
329,192,50716,1,0,0:0:0:0:
329,192,50823,128,0,50930:0:0:0:0:
109,192,50823,1,0,0:0:0:0:
109,192,50930,128,0,51038:0:0:0:0:
475,192,50930,1,0,0:0:0:0:
182,192,51038,128,0,51145:0:0:0:0:
256,192,51038,1,0,0:0:0:0:
36,192,51038,1,0,0:0:0:0:
402,192,51145,128,0,51252:0:0:0:0:
329,192,51145,1,0,0:0:0:0:
109,192,51252,128,0,51359:0:0:0:0:
475,192,51252,1,0,0:0:0:0:
182,192,51252,1,0,0:0:0:0:
256,192,51359,128,0,51573:0:0:0:0:
329,192,51359,1,0,0:0:0:0:
36,192,51359,1,0,0:0:0:0:
402,192,51466,1,0,0:0:0:0:
475,192,51466,1,0,0:0:0:0:
182,192,51466,1,0,0:0:0:0:
109,192,51466,1,0,0:0:0:0:
329,192,51573,128,0,51680:0:0:0:0:
36,192,51573,1,0,0:0:0:0:
182,192,51680,128,0,51788:0:0:0:0:
402,192,51680,1,0,0:0:0:0:
109,192,51788,128,0,51895:0:0:0:0:
475,192,51788,1,0,0:0:0:0:
36,192,51895,128,0,52002:0:0:0:0:
402,192,51895,1,0,0:0:0:0:
256,192,51895,1,0,0:0:0:0:
329,192,51895,1,0,0:0:0:0:
256,192,52002,128,0,52109:0:0:0:0:
329,192,52002,1,0,0:0:0:0:
109,192,52109,128,0,52216:0:0:0:0:
475,192,52109,1,0,0:0:0:0:
329,192,52216,128,0,52323:0:0:0:0:
182,192,52216,1,0,0:0:0:0:
402,192,52323,128,0,52430:0:0:0:0:
256,192,52323,1,0,0:0:0:0:
36,192,52323,1,0,0:0:0:0:
475,192,52430,128,0,52538:0:0:0:0:
109,192,52430,1,0,0:0:0:0:
256,192,52538,128,0,52645:0:0:0:0:
182,192,52538,1,0,0:0:0:0:
329,192,52538,1,0,0:0:0:0:
182,192,52645,128,0,52752:0:0:0:0:
36,192,52645,1,0,0:0:0:0:
109,192,52752,128,0,52859:0:0:0:0:
402,192,52752,1,0,0:0:0:0:
329,192,52752,1,0,0:0:0:0:
475,192,52752,1,0,0:0:0:0:
329,192,52859,128,0,52966:0:0:0:0:
182,192,52859,1,0,0:0:0:0:
256,192,52859,1,0,0:0:0:0:
256,192,52966,128,0,53073:0:0:0:0:
402,192,52966,1,0,0:0:0:0:
109,192,53073,128,0,53180:0:0:0:0:
475,192,53073,1,0,0:0:0:0:
36,192,53180,128,0,53288:0:0:0:0:
182,192,53180,1,0,0:0:0:0:
329,192,53180,1,0,0:0:0:0:
402,192,53288,128,0,53395:0:0:0:0:
475,192,53288,1,0,0:0:0:0:
256,192,53395,128,0,53502:0:0:0:0:
109,192,53395,1,0,0:0:0:0:
182,192,53502,128,0,53609:0:0:0:0:
36,192,53502,1,0,0:0:0:0:
329,192,53609,128,0,53716:0:0:0:0:
402,192,53609,1,0,0:0:0:0:
475,192,53609,1,0,0:0:0:0:
256,192,53609,1,0,0:0:0:0:
109,192,53716,128,0,53823:0:0:0:0:
182,192,53716,1,0,0:0:0:0:
36,192,53823,128,0,53930:0:0:0:0:
256,192,53823,1,0,0:0:0:0:
182,192,53930,128,0,54038:0:0:0:0:
402,192,53930,1,0,0:0:0:0:
329,192,54038,128,0,54145:0:0:0:0:
256,192,54038,1,0,0:0:0:0:
109,192,54145,128,0,54252:0:0:0:0:
475,192,54145,1,0,0:0:0:0:
256,192,54252,128,0,54359:0:0:0:0:
36,192,54252,1,0,0:0:0:0:
402,192,54359,128,0,54466:0:0:0:0:
329,192,54359,1,0,0:0:0:0:
182,192,54466,128,0,54573:0:0:0:0:
36,192,54466,1,0,0:0:0:0:
256,192,54466,1,0,0:0:0:0:
329,192,54466,1,0,0:0:0:0:
109,192,54573,128,0,54680:0:0:0:0:
475,192,54573,1,0,0:0:0:0:
329,192,54680,128,0,54788:0:0:0:0:
256,192,54680,1,0,0:0:0:0:
182,192,54788,128,0,54895:0:0:0:0:
475,192,54788,1,0,0:0:0:0:
36,192,54895,128,0,55002:0:0:0:0:
109,192,54895,1,0,0:0:0:0:
329,192,54895,1,0,0:0:0:0:
402,192,54895,1,0,0:0:0:0:
256,192,55002,128,0,55109:0:0:0:0:
402,192,55002,1,0,0:0:0:0:
329,192,55109,128,0,55216:0:0:0:0:
475,192,55109,1,0,0:0:0:0:
109,192,55216,128,0,55323:0:0:0:0:
182,192,55216,1,0,0:0:0:0:
256,192,55323,128,0,55430:0:0:0:0:
36,192,55323,1,0,0:0:0:0:
475,192,55323,1,0,0:0:0:0:
329,192,55323,1,0,0:0:0:0:
402,192,55323,1,0,0:0:0:0:
402,192,55430,128,0,55538:0:0:0:0:
329,192,55430,1,0,0:0:0:0:
182,192,55538,128,0,55645:0:0:0:0:
475,192,55538,1,0,0:0:0:0:
36,192,55538,1,0,0:0:0:0:
109,192,55538,1,0,0:0:0:0:
36,192,55645,128,0,55752:0:0:0:0:
329,192,55645,1,0,0:0:0:0:
109,192,55752,128,0,55859:0:0:0:0:
402,192,55752,1,0,0:0:0:0:
475,192,55752,1,0,0:0:0:0:
256,192,55859,128,0,55966:0:0:0:0:
182,192,55859,1,0,0:0:0:0:
329,192,55966,128,0,56073:0:0:0:0:
402,192,55966,1,0,0:0:0:0:
182,192,56073,128,0,56180:0:0:0:0:
36,192,56073,1,0,0:0:0:0:
402,192,56180,128,0,56288:0:0:0:0:
256,192,56180,1,0,0:0:0:0:
475,192,56180,1,0,0:0:0:0:
109,192,56180,1,0,0:0:0:0:
329,192,56180,1,0,0:0:0:0:
109,192,56288,128,0,56395:0:0:0:0:
329,192,56288,1,0,0:0:0:0:
182,192,56395,128,0,56502:0:0:0:0:
36,192,56395,1,0,0:0:0:0:
475,192,56395,1,0,0:0:0:0:
329,192,56502,128,0,56609:0:0:0:0:
256,192,56609,128,0,56716:0:0:0:0:
109,192,56609,1,0,0:0:0:0:
402,192,56609,1,0,0:0:0:0:
475,192,56609,1,0,0:0:0:0:
109,192,56716,128,0,56823:0:0:0:0:
36,192,56716,1,0,0:0:0:0:
182,192,56823,128,0,56930:0:0:0:0:
475,192,56823,1,0,0:0:0:0:
329,192,56823,1,0,0:0:0:0:
256,192,56930,128,0,57038:0:0:0:0:
402,192,56930,1,0,0:0:0:0:
402,192,57038,128,0,57145:0:0:0:0:
109,192,57038,1,0,0:0:0:0:
329,192,57038,1,0,0:0:0:0:
475,192,57038,1,0,0:0:0:0:
475,192,57145,128,0,57252:0:0:0:0:
36,192,57145,1,0,0:0:0:0:
329,192,57252,128,0,57359:0:0:0:0:
256,192,57252,1,0,0:0:0:0:
182,192,57359,128,0,57466:0:0:0:0:
109,192,57359,1,0,0:0:0:0:
402,192,57466,128,0,57573:0:0:0:0:
256,192,57466,1,0,0:0:0:0:
475,192,57466,1,0,0:0:0:0:
475,192,57573,128,0,57680:0:0:0:0:
36,192,57573,1,0,0:0:0:0:
256,192,57680,128,0,57788:0:0:0:0:
329,192,57680,1,0,0:0:0:0:
182,192,57788,128,0,57895:0:0:0:0:
109,192,57788,1,0,0:0:0:0:
329,192,57895,128,0,58002:0:0:0:0:
402,192,57895,1,0,0:0:0:0:
402,192,58002,128,0,58109:0:0:0:0:
256,192,58002,1,0,0:0:0:0:
109,192,58109,128,0,58216:0:0:0:0:
36,192,58109,1,0,0:0:0:0:
475,192,58216,128,0,58430:0:0:0:0:
182,192,58216,1,0,0:0:0:0:
329,192,58323,1,0,0:0:0:0:
402,192,58323,1,0,0:0:0:0:
36,192,58323,1,0,0:0:0:0:
256,192,58430,128,0,58538:0:0:0:0:
109,192,58430,1,0,0:0:0:0:
329,192,58538,128,0,58645:0:0:0:0:
182,192,58538,1,0,0:0:0:0:
109,192,58645,128,0,58752:0:0:0:0:
475,192,58645,1,0,0:0:0:0:
182,192,58752,128,0,58859:0:0:0:0:
256,192,58752,1,0,0:0:0:0:
36,192,58752,1,0,0:0:0:0:
402,192,58752,1,0,0:0:0:0:
402,192,58859,128,0,58966:0:0:0:0:
36,192,58859,1,0,0:0:0:0:
329,192,58966,128,0,59073:0:0:0:0:
109,192,58966,1,0,0:0:0:0:
36,192,59073,128,0,59180:0:0:0:0:
256,192,59073,1,0,0:0:0:0:
109,192,59180,128,0,59288:0:0:0:0:
182,192,59180,1,0,0:0:0:0:
329,192,59180,1,0,0:0:0:0:
256,192,59180,1,0,0:0:0:0:
402,192,59288,128,0,59395:0:0:0:0:
475,192,59288,1,0,0:0:0:0:
329,192,59395,128,0,59502:0:0:0:0:
182,192,59395,1,0,0:0:0:0:
36,192,59395,1,0,0:0:0:0:
256,192,59502,128,0,59609:0:0:0:0:
109,192,59502,1,0,0:0:0:0:
109,192,59609,128,0,59716:0:0:0:0:
402,192,59609,1,0,0:0:0:0:
182,192,59609,1,0,0:0:0:0:
475,192,59609,1,0,0:0:0:0:
329,192,59716,128,0,59823:0:0:0:0:
36,192,59716,1,0,0:0:0:0:
402,192,59823,128,0,59930:0:0:0:0:
182,192,59823,1,0,0:0:0:0:
475,192,59823,1,0,0:0:0:0:
475,192,59930,128,0,60038:0:0:0:0:
109,192,59930,1,0,0:0:0:0:
256,192,60038,128,0,60145:0:0:0:0:
329,192,60038,1,0,0:0:0:0:
36,192,60038,1,0,0:0:0:0:
182,192,60038,1,0,0:0:0:0:
402,192,60145,128,0,60252:0:0:0:0:
109,192,60145,1,0,0:0:0:0:
475,192,60252,128,0,60359:0:0:0:0:
182,192,60252,1,0,0:0:0:0:
329,192,60359,128,0,60466:0:0:0:0:
256,192,60359,1,0,0:0:0:0:
256,192,60466,128,0,60573:0:0:0:0:
402,192,60466,1,0,0:0:0:0:
475,192,60466,1,0,0:0:0:0:
36,192,60466,1,0,0:0:0:0:
109,192,60573,128,0,60680:0:0:0:0:
182,192,60573,1,0,0:0:0:0:
402,192,60680,128,0,60788:0:0:0:0:
329,192,60680,1,0,0:0:0:0:
256,192,60788,128,0,60895:0:0:0:0:
475,192,60788,1,0,0:0:0:0:
182,192,60895,128,0,61002:0:0:0:0:
329,192,60895,1,0,0:0:0:0:
109,192,60895,1,0,0:0:0:0:
36,192,61002,128,0,61109:0:0:0:0:
475,192,61002,1,0,0:0:0:0:
329,192,61109,128,0,61216:0:0:0:0:
402,192,61109,1,0,0:0:0:0:
182,192,61216,128,0,61323:0:0:0:0:
256,192,61216,1,0,0:0:0:0:
256,192,61323,128,0,61430:0:0:0:0:
109,192,61323,1,0,0:0:0:0:
402,192,61323,1,0,0:0:0:0:
329,192,61323,1,0,0:0:0:0:
402,192,61430,128,0,61538:0:0:0:0:
36,192,61430,1,0,0:0:0:0:
475,192,61430,1,0,0:0:0:0:
109,192,61538,128,0,61645:0:0:0:0:
329,192,61538,1,0,0:0:0:0:
475,192,61645,128,0,61752:0:0:0:0:
256,192,61645,1,0,0:0:0:0:
256,192,61752,128,0,61859:0:0:0:0:
182,192,61752,1,0,0:0:0:0:
36,192,61752,1,0,0:0:0:0:
402,192,61859,128,0,61966:0:0:0:0:
109,192,61859,1,0,0:0:0:0:
182,192,61966,128,0,62073:0:0:0:0:
256,192,61966,1,0,0:0:0:0:
329,192,61966,1,0,0:0:0:0:
36,192,62073,128,0,62180:0:0:0:0:
475,192,62073,1,0,0:0:0:0:
329,192,62180,128,0,62288:0:0:0:0:
109,192,62180,1,0,0:0:0:0:
182,192,62180,1,0,0:0:0:0:
402,192,62180,1,0,0:0:0:0:
256,192,62288,128,0,62395:0:0:0:0:
402,192,62288,1,0,0:0:0:0:
182,192,62395,128,0,62502:0:0:0:0:
36,192,62395,1,0,0:0:0:0:
109,192,62502,128,0,62609:0:0:0:0:
475,192,62502,1,0,0:0:0:0:
36,192,62609,128,0,62716:0:0:0:0:
329,192,62609,1,0,0:0:0:0:
256,192,62609,1,0,0:0:0:0:
182,192,62716,128,0,62823:0:0:0:0:
402,192,62716,1,0,0:0:0:0:
256,192,62823,128,0,62930:0:0:0:0:
109,192,62823,1,0,0:0:0:0:
329,192,62930,128,0,63038:0:0:0:0:
36,192,62930,1,0,0:0:0:0:
402,192,62930,1,0,0:0:0:0:
475,192,62930,1,0,0:0:0:0:
109,192,63038,128,0,63145:0:0:0:0:
402,192,63038,1,0,0:0:0:0:
475,192,63038,1,0,0:0:0:0:
182,192,63038,1,0,0:0:0:0:
36,192,63145,128,0,63252:0:0:0:0:
256,192,63145,1,0,0:0:0:0:
256,192,63252,128,0,63359:0:0:0:0:
182,192,63252,1,0,0:0:0:0:
402,192,63252,1,0,0:0:0:0:
329,192,63252,1,0,0:0:0:0:
182,192,63359,128,0,63466:0:0:0:0:
36,192,63359,1,0,0:0:0:0:
109,192,63466,128,0,63573:0:0:0:0:
329,192,63466,1,0,0:0:0:0:
402,192,63466,1,0,0:0:0:0:
329,192,63573,128,0,63680:0:0:0:0:
36,192,63573,1,0,0:0:0:0:
256,192,63680,128,0,63788:0:0:0:0:
402,192,63680,1,0,0:0:0:0:
182,192,63680,1,0,0:0:0:0:
36,192,63680,1,0,0:0:0:0:
109,192,63788,128,0,63895:0:0:0:0:
329,192,63788,1,0,0:0:0:0:
36,192,63895,128,0,64002:0:0:0:0:
182,192,63895,1,0,0:0:0:0:
182,192,64002,128,0,64109:0:0:0:0:
329,192,64002,1,0,0:0:0:0:
402,192,64109,128,0,64216:0:0:0:0:
109,192,64109,1,0,0:0:0:0:
256,192,64109,1,0,0:0:0:0:
329,192,64216,128,0,64323:0:0:0:0:
475,192,64216,1,0,0:0:0:0:
256,192,64323,128,0,64430:0:0:0:0:
182,192,64323,1,0,0:0:0:0:
109,192,64323,1,0,0:0:0:0:
402,192,64430,128,0,64538:0:0:0:0:
36,192,64430,1,0,0:0:0:0:
182,192,64538,128,0,64645:0:0:0:0:
109,192,64538,1,0,0:0:0:0:
329,192,64538,1,0,0:0:0:0:
109,192,64645,128,0,64752:0:0:0:0:
475,192,64645,1,0,0:0:0:0:
36,192,64752,128,0,64859:0:0:0:0:
256,192,64752,1,0,0:0:0:0:
256,192,64859,128,0,64966:0:0:0:0:
329,192,64859,1,0,0:0:0:0:
182,192,64966,128,0,65073:0:0:0:0:
109,192,64966,1,0,0:0:0:0:
329,192,65073,128,0,65180:0:0:0:0:
36,192,65073,1,0,0:0:0:0:
109,192,65180,128,0,65288:0:0:0:0:
256,192,65180,1,0,0:0:0:0:
182,192,65180,1,0,0:0:0:0:
36,192,65180,1,0,0:0:0:0:
475,192,65288,128,0,65395:0:0:0:0:
402,192,65288,1,0,0:0:0:0:
256,192,65395,128,0,65502:0:0:0:0:
182,192,65395,1,0,0:0:0:0:
329,192,65502,128,0,65609:0:0:0:0:
475,192,65502,1,0,0:0:0:0:
109,192,65502,1,0,0:0:0:0:
182,192,65609,128,0,65716:0:0:0:0:
36,192,65609,1,0,0:0:0:0:
402,192,65609,1,0,0:0:0:0:
109,192,65716,128,0,65823:0:0:0:0:
329,192,65716,1,0,0:0:0:0:
402,192,65823,128,0,65930:0:0:0:0:
256,192,65823,1,0,0:0:0:0:
256,192,65930,128,0,66038:0:0:0:0:
182,192,65930,1,0,0:0:0:0:
329,192,66038,128,0,66145:0:0:0:0:
109,192,66038,1,0,0:0:0:0:
475,192,66038,1,0,0:0:0:0:
109,192,66145,128,0,66252:0:0:0:0:
36,192,66145,1,0,0:0:0:0:
402,192,66145,1,0,0:0:0:0:
182,192,66252,128,0,66359:0:0:0:0:
329,192,66252,1,0,0:0:0:0:
36,192,66359,128,0,66466:0:0:0:0:
256,192,66359,1,0,0:0:0:0:
256,192,66466,128,0,66573:0:0:0:0:
182,192,66466,1,0,0:0:0:0:
109,192,66573,128,0,66680:0:0:0:0:
329,192,66680,128,0,66788:0:0:0:0:
36,192,66680,1,0,0:0:0:0:
402,192,66680,1,0,0:0:0:0:
256,192,66788,128,0,66895:0:0:0:0:
402,192,66895,128,0,67002:0:0:0:0:
109,192,66895,1,0,0:0:0:0:
182,192,67002,128,0,67109:0:0:0:0:
256,192,67002,1,0,0:0:0:0:
36,192,67002,1,0,0:0:0:0:
109,192,67109,128,0,67216:0:0:0:0:
475,192,67109,1,0,0:0:0:0:
256,192,67216,128,0,67323:0:0:0:0:
402,192,67216,1,0,0:0:0:0:
182,192,67216,1,0,0:0:0:0:
36,192,67323,128,0,67430:0:0:0:0:
109,192,67323,1,0,0:0:0:0:
329,192,67323,1,0,0:0:0:0:
182,192,67430,128,0,67538:0:0:0:0:
402,192,67430,1,0,0:0:0:0:
109,192,67538,128,0,67645:0:0:0:0:
329,192,67538,1,0,0:0:0:0:
36,192,67645,128,0,67752:0:0:0:0:
256,192,67645,1,0,0:0:0:0:
182,192,67752,128,0,67859:0:0:0:0:
109,192,67752,1,0,0:0:0:0:
109,192,67859,128,0,67966:0:0:0:0:
36,192,67859,1,0,0:0:0:0:
329,192,67966,128,0,68073:0:0:0:0:
182,192,67966,1,0,0:0:0:0:
475,192,67966,1,0,0:0:0:0:
182,192,68073,128,0,68180:0:0:0:0:
109,192,68073,1,0,0:0:0:0:
402,192,68073,1,0,0:0:0:0:
256,192,68180,128,0,68288:0:0:0:0:
36,192,68180,1,0,0:0:0:0:
109,192,68288,128,0,68395:0:0:0:0:
182,192,68288,1,0,0:0:0:0:
329,192,68288,1,0,0:0:0:0:
182,192,68395,128,0,68502:0:0:0:0:
256,192,68395,1,0,0:0:0:0:
402,192,68395,1,0,0:0:0:0:
329,192,68502,128,0,68609:0:0:0:0:
109,192,68502,1,0,0:0:0:0:
475,192,68502,1,0,0:0:0:0:
36,192,68609,128,0,69038:0:0:0:0:
475,192,68609,128,0,69038:0:0:0:0:
182,192,68609,1,0,0:0:0:0:
109,192,68609,1,0,0:0:0:0:
402,192,68609,1,0,0:0:0:0:
182,192,69038,128,0,69466:0:0:0:0:
329,192,69038,128,0,69466:0:0:0:0:
109,192,69038,1,0,0:0:0:0:
256,192,69038,1,0,0:0:0:0:
402,192,69038,1,0,0:0:0:0:
256,192,69466,128,0,69895:0:0:0:0:
109,192,69466,128,0,69895:0:0:0:0:
402,192,69466,128,0,69895:0:0:0:0:
36,192,69466,1,0,0:0:0:0:
475,192,69466,1,0,0:0:0:0:
475,192,69895,128,0,70323:0:0:0:0:
36,192,69895,128,0,70323:0:0:0:0:
182,192,69895,128,0,70323:0:0:0:0:
329,192,69895,128,0,70323:0:0:0:0:
256,192,70323,128,0,70752:0:0:0:0:
109,192,70323,128,0,70752:0:0:0:0:
402,192,70323,128,0,70752:0:0:0:0:
182,192,70752,128,0,71180:0:0:0:0:
329,192,70752,128,0,71180:0:0:0:0:
36,192,70752,1,0,0:0:0:0:
475,192,70752,1,0,0:0:0:0:
256,192,71180,128,0,71609:0:0:0:0:
36,192,71180,128,0,71609:0:0:0:0:
475,192,71180,128,0,71609:0:0:0:0:
109,192,71180,1,0,0:0:0:0:
402,192,71180,1,0,0:0:0:0:
109,192,71609,128,0,72038:0:0:0:0:
402,192,71609,128,0,72038:0:0:0:0:
329,192,71609,128,0,72038:0:0:0:0:
182,192,71609,128,0,72038:0:0:0:0:
36,192,72038,128,0,73966:0:0:0:0:
475,192,72038,128,0,73966:0:0:0:0:
256,192,72038,1,0,0:0:0:0:
256,192,72252,1,0,0:0:0:0:
182,192,72359,1,0,0:0:0:0:
329,192,72466,1,0,0:0:0:0:
402,192,72466,1,0,0:0:0:0:
109,192,72573,1,0,0:0:0:0:
402,192,72680,1,0,0:0:0:0:
329,192,72788,1,0,0:0:0:0:
256,192,72895,1,0,0:0:0:0:
109,192,73002,1,0,0:0:0:0:
402,192,73109,1,0,0:0:0:0:
329,192,73216,1,0,0:0:0:0:
256,192,73323,1,0,0:0:0:0:
182,192,73323,1,0,0:0:0:0:
109,192,73430,1,0,0:0:0:0:
182,192,73538,1,0,0:0:0:0:
402,192,73645,1,0,0:0:0:0:
109,192,73752,1,0,0:0:0:0:
256,192,73859,1,0,0:0:0:0:
182,192,73966,1,0,0:0:0:0:
329,192,74073,1,0,0:0:0:0:
109,192,74180,1,0,0:0:0:0:
256,192,74180,1,0,0:0:0:0:
182,192,74180,1,0,0:0:0:0:
402,192,74288,1,0,0:0:0:0:
36,192,74395,1,0,0:0:0:0:
475,192,74502,1,0,0:0:0:0:
402,192,74609,1,0,0:0:0:0:
329,192,74716,1,0,0:0:0:0:
109,192,74823,1,0,0:0:0:0:
256,192,74930,1,0,0:0:0:0:
36,192,75038,1,0,0:0:0:0:
109,192,75038,1,0,0:0:0:0:
402,192,75145,1,0,0:0:0:0:
329,192,75252,1,0,0:0:0:0:
256,192,75359,1,0,0:0:0:0:
109,192,75466,1,0,0:0:0:0:
402,192,75573,1,0,0:0:0:0:
36,192,75680,1,0,0:0:0:0:
109,192,75788,1,0,0:0:0:0:
182,192,75895,1,0,0:0:0:0:
329,192,75895,1,0,0:0:0:0:
256,192,75895,1,0,0:0:0:0:
402,192,76002,1,0,0:0:0:0:
109,192,76109,1,0,0:0:0:0:
329,192,76216,1,0,0:0:0:0:
109,192,76323,1,0,0:0:0:0:
182,192,76430,1,0,0:0:0:0:
256,192,76538,1,0,0:0:0:0:
36,192,76645,1,0,0:0:0:0:
475,192,76752,1,0,0:0:0:0:
402,192,76752,1,0,0:0:0:0:
109,192,76859,1,0,0:0:0:0:
329,192,76966,1,0,0:0:0:0:
182,192,77073,1,0,0:0:0:0:
402,192,77180,1,0,0:0:0:0:
475,192,77180,1,0,0:0:0:0:
36,192,77180,1,0,0:0:0:0:
109,192,77288,1,0,0:0:0:0:
182,192,77395,1,0,0:0:0:0:
475,192,77502,1,0,0:0:0:0:
36,192,77609,1,0,0:0:0:0:
182,192,77609,1,0,0:0:0:0:
109,192,77609,1,0,0:0:0:0:
329,192,77716,1,0,0:0:0:0:
256,192,77823,1,0,0:0:0:0:
182,192,77930,1,0,0:0:0:0:
329,192,78038,1,0,0:0:0:0:
475,192,78038,1,0,0:0:0:0:
109,192,78145,1,0,0:0:0:0:
402,192,78252,1,0,0:0:0:0:
182,192,78359,1,0,0:0:0:0:
256,192,78466,1,0,0:0:0:0:
329,192,78466,1,0,0:0:0:0:
402,192,78573,1,0,0:0:0:0:
329,192,78680,1,0,0:0:0:0:
256,192,78788,1,0,0:0:0:0:
109,192,78895,1,0,0:0:0:0:
36,192,78895,1,0,0:0:0:0:
182,192,78895,128,0,79752:0:0:0:0:
475,192,79109,1,0,0:0:0:0:
402,192,79216,1,0,0:0:0:0:
256,192,79323,1,0,0:0:0:0:
329,192,79323,1,0,0:0:0:0:
402,192,79430,1,0,0:0:0:0:
475,192,79538,1,0,0:0:0:0:
329,192,79645,1,0,0:0:0:0:
109,192,79752,128,0,79966:0:0:0:0:
256,192,79752,1,0,0:0:0:0:
36,192,79752,1,0,0:0:0:0:
402,192,79859,1,0,0:0:0:0:
36,192,79966,128,0,80180:0:0:0:0:
329,192,79966,1,0,0:0:0:0:
256,192,80073,1,0,0:0:0:0:
182,192,80180,128,0,80395:0:0:0:0:
402,192,80180,1,0,0:0:0:0:
475,192,80180,1,0,0:0:0:0:
109,192,80288,1,0,0:0:0:0:
329,192,80395,128,0,80609:0:0:0:0:
256,192,80395,1,0,0:0:0:0:
109,192,80502,1,0,0:0:0:0:
402,192,80609,128,0,81466:0:0:0:0:
256,192,80609,1,0,0:0:0:0:
475,192,80609,1,0,0:0:0:0:
36,192,80716,1,0,0:0:0:0:
109,192,80823,1,0,0:0:0:0:
182,192,80930,1,0,0:0:0:0:
256,192,81038,1,0,0:0:0:0:
329,192,81038,1,0,0:0:0:0:
36,192,81145,1,0,0:0:0:0:
109,192,81252,1,0,0:0:0:0:
329,192,81359,1,0,0:0:0:0:
475,192,81466,128,0,82323:0:0:0:0:
256,192,81466,1,0,0:0:0:0:
182,192,81466,1,0,0:0:0:0:
36,192,81466,1,0,0:0:0:0:
109,192,81573,1,0,0:0:0:0:
329,192,81680,1,0,0:0:0:0:
256,192,81788,1,0,0:0:0:0:
182,192,81895,1,0,0:0:0:0:
109,192,81895,1,0,0:0:0:0:
329,192,82002,1,0,0:0:0:0:
402,192,82109,1,0,0:0:0:0:
109,192,82216,1,0,0:0:0:0:
402,192,82323,128,0,82752:0:0:0:0:
256,192,82323,1,0,0:0:0:0:
329,192,82323,1,0,0:0:0:0:
182,192,82430,1,0,0:0:0:0:
475,192,82538,1,0,0:0:0:0:
36,192,82645,1,0,0:0:0:0:
329,192,82752,128,0,83180:0:0:0:0:
109,192,82752,1,0,0:0:0:0:
182,192,82752,1,0,0:0:0:0:
475,192,82752,1,0,0:0:0:0:
256,192,82859,1,0,0:0:0:0:
36,192,82966,1,0,0:0:0:0:
109,192,83073,1,0,0:0:0:0:
182,192,83180,128,0,83609:0:0:0:0:
402,192,83180,1,0,0:0:0:0:
475,192,83180,1,0,0:0:0:0:
256,192,83288,1,0,0:0:0:0:
329,192,83395,1,0,0:0:0:0:
36,192,83502,1,0,0:0:0:0:
256,192,83609,128,0,84038:0:0:0:0:
402,192,83609,1,0,0:0:0:0:
475,192,83609,1,0,0:0:0:0:
182,192,83716,1,0,0:0:0:0:
36,192,83823,1,0,0:0:0:0:
475,192,83930,1,0,0:0:0:0:
182,192,84038,128,0,84895:0:0:0:0:
402,192,84038,1,0,0:0:0:0:
329,192,84038,1,0,0:0:0:0:
36,192,84145,1,0,0:0:0:0:
256,192,84252,1,0,0:0:0:0:
402,192,84359,1,0,0:0:0:0:
329,192,84466,1,0,0:0:0:0:
36,192,84466,1,0,0:0:0:0:
109,192,84466,1,0,0:0:0:0:
402,192,84573,1,0,0:0:0:0:
256,192,84680,1,0,0:0:0:0:
36,192,84788,1,0,0:0:0:0:
329,192,84895,1,0,0:0:0:0:
402,192,84895,1,0,0:0:0:0:
475,192,84895,128,0,86609:0:0:0:0:
256,192,85002,1,0,0:0:0:0:
109,192,85109,1,0,0:0:0:0:
182,192,85216,1,0,0:0:0:0:
256,192,85323,1,0,0:0:0:0:
329,192,85323,1,0,0:0:0:0:
402,192,85430,1,0,0:0:0:0:
36,192,85538,1,0,0:0:0:0:
109,192,85645,1,0,0:0:0:0:
256,192,85752,128,0,86609:0:0:0:0:
402,192,85752,1,0,0:0:0:0:
36,192,85752,1,0,0:0:0:0:
182,192,85859,1,0,0:0:0:0:
109,192,85966,1,0,0:0:0:0:
402,192,86073,1,0,0:0:0:0:
182,192,86180,1,0,0:0:0:0:
36,192,86180,1,0,0:0:0:0:
109,192,86288,1,0,0:0:0:0:
329,192,86395,1,0,0:0:0:0:
36,192,86502,1,0,0:0:0:0:
182,192,86609,128,0,87038:0:0:0:0:
402,192,86609,1,0,0:0:0:0:
109,192,86609,1,0,0:0:0:0:
329,192,86716,1,0,0:0:0:0:
36,192,86823,1,0,0:0:0:0:
256,192,86930,1,0,0:0:0:0:
109,192,87038,128,0,87252:0:0:0:0:
402,192,87038,1,0,0:0:0:0:
475,192,87038,1,0,0:0:0:0:
329,192,87145,1,0,0:0:0:0:
256,192,87252,128,0,87466:0:0:0:0:
475,192,87252,1,0,0:0:0:0:
402,192,87359,1,0,0:0:0:0:
329,192,87466,128,0,87895:0:0:0:0:
182,192,87466,1,0,0:0:0:0:
109,192,87466,1,0,0:0:0:0:
475,192,87573,1,0,0:0:0:0:
36,192,87680,1,0,0:0:0:0:
109,192,87788,1,0,0:0:0:0:
256,192,87895,128,0,88323:0:0:0:0:
402,192,87895,1,0,0:0:0:0:
475,192,87895,1,0,0:0:0:0:
182,192,88002,1,0,0:0:0:0:
36,192,88109,1,0,0:0:0:0:
109,192,88216,1,0,0:0:0:0:
182,192,88323,128,0,88752:0:0:0:0:
329,192,88323,1,0,0:0:0:0:
402,192,88323,1,0,0:0:0:0:
475,192,88430,1,0,0:0:0:0:
402,192,88538,1,0,0:0:0:0:
36,192,88645,1,0,0:0:0:0:
329,192,88752,128,0,89180:0:0:0:0:
256,192,88752,1,0,0:0:0:0:
475,192,88752,1,0,0:0:0:0:
402,192,88859,1,0,0:0:0:0:
109,192,88966,1,0,0:0:0:0:
402,192,89073,1,0,0:0:0:0:
109,192,89180,128,0,90038:0:0:0:0:
256,192,89180,1,0,0:0:0:0:
182,192,89180,1,0,0:0:0:0:
36,192,89180,1,0,0:0:0:0:
475,192,89180,1,0,0:0:0:0:
402,192,89288,1,0,0:0:0:0:
182,192,89395,1,0,0:0:0:0:
256,192,89502,1,0,0:0:0:0:
329,192,89609,1,0,0:0:0:0:
475,192,89609,1,0,0:0:0:0:
402,192,89716,1,0,0:0:0:0:
182,192,89823,1,0,0:0:0:0:
329,192,89930,1,0,0:0:0:0:
256,192,90038,128,0,90680:0:0:0:0:
36,192,90038,1,0,0:0:0:0:
475,192,90038,1,0,0:0:0:0:
402,192,90145,1,0,0:0:0:0:
182,192,90252,1,0,0:0:0:0:
329,192,90359,1,0,0:0:0:0:
109,192,90466,1,0,0:0:0:0:
36,192,90466,1,0,0:0:0:0:
402,192,90573,1,0,0:0:0:0:
182,192,90680,1,0,0:0:0:0:
256,192,90788,128,0,92395:0:0:0:0:
475,192,90788,1,0,0:0:0:0:
182,192,90895,1,0,0:0:0:0:
402,192,91002,1,0,0:0:0:0:
36,192,91109,1,0,0:0:0:0:
475,192,91216,1,0,0:0:0:0:
109,192,91323,1,0,0:0:0:0:
402,192,91323,1,0,0:0:0:0:
329,192,91430,1,0,0:0:0:0:
36,192,91538,1,0,0:0:0:0:
329,192,91645,1,0,0:0:0:0:
402,192,91752,1,0,0:0:0:0:
475,192,91859,1,0,0:0:0:0:
36,192,91966,1,0,0:0:0:0:
109,192,92073,1,0,0:0:0:0:
402,192,92180,1,0,0:0:0:0:
36,192,92288,1,0,0:0:0:0:
475,192,92395,128,0,93038:0:0:0:0:
329,192,92395,1,0,0:0:0:0:
256,192,92502,1,0,0:0:0:0:
182,192,92609,128,0,93466:0:0:0:0:
329,192,92609,1,0,0:0:0:0:
109,192,92609,1,4,0:0:0:0:
36,192,92609,1,4,0:0:0:0:
402,192,92609,1,0,0:0:0:0:
256,192,92823,1,0,0:0:0:0:
402,192,92930,1,0,0:0:0:0:
36,192,93038,1,0,0:0:0:0:
109,192,93038,1,0,0:0:0:0:
329,192,93145,1,0,0:0:0:0:
402,192,93252,1,0,0:0:0:0:
256,192,93359,1,0,0:0:0:0:
109,192,93466,128,0,93895:0:0:0:0:
475,192,93466,1,0,0:0:0:0:
329,192,93466,1,0,0:0:0:0:
36,192,93573,1,0,0:0:0:0:
182,192,93680,1,0,0:0:0:0:
402,192,93788,1,0,0:0:0:0:
182,192,93895,128,0,94109:0:0:0:0:
256,192,93895,1,0,0:0:0:0:
36,192,93895,1,0,0:0:0:0:
475,192,94002,1,0,0:0:0:0:
256,192,94109,128,0,94323:0:0:0:0:
329,192,94109,1,0,0:0:0:0:
109,192,94216,1,0,0:0:0:0:
36,192,94323,128,0,94752:0:0:0:0:
402,192,94323,1,0,0:0:0:0:
475,192,94323,1,0,0:0:0:0:
109,192,94430,1,0,0:0:0:0:
329,192,94538,1,0,0:0:0:0:
182,192,94645,1,0,0:0:0:0:
475,192,94752,128,0,95395:0:0:0:0:
329,192,94752,1,0,0:0:0:0:
402,192,94752,1,0,0:0:0:0:
109,192,94859,1,0,0:0:0:0:
182,192,94966,1,0,0:0:0:0:
36,192,95073,1,0,0:0:0:0:
256,192,95180,1,0,0:0:0:0:
402,192,95180,1,0,0:0:0:0:
329,192,95288,1,0,0:0:0:0:
402,192,95395,128,0,95502:0:0:0:0:
256,192,95395,1,0,0:0:0:0:
329,192,95502,128,0,95609:0:0:0:0:
36,192,95502,1,0,0:0:0:0:
182,192,95609,128,0,95823:0:0:0:0:
109,192,95609,1,0,0:0:0:0:
475,192,95609,1,0,0:0:0:0:
402,192,95716,1,0,0:0:0:0:
109,192,95823,128,0,96038:0:0:0:0:
329,192,95823,1,0,0:0:0:0:
256,192,95930,1,0,0:0:0:0:
36,192,96038,128,0,96895:0:0:0:0:
329,192,96038,1,0,0:0:0:0:
402,192,96038,1,0,0:0:0:0:
182,192,96145,1,0,0:0:0:0:
475,192,96252,1,0,0:0:0:0:
402,192,96359,1,0,0:0:0:0:
182,192,96466,1,0,0:0:0:0:
256,192,96466,1,0,0:0:0:0:
329,192,96573,1,0,0:0:0:0:
109,192,96680,1,0,0:0:0:0:
475,192,96788,1,0,0:0:0:0:
182,192,96895,128,0,97216:0:0:0:0:
256,192,96895,1,0,0:0:0:0:
402,192,96895,1,0,0:0:0:0:
329,192,97002,1,0,0:0:0:0:
109,192,97109,1,0,0:0:0:0:
36,192,97216,1,0,0:0:0:0:
182,192,97323,128,0,97752:0:0:0:0:
402,192,97323,128,0,98609:0:0:0:0:
256,192,97323,1,0,0:0:0:0:
475,192,97323,1,0,0:0:0:0:
109,192,97430,1,0,0:0:0:0:
329,192,97538,1,0,0:0:0:0:
256,192,97645,1,0,0:0:0:0:
109,192,97752,128,0,98609:0:0:0:0:
475,192,97752,1,0,0:0:0:0:
329,192,97859,1,0,0:0:0:0:
256,192,97966,1,0,0:0:0:0:
182,192,98073,1,0,0:0:0:0:
256,192,98180,1,0,0:0:0:0:
329,192,98180,1,0,0:0:0:0:
475,192,98180,1,0,0:0:0:0:
36,192,98288,1,0,0:0:0:0:
256,192,98395,1,0,0:0:0:0:
182,192,98502,1,0,0:0:0:0:
256,192,98609,128,0,99466:0:0:0:0:
475,192,98609,128,0,100752:0:0:0:0:
329,192,98609,1,0,0:0:0:0:
36,192,98609,1,0,0:0:0:0:
36,192,98823,1,0,0:0:0:0:
182,192,98930,1,0,0:0:0:0:
402,192,99038,1,0,0:0:0:0:
109,192,99038,1,0,0:0:0:0:
36,192,99145,1,0,0:0:0:0:
329,192,99252,1,0,0:0:0:0:
109,192,99359,1,0,0:0:0:0:
329,192,99466,128,0,100752:0:0:0:0:
182,192,99466,1,0,0:0:0:0:
402,192,99466,1,0,0:0:0:0:
36,192,99466,1,0,0:0:0:0:
109,192,99573,1,0,0:0:0:0:
256,192,99680,1,0,0:0:0:0:
402,192,99788,1,0,0:0:0:0:
256,192,99895,1,0,0:0:0:0:
182,192,100002,1,0,0:0:0:0:
36,192,100109,1,0,0:0:0:0:
256,192,100216,1,0,0:0:0:0:
109,192,100323,1,0,0:0:0:0:
182,192,100430,1,0,0:0:0:0:
402,192,100538,1,0,0:0:0:0:
182,192,100645,1,0,0:0:0:0:
402,192,100752,128,0,102466:0:0:0:0:
109,192,100752,128,0,100966:0:0:0:0:
256,192,100752,1,0,0:0:0:0:
36,192,100752,1,0,0:0:0:0:
182,192,100859,1,0,0:0:0:0:
182,192,100966,128,0,101180:0:0:0:0:
329,192,100966,1,0,0:0:0:0:
109,192,101073,1,0,0:0:0:0:
256,192,101180,128,0,101609:0:0:0:0:
36,192,101180,1,0,0:0:0:0:
475,192,101180,1,0,0:0:0:0:
109,192,101288,1,0,0:0:0:0:
182,192,101395,1,0,0:0:0:0:
475,192,101502,1,0,0:0:0:0:
182,192,101609,128,0,102038:0:0:0:0:
36,192,101609,1,0,0:0:0:0:
109,192,101716,1,0,0:0:0:0:
329,192,101823,1,0,0:0:0:0:
256,192,101930,1,0,0:0:0:0:
109,192,102038,128,0,102466:0:0:0:0:
475,192,102038,1,0,0:0:0:0:
256,192,102145,1,0,0:0:0:0:
329,192,102252,1,0,0:0:0:0:
475,192,102359,1,0,0:0:0:0:
329,192,102466,128,0,103752:0:0:0:0:
182,192,102466,128,0,102680:0:0:0:0:
36,192,102466,1,0,0:0:0:0:
256,192,102573,1,0,0:0:0:0:
109,192,102680,128,0,102895:0:0:0:0:
402,192,102680,1,0,0:0:0:0:
256,192,102788,1,0,0:0:0:0:
36,192,102895,128,0,103752:0:0:0:0:
475,192,102895,1,0,0:0:0:0:
182,192,102895,1,0,0:0:0:0:
402,192,103002,1,0,0:0:0:0:
109,192,103109,1,0,0:0:0:0:
256,192,103216,1,0,0:0:0:0:
182,192,103323,1,0,0:0:0:0:
475,192,103430,1,0,0:0:0:0:
109,192,103538,1,0,0:0:0:0:
256,192,103645,1,0,0:0:0:0:
402,192,103752,128,0,104609:0:0:0:0:
109,192,103752,128,0,104180:0:0:0:0:
182,192,103752,1,0,0:0:0:0:
475,192,103859,1,0,0:0:0:0:
329,192,103966,1,0,0:0:0:0:
36,192,104073,1,0,0:0:0:0:
182,192,104180,128,0,104395:0:0:0:0:
256,192,104180,1,0,0:0:0:0:
475,192,104288,1,0,0:0:0:0:
256,192,104395,128,0,106323:0:0:0:0:
329,192,104395,1,0,0:0:0:0:
109,192,104502,1,0,0:0:0:0:
329,192,104609,128,0,106323:0:0:0:0:
182,192,104609,1,0,0:0:0:0:
475,192,104609,1,0,0:0:0:0:
36,192,104716,1,0,0:0:0:0:
109,192,104823,1,0,0:0:0:0:
475,192,104930,1,0,0:0:0:0:
402,192,105038,1,0,0:0:0:0:
36,192,105145,1,0,0:0:0:0:
109,192,105252,1,0,0:0:0:0:
475,192,105359,1,0,0:0:0:0:
402,192,105466,1,0,0:0:0:0:
109,192,105573,1,0,0:0:0:0:
182,192,105680,1,0,0:0:0:0:
475,192,105788,1,0,0:0:0:0:
402,192,105895,1,0,0:0:0:0:
109,192,106002,1,0,0:0:0:0:
182,192,106109,1,0,0:0:0:0:
402,192,106216,1,0,0:0:0:0:
36,192,106216,1,0,0:0:0:0:
182,192,106323,1,0,0:0:0:0:
109,192,106323,1,0,0:0:0:0:
475,192,106323,1,0,0:0:0:0:
36,192,106430,1,0,0:0:0:0:
109,192,106538,1,0,0:0:0:0:
182,192,106645,1,0,0:0:0:0:
256,192,106752,1,0,0:0:0:0:
329,192,106752,1,0,0:0:0:0:
402,192,106859,1,0,0:0:0:0:
329,192,106966,1,0,0:0:0:0:
256,192,107073,1,0,0:0:0:0:
109,192,107180,1,0,0:0:0:0:
36,192,107180,1,0,0:0:0:0:
329,192,107288,1,0,0:0:0:0:
402,192,107395,1,0,0:0:0:0:
475,192,107502,1,0,0:0:0:0:
329,192,107609,1,0,0:0:0:0:
402,192,107609,1,0,0:0:0:0:
182,192,107716,1,0,0:0:0:0:
109,192,107823,1,0,0:0:0:0:
36,192,107930,1,0,0:0:0:0:
256,192,108038,1,0,0:0:0:0:
329,192,108038,1,0,0:0:0:0:
109,192,108145,1,0,0:0:0:0:
182,192,108252,1,0,0:0:0:0:
256,192,108359,1,0,0:0:0:0:
402,192,108466,1,0,0:0:0:0:
475,192,108466,1,0,0:0:0:0:
109,192,108573,1,0,0:0:0:0:
182,192,108680,1,0,0:0:0:0:
256,192,108788,1,0,0:0:0:0:
329,192,108895,1,0,0:0:0:0:
402,192,108895,1,0,0:0:0:0:
182,192,109002,1,0,0:0:0:0:
109,192,109109,1,0,0:0:0:0:
36,192,109216,1,0,0:0:0:0:
256,192,109323,1,0,0:0:0:0:
329,192,109323,1,0,0:0:0:0:
475,192,109430,1,0,0:0:0:0:
402,192,109538,1,0,0:0:0:0:
329,192,109645,1,0,0:0:0:0:
109,192,109752,1,0,0:0:0:0:
182,192,109752,1,0,0:0:0:0:
256,192,109859,1,0,0:0:0:0:
329,192,109966,1,0,0:0:0:0:
402,192,110073,1,0,0:0:0:0:
329,192,110180,1,0,0:0:0:0:
256,192,110180,1,0,0:0:0:0:
182,192,110288,1,0,0:0:0:0:
109,192,110395,1,0,0:0:0:0:
329,192,110395,1,0,0:0:0:0:
36,192,110502,1,0,0:0:0:0:
475,192,110502,1,0,0:0:0:0:
182,192,110609,1,0,0:0:0:0:
256,192,110609,1,0,0:0:0:0:
402,192,110716,1,0,0:0:0:0:
109,192,110716,1,0,0:0:0:0:
329,192,110823,1,0,0:0:0:0:
256,192,110930,1,0,0:0:0:0:
402,192,110930,1,0,0:0:0:0:
182,192,111038,1,0,0:0:0:0:
109,192,111038,1,0,0:0:0:0:
475,192,111145,1,0,0:0:0:0:
256,192,111145,1,0,0:0:0:0:
402,192,111252,1,0,0:0:0:0:
36,192,111252,1,0,0:0:0:0:
329,192,111359,1,0,0:0:0:0:
182,192,111359,1,0,0:0:0:0:
109,192,111466,1,0,0:0:0:0:
36,192,111466,1,0,0:0:0:0:
182,192,111573,1,0,0:0:0:0:
402,192,111573,1,0,0:0:0:0:
256,192,111680,1,0,0:0:0:0:
475,192,111680,1,0,0:0:0:0:
329,192,111788,1,0,0:0:0:0:
36,192,111788,1,0,0:0:0:0:
402,192,111895,1,0,0:0:0:0:
475,192,111895,1,0,0:0:0:0:
182,192,112002,1,0,0:0:0:0:
329,192,112002,1,0,0:0:0:0:
256,192,112109,1,0,0:0:0:0:
329,192,112216,1,0,0:0:0:0:
109,192,112216,1,0,0:0:0:0:
256,192,112323,1,0,0:0:0:0:
182,192,112323,1,0,0:0:0:0:
475,192,112430,1,0,0:0:0:0:
36,192,112430,1,0,0:0:0:0:
402,192,112538,1,0,0:0:0:0:
182,192,112538,1,0,0:0:0:0:
329,192,112645,1,0,0:0:0:0:
36,192,112752,1,0,0:0:0:0:
109,192,112752,1,0,0:0:0:0:
182,192,112859,1,0,0:0:0:0:
256,192,112966,1,0,0:0:0:0:
475,192,112966,1,0,0:0:0:0:
109,192,113073,1,0,0:0:0:0:
329,192,113180,1,0,0:0:0:0:
402,192,113180,1,0,0:0:0:0:
256,192,113288,1,0,0:0:0:0:
36,192,113288,1,0,0:0:0:0:
182,192,113395,1,0,0:0:0:0:
402,192,113395,1,0,0:0:0:0:
475,192,113502,1,0,0:0:0:0:
329,192,113609,1,0,0:0:0:0:
256,192,113609,1,0,0:0:0:0:
182,192,113716,1,0,0:0:0:0:
36,192,113716,1,0,0:0:0:0:
109,192,113823,1,0,0:0:0:0:
402,192,113823,1,0,0:0:0:0:
475,192,113930,1,0,0:0:0:0:
256,192,114038,1,0,0:0:0:0:
182,192,114038,1,0,0:0:0:0:
402,192,114145,1,0,0:0:0:0:
109,192,114145,1,0,0:0:0:0:
329,192,114252,1,0,0:0:0:0:
475,192,114252,1,0,0:0:0:0:
256,192,114359,1,0,0:0:0:0:
36,192,114359,1,0,0:0:0:0:
402,192,114466,1,0,0:0:0:0:
475,192,114466,1,0,0:0:0:0:
36,192,114573,1,0,0:0:0:0:
256,192,114573,1,0,0:0:0:0:
182,192,114680,1,0,0:0:0:0:
475,192,114680,1,0,0:0:0:0:
329,192,114788,1,0,0:0:0:0:
36,192,114788,1,0,0:0:0:0:
182,192,114895,1,0,0:0:0:0:
109,192,114895,1,0,0:0:0:0:
402,192,115002,1,0,0:0:0:0:
256,192,115002,1,0,0:0:0:0:
329,192,115109,1,0,0:0:0:0:
475,192,115109,1,0,0:0:0:0:
36,192,115216,1,0,0:0:0:0:
182,192,115216,1,0,0:0:0:0:
475,192,115323,1,0,0:0:0:0:
256,192,115323,1,0,0:0:0:0:
402,192,115430,1,0,0:0:0:0:
36,192,115430,1,0,0:0:0:0:
329,192,115538,1,0,0:0:0:0:
182,192,115538,1,0,0:0:0:0:
256,192,115645,1,0,0:0:0:0:
475,192,115645,1,0,0:0:0:0:
182,192,115752,1,0,0:0:0:0:
109,192,115752,1,0,0:0:0:0:
475,192,115859,1,0,0:0:0:0:
256,192,115859,1,0,0:0:0:0:
36,192,115966,1,0,0:0:0:0:
402,192,115966,1,0,0:0:0:0:
475,192,116073,1,0,0:0:0:0:
182,192,116073,1,0,0:0:0:0:
109,192,116180,1,0,0:0:0:0:
36,192,116180,1,0,0:0:0:0:
329,192,116288,1,0,0:0:0:0:
475,192,116288,1,0,0:0:0:0:
182,192,116395,1,0,0:0:0:0:
36,192,116395,1,0,0:0:0:0:
402,192,116502,1,0,0:0:0:0:
256,192,116502,1,0,0:0:0:0:
109,192,116609,1,0,0:0:0:0:
182,192,116609,1,0,0:0:0:0:
402,192,116716,1,0,0:0:0:0:
36,192,116823,1,0,0:0:0:0:
475,192,116823,1,0,0:0:0:0:
329,192,116823,128,0,118538:0:0:0:0:
109,192,116930,1,0,0:0:0:0:
256,192,116930,1,0,0:0:0:0:
402,192,117038,1,0,0:0:0:0:
182,192,117145,1,0,0:0:0:0:
36,192,117252,1,0,0:0:0:0:
256,192,117359,1,0,0:0:0:0:
402,192,117466,1,0,0:0:0:0:
475,192,117466,1,0,0:0:0:0:
182,192,117573,1,0,0:0:0:0:
109,192,117680,1,0,0:0:0:0:
256,192,117788,1,0,0:0:0:0:
182,192,117895,1,0,0:0:0:0:
36,192,117895,1,0,0:0:0:0:
402,192,118002,1,0,0:0:0:0:
109,192,118002,1,0,0:0:0:0:
475,192,118109,1,0,0:0:0:0:
182,192,118109,1,0,0:0:0:0:
36,192,118216,1,0,0:0:0:0:
256,192,118323,1,0,0:0:0:0:
182,192,118323,1,0,0:0:0:0:
475,192,118430,1,0,0:0:0:0:
256,192,118538,128,0,121538:0:0:0:0:
109,192,118538,1,0,0:0:0:0:
402,192,118645,1,0,0:0:0:0:
36,192,118752,1,0,0:0:0:0:
109,192,118752,1,0,0:0:0:0:
475,192,118859,1,0,0:0:0:0:
329,192,118859,1,0,0:0:0:0:
109,192,118966,1,0,0:0:0:0:
36,192,119073,1,0,0:0:0:0:
402,192,119180,1,0,0:0:0:0:
329,192,119180,1,0,0:0:0:0:
182,192,119288,1,0,0:0:0:0:
475,192,119395,1,0,0:0:0:0:
36,192,119502,1,0,0:0:0:0:
402,192,119609,1,0,0:0:0:0:
475,192,119609,1,0,0:0:0:0:
109,192,119716,1,0,0:0:0:0:
329,192,119823,1,0,0:0:0:0:
402,192,119930,1,0,0:0:0:0:
329,192,120038,1,0,0:0:0:0:
182,192,120038,1,0,0:0:0:0:
109,192,120145,1,0,0:0:0:0:
402,192,120252,1,0,0:0:0:0:
475,192,120359,1,0,0:0:0:0:
36,192,120466,1,0,0:0:0:0:
182,192,120466,1,0,0:0:0:0:
329,192,120573,1,0,0:0:0:0:
402,192,120680,1,0,0:0:0:0:
475,192,120788,1,0,0:0:0:0:
329,192,120895,1,0,0:0:0:0:
402,192,120895,1,0,0:0:0:0:
182,192,121002,1,0,0:0:0:0:
109,192,121109,1,0,0:0:0:0:
36,192,121216,1,0,0:0:0:0:
182,192,121323,1,0,0:0:0:0:
109,192,121323,1,0,0:0:0:0:
475,192,121430,1,0,0:0:0:0:
402,192,121538,1,0,0:0:0:0:
329,192,121645,1,0,0:0:0:0:
402,192,121752,1,0,0:0:0:0:
475,192,121752,1,0,0:0:0:0:
256,192,121752,128,0,125180:0:0:0:0:
182,192,121859,1,0,0:0:0:0:
109,192,121966,1,0,0:0:0:0:
36,192,122073,1,0,0:0:0:0:
402,192,122180,1,0,0:0:0:0:
329,192,122180,1,0,0:0:0:0:
109,192,122288,1,0,0:0:0:0:
182,192,122395,1,0,0:0:0:0:
329,192,122502,1,0,0:0:0:0:
109,192,122609,1,0,0:0:0:0:
36,192,122609,1,0,0:0:0:0:
402,192,122716,1,0,0:0:0:0:
329,192,122823,1,0,0:0:0:0:
402,192,122930,1,0,0:0:0:0:
182,192,123038,1,0,0:0:0:0:
109,192,123038,1,0,0:0:0:0:
402,192,123145,1,0,0:0:0:0:
36,192,123252,1,0,0:0:0:0:
329,192,123359,1,0,0:0:0:0:
402,192,123466,1,0,0:0:0:0:
475,192,123466,1,0,0:0:0:0:
182,192,123573,1,0,0:0:0:0:
109,192,123680,1,0,0:0:0:0:
36,192,123788,1,0,0:0:0:0:
402,192,123895,1,0,0:0:0:0:
329,192,123895,1,0,0:0:0:0:
475,192,124002,1,0,0:0:0:0:
402,192,124109,1,0,0:0:0:0:
329,192,124216,1,0,0:0:0:0:
182,192,124323,1,0,0:0:0:0:
109,192,124323,1,0,0:0:0:0:
36,192,124430,1,0,0:0:0:0:
109,192,124538,1,0,0:0:0:0:
182,192,124645,1,0,0:0:0:0:
402,192,124752,1,0,0:0:0:0:
329,192,124752,1,0,0:0:0:0:
36,192,124859,1,0,0:0:0:0:
475,192,124859,1,0,0:0:0:0:
109,192,124966,1,0,0:0:0:0:
402,192,124966,1,0,0:0:0:0:
182,192,125073,1,0,0:0:0:0:
329,192,125073,1,0,0:0:0:0:
182,192,125180,128,0,131609:0:0:0:0:
329,192,125180,128,0,131609:0:0:0:0:
402,192,125180,128,0,131609:0:0:0:0:
475,192,125180,128,0,131609:0:0:0:0:
109,192,125180,128,0,131609:0:0:0:0:
36,192,125180,128,0,131609:0:0:0:0:
