osu file format v14

[General]
AudioFilename: BEAT-NEW-WORLD.mp3
AudioLeadIn: 0
PreviewTime: 52984
Countdown: 0
SampleSet: Soft
StackLeniency: 0.7
Mode: 3
LetterboxInBreaks: 0
SpecialStyle: 0
WidescreenStoryboard: 1

[Editor]
DistanceSpacing: 0.8
BeatDivisor: 4
GridSize: 16
TimelineZoom: 2.3

[Metadata]
Title:BEAT-NEW-WORLD
TitleUnicode:BEAT-NEW-WORLD
Artist:Beatmario (COOL & CREATE)
ArtistUnicode:ビートまりお (COOL & CREATE)
Creator:Feerum
Version:Sora's ADVANCED Lv.10
Source:SOUND VOLTEX III GRAVITY WARS
Tags:KONAMI BEMANI sdvx Touhou Project ZUN 懐かしき東方の血 ~ Old World, stage 3 theme 東方永夜抄 ~ Imperishable Night kamishirasawa keine BeatStream jubeat prop REFLEC BEAT groovin'!! Upper ijinjin jinjin -SoraGami- Bad_Apple instrumental electronic BEMANI×東方Project Ultimate MasterPieces
BeatmapID:704101
BeatmapSetID:315640

[Difficulty]
HPDrainRate:7.5
CircleSize:4
OverallDifficulty:7.5
ApproachRate:10
SliderMultiplier:1.4
SliderTickRate:1

[Events]
//Background and Video events
0,0,"BG ADV.jpg",0,0
//Break Periods
//Storyboard Layer 0 (Background)
//Storyboard Layer 1 (Fail)
//Storyboard Layer 2 (Pass)
//Storyboard Layer 3 (Foreground)
//Storyboard Layer 4 (Overlay)
//Storyboard Sound Samples
Sample,4116,0,"soft-hitwhistle.wav",30
Sample,4195,0,"soft-hitwhistle.wav",30
Sample,4274,0,"soft-hitwhistle.wav",30
Sample,6327,0,"soft-hitwhistle.wav",30
Sample,6405,0,"soft-hitwhistle.wav",30
Sample,6484,0,"soft-hitwhistle.wav",30
Sample,6563,0,"soft-hitwhistle.wav",30
Sample,6642,0,"soft-hitwhistle.wav",30
Sample,6721,0,"soft-hitwhistle.wav",30
Sample,6800,0,"soft-hitwhistle.wav",30
Sample,16669,0,"soft-hitclap.wav",35
Sample,16748,0,"soft-hitwhistle.wav",30
Sample,16827,0,"soft-hitwhistle.wav",30
Sample,16905,0,"soft-hitwhistle.wav",30
Sample,21563,0,"soft-hitwhistle.wav",30
Sample,21800,0,"soft-hitwhistle.wav",30
Sample,21879,0,"soft-hitwhistle.wav",30
Sample,21958,0,"soft-hitwhistle.wav",30
Sample,25905,0,"soft-hitwhistle.wav",30
Sample,25984,0,"soft-hitwhistle.wav",30
Sample,26063,0,"soft-hitwhistle.wav",30
Sample,26774,0,"soft-hitwhistle.wav",30
Sample,26853,0,"soft-hitwhistle.wav",30
Sample,27011,0,"soft-hitwhistle.wav",30
Sample,28432,0,"soft-hitwhistle.wav",30
Sample,28511,0,"soft-hitwhistle.wav",30
Sample,28590,0,"soft-hitwhistle.wav",30
Sample,29932,0,"soft-hitclap.wav",35
Sample,31195,0,"soft-hitclap.wav",35
Sample,31511,0,"soft-hitwhistle.wav",30
Sample,42011,0,"soft-hitwhistle.wav",30
Sample,42090,0,"soft-hitwhistle.wav",30
Sample,42169,0,"soft-hitwhistle.wav",30
Sample,42327,0,"soft-hitwhistle.wav",30
Sample,42405,0,"soft-hitwhistle.wav",30
Sample,42484,0,"soft-hitwhistle.wav",30
Sample,44537,0,"soft-hitwhistle.wav",30
Sample,44616,0,"soft-hitwhistle.wav",30
Sample,44695,0,"soft-hitwhistle.wav",30
Sample,45090,0,"soft-hitwhistle.wav",30
Sample,53379,0,"soft-hitwhistle.wav",30
Sample,53458,0,"soft-hitwhistle.wav",30
Sample,53537,0,"soft-hitwhistle.wav",30
Sample,63248,0,"soft-hitwhistle.wav",30
Sample,63721,0,"soft-hitfinish.wav",25
Sample,66353,0,"soft-hitwhistle.wav",30
Sample,66458,0,"soft-hitwhistle.wav",30
Sample,66721,0,"soft-hitwhistle.wav",30
Sample,71616,0,"soft-hitclap.wav",35
Sample,72248,0,"soft-hitclap.wav",35
Sample,96248,0,"soft-hitwhistle.wav",30
Sample,97827,0,"soft-hitwhistle.wav",30
Sample,99800,0,"soft-hitwhistle.wav",30
Sample,99958,0,"soft-hitwhistle.wav",30
Sample,102563,0,"soft-hitclap.wav",35
Sample,107300,0,"soft-hitwhistle.wav",30
Sample,108958,0,"soft-hitwhistle.wav",30
Sample,109037,0,"soft-hitwhistle.wav",30
Sample,109116,0,"soft-hitwhistle.wav",30
Sample,110774,0,"soft-hitclap.wav",35

[TimingPoints]
1827,315.789473684211,4,2,0,40,1,0
53616,-100,4,2,0,40,0,1
73827,-100,4,2,0,40,0,0

[HitObjects]
64,192,1827,5,0,0:0:0:60:soft-hitwhistle.wav
448,192,1827,1,0,0:0:0:55:soft-hitfinish.wav
320,192,1984,1,0,0:0:0:0:
192,192,2063,1,0,0:0:0:0:
448,192,2142,1,0,0:0:0:0:
64,192,2300,1,0,0:0:0:0:
320,192,2458,1,0,0:0:0:0:
64,192,2616,1,0,0:0:0:0:
448,192,2695,1,0,0:0:0:0:
192,192,2774,1,0,0:0:0:0:
320,192,2932,1,0,0:0:0:0:
64,192,3090,1,0,0:0:0:0:
448,192,3248,1,0,0:0:0:0:
192,192,3327,1,0,0:0:0:0:
320,192,3405,1,0,0:0:0:0:
64,192,3563,1,0,0:0:0:0:
448,192,3721,1,0,0:0:0:60:soft-hitwhistle.wav
448,192,3879,1,0,0:0:0:60:soft-hitwhistle.wav
192,192,4037,128,0,4353:0:0:0:60:soft-hitwhistle.wav
320,192,4353,1,0,0:0:0:0:
64,192,4511,1,0,0:0:0:0:
448,192,4590,1,0,0:0:0:0:
192,192,4669,1,0,0:0:0:0:
320,192,4827,1,0,0:0:0:0:
64,192,4984,1,0,0:0:0:0:
448,192,5142,1,0,0:0:0:0:
192,192,5221,1,0,0:0:0:0:
320,192,5300,1,0,0:0:0:0:
64,192,5458,1,0,0:0:0:0:
448,192,5616,1,0,0:0:0:0:
192,192,5774,1,0,0:0:0:0:
320,192,5853,1,0,0:0:0:0:
64,192,5932,1,0,0:0:0:0:
448,192,6090,1,0,0:0:0:0:
192,192,6248,128,0,6879:0:0:0:60:soft-hitwhistle.wav
448,192,6879,1,0,0:0:0:60:soft-hitwhistle.wav
64,192,6879,1,0,0:0:0:0:
320,192,7037,1,0,0:0:0:0:
192,192,7116,1,0,0:0:0:0:
448,192,7195,1,0,0:0:0:0:
64,192,7353,1,0,0:0:0:0:
320,192,7511,1,0,0:0:0:0:
192,192,7669,1,0,0:0:0:0:
448,192,7748,1,0,0:0:0:0:
64,192,7827,1,0,0:0:0:0:
320,192,7984,1,0,0:0:0:0:
448,192,8142,1,0,0:0:0:60:soft-hitwhistle.wav
64,192,8142,1,0,0:0:0:0:
192,192,8300,1,0,0:0:0:0:
320,192,8379,1,0,0:0:0:0:
448,192,8458,1,0,0:0:0:0:
64,192,8616,1,0,0:0:0:0:
320,192,8774,1,0,0:0:0:0:
192,192,8932,1,0,0:0:0:0:
448,192,9090,1,0,0:0:0:0:
320,192,9248,1,0,0:0:0:0:
448,192,9405,1,0,0:0:0:60:soft-hitwhistle.wav
192,192,9405,1,0,0:0:0:30:normal-hitfinish.wav
64,192,9405,1,0,0:0:0:0:
320,192,9563,1,0,0:0:0:0:
64,192,9642,1,0,0:0:0:0:
448,192,9721,1,0,0:0:0:0:
192,192,9879,1,0,0:0:0:0:
448,192,10037,1,0,0:0:0:60:soft-hitwhistle.wav
320,192,10037,1,0,0:0:0:30:normal-hitfinish.wav
64,192,10037,1,0,0:0:0:0:
192,192,10195,1,0,0:0:0:0:
448,192,10274,1,0,0:0:0:0:
64,192,10353,1,0,0:0:0:0:
320,192,10511,128,0,10984:0:0:0:0:
192,192,10511,1,0,0:0:0:0:
448,192,10827,1,0,0:0:0:0:
192,192,10984,128,0,11300:0:0:0:0:
64,192,10984,1,0,0:0:0:0:
320,192,11142,1,0,0:0:0:0:
64,192,11300,128,0,11616:0:0:0:0:
448,192,11300,1,0,0:0:0:0:
192,192,11458,1,0,0:0:0:0:
448,192,11616,128,0,11932:0:0:0:0:
320,192,11616,1,0,0:0:0:0:
192,192,11774,1,0,0:0:0:0:
320,192,11932,1,0,0:0:0:60:soft-hitwhistle.wav
64,192,11932,1,0,0:0:0:55:soft-hitfinish.wav
192,192,12090,1,0,0:0:0:0:
448,192,12169,1,0,0:0:0:0:
64,192,12248,1,0,0:0:0:70:soft-hitclap.wav
320,192,12405,1,0,0:0:0:0:
192,192,12563,1,0,0:0:0:60:soft-hitwhistle.wav
64,192,12563,1,0,0:0:0:0:
448,192,12721,1,0,0:0:0:0:
64,192,12800,1,0,0:0:0:0:
320,192,12879,1,0,0:0:0:70:soft-hitclap.wav
192,192,13037,1,0,0:0:0:0:
448,192,13195,1,0,0:0:0:60:soft-hitwhistle.wav
320,192,13195,1,0,0:0:0:0:
64,192,13353,1,0,0:0:0:0:
320,192,13432,1,0,0:0:0:0:
192,192,13511,1,0,0:0:0:70:soft-hitclap.wav
448,192,13669,1,0,0:0:0:0:
192,192,13827,1,0,0:0:0:60:soft-hitwhistle.wav
64,192,13827,1,0,0:0:0:30:normal-hitfinish.wav
320,192,13984,1,0,0:0:0:30:normal-hitfinish.wav
448,192,13984,1,0,0:0:0:0:
192,192,14142,1,0,0:0:0:70:soft-hitclap.wav
64,192,14142,1,0,0:0:0:30:normal-hitfinish.wav
320,192,14300,1,0,0:0:0:30:normal-hitfinish.wav
448,192,14300,1,0,0:0:0:0:
64,192,14458,1,0,0:0:0:60:soft-hitwhistle.wav
192,192,14458,1,0,0:0:0:30:normal-hitfinish.wav
448,192,14616,1,0,0:0:0:0:
192,192,14695,1,0,0:0:0:0:
320,192,14774,1,0,0:0:0:70:soft-hitclap.wav
64,192,14932,1,0,0:0:0:0:
448,192,15090,1,0,0:0:0:60:soft-hitwhistle.wav
320,192,15090,1,0,0:0:0:0:
192,192,15248,1,0,0:0:0:0:
320,192,15327,1,0,0:0:0:0:
64,192,15405,1,0,0:0:0:70:soft-hitclap.wav
448,192,15563,1,0,0:0:0:0:
192,192,15721,1,0,0:0:0:60:soft-hitwhistle.wav
64,192,15721,1,0,0:0:0:0:
320,192,15879,1,0,0:0:0:0:
64,192,15958,1,0,0:0:0:0:
448,192,16037,1,0,0:0:0:70:soft-hitclap.wav
192,192,16195,1,0,0:0:0:0:
320,192,16353,1,0,0:0:0:60:soft-hitwhistle.wav
448,192,16353,1,0,0:0:0:30:normal-hitfinish.wav
192,192,16511,1,0,0:0:0:30:normal-hitfinish.wav
64,192,16511,1,0,0:0:0:0:
448,192,16669,1,0,0:0:0:60:soft-hitwhistle.wav
320,192,16669,128,0,16984:0:0:0:30:normal-hitfinish.wav
64,192,16984,1,0,0:0:0:60:soft-hitwhistle.wav
192,192,16984,1,0,0:0:0:55:soft-hitfinish.wav
448,192,17142,1,0,0:0:0:0:
192,192,17221,1,0,0:0:0:0:
320,192,17300,1,0,0:0:0:70:soft-hitclap.wav
64,192,17458,1,0,0:0:0:0:
448,192,17616,1,0,0:0:0:60:soft-hitwhistle.wav
320,192,17616,1,0,0:0:0:0:
192,192,17774,1,0,0:0:0:0:
320,192,17853,1,0,0:0:0:0:
64,192,17932,1,0,0:0:0:70:soft-hitclap.wav
448,192,18090,1,0,0:0:0:0:
192,192,18248,1,0,0:0:0:60:soft-hitwhistle.wav
64,192,18248,1,0,0:0:0:0:
320,192,18405,1,0,0:0:0:0:
64,192,18484,1,0,0:0:0:0:
448,192,18563,1,0,0:0:0:70:soft-hitclap.wav
192,192,18721,1,0,0:0:0:0:
320,192,18879,1,0,0:0:0:60:soft-hitwhistle.wav
64,192,18879,1,0,0:0:0:30:normal-hitfinish.wav
448,192,19037,1,0,0:0:0:30:normal-hitfinish.wav
192,192,19037,1,0,0:0:0:0:
320,192,19195,1,0,0:0:0:70:soft-hitclap.wav
64,192,19195,1,0,0:0:0:30:normal-hitfinish.wav
192,192,19353,1,0,0:0:0:30:normal-hitfinish.wav
448,192,19353,1,0,0:0:0:0:
320,192,19511,1,0,0:0:0:60:soft-hitwhistle.wav
64,192,19511,128,0,20142:0:0:0:30:normal-hitfinish.wav
192,192,19669,1,0,0:0:0:0:
320,192,19748,1,0,0:0:0:0:
448,192,19827,1,0,0:0:0:70:soft-hitclap.wav
320,192,19984,1,0,0:0:0:0:
192,192,20142,1,0,0:0:0:30:normal-hitfinish.wav
448,192,20142,128,0,20774:0:0:0:60:soft-hitwhistle.wav
320,192,20300,1,0,0:0:0:0:
192,192,20379,1,0,0:0:0:0:
64,192,20458,1,0,0:0:0:70:soft-hitclap.wav
192,192,20616,1,0,0:0:0:0:
320,192,20774,1,0,0:0:0:60:soft-hitwhistle.wav
64,192,20774,1,0,0:0:0:0:
192,192,21011,1,0,0:0:0:60:soft-hitwhistle.wav
448,192,21011,1,0,0:0:0:0:
192,192,21248,1,0,0:0:0:60:soft-hitwhistle.wav
64,192,21248,1,0,0:0:0:0:
320,192,21405,1,0,0:0:0:60:soft-hitwhistle.wav
448,192,21405,1,0,0:0:0:0:
192,192,21721,128,0,22037:0:0:0:60:soft-hitwhistle.wav
320,192,21721,1,0,0:0:0:0:
64,192,22037,1,0,0:0:0:60:soft-hitwhistle.wav
448,192,22037,1,0,0:0:0:55:soft-hitfinish.wav
320,192,22195,1,0,0:0:0:0:
192,192,22353,1,0,0:0:0:70:soft-hitclap.wav
64,192,22353,1,0,0:0:0:0:
448,192,22511,1,0,0:0:0:0:
64,192,22669,1,0,0:0:0:60:soft-hitwhistle.wav
320,192,22669,1,0,0:0:0:0:
192,192,22827,1,0,0:0:0:0:
320,192,22984,1,0,0:0:0:70:soft-hitclap.wav
448,192,22984,1,0,0:0:0:0:
64,192,23142,1,0,0:0:0:0:
192,192,23300,128,0,23616:0:0:0:60:soft-hitwhistle.wav
448,192,23300,1,0,0:0:0:0:
320,192,23458,1,0,0:0:0:0:
448,192,23616,128,0,23932:0:0:0:70:soft-hitclap.wav
64,192,23616,1,0,0:0:0:0:
320,192,23932,1,0,0:0:0:60:soft-hitwhistle.wav
192,192,23932,1,0,0:0:0:30:normal-hitfinish.wav
64,192,24090,1,0,0:0:0:30:normal-hitfinish.wav
448,192,24090,1,0,0:0:0:0:
320,192,24248,1,0,0:0:0:70:soft-hitclap.wav
192,192,24248,1,0,0:0:0:30:normal-hitfinish.wav
64,192,24405,1,0,0:0:0:30:normal-hitfinish.wav
448,192,24405,1,0,0:0:0:0:
320,192,24563,1,0,0:0:0:60:soft-hitwhistle.wav
192,192,24563,1,0,0:0:0:30:normal-hitfinish.wav
448,192,24721,1,0,0:0:0:0:
64,192,24879,1,0,0:0:0:70:soft-hitclap.wav
192,192,24879,1,0,0:0:0:0:
320,192,25037,1,0,0:0:0:0:
64,192,25195,1,0,0:0:0:60:soft-hitwhistle.wav
448,192,25195,1,0,0:0:0:0:
192,192,25353,1,0,0:0:0:0:
64,192,25511,1,0,0:0:0:70:soft-hitclap.wav
320,192,25511,1,0,0:0:0:0:
448,192,25669,1,0,0:0:0:0:
192,192,25827,128,0,26142:0:0:0:60:soft-hitwhistle.wav
320,192,25827,1,0,0:0:0:0:
64,192,26142,1,0,0:0:0:70:soft-hitclap.wav
448,192,26142,1,0,0:0:0:0:
320,192,26300,1,0,0:0:0:0:
448,192,26458,1,0,0:0:0:60:soft-hitwhistle.wav
64,192,26458,1,0,0:0:0:30:normal-hitfinish.wav
192,192,26616,1,0,0:0:0:30:normal-hitfinish.wav
320,192,26616,1,0,0:0:0:0:
448,192,26774,1,0,0:0:0:70:soft-hitclap.wav
64,192,26774,1,0,0:0:0:30:normal-hitfinish.wav
192,192,26932,1,0,0:0:0:60:soft-hitwhistle.wav
320,192,27090,1,0,0:0:0:60:soft-hitwhistle.wav
448,192,27090,1,0,0:0:0:55:soft-hitfinish.wav
64,192,27248,1,0,0:0:0:0:
192,192,27405,1,0,0:0:0:70:soft-hitclap.wav
320,192,27405,1,0,0:0:0:0:
448,192,27563,1,0,0:0:0:0:
320,192,27721,1,0,0:0:0:60:soft-hitwhistle.wav
64,192,27721,1,0,0:0:0:0:
192,192,27879,1,0,0:0:0:0:
448,192,28037,1,0,0:0:0:70:soft-hitclap.wav
320,192,28037,1,0,0:0:0:0:
64,192,28195,1,0,0:0:0:0:
192,192,28353,128,0,28669:0:0:0:60:soft-hitwhistle.wav
448,192,28353,1,0,0:0:0:0:
448,192,28669,1,0,0:0:0:70:soft-hitclap.wav
64,192,28669,1,0,0:0:0:0:
320,192,28827,1,0,0:0:0:0:
192,192,28984,1,0,0:0:0:60:soft-hitwhistle.wav
64,192,28984,1,0,0:0:0:30:normal-hitfinish.wav
320,192,29142,1,0,0:0:0:30:normal-hitfinish.wav
448,192,29142,1,0,0:0:0:0:
192,192,29300,1,0,0:0:0:70:soft-hitclap.wav
64,192,29300,1,0,0:0:0:30:normal-hitfinish.wav
320,192,29458,1,0,0:0:0:30:normal-hitfinish.wav
448,192,29458,1,0,0:0:0:0:
192,192,29616,1,0,0:0:0:30:normal-hitfinish.wav
64,192,29616,128,0,30090:0:0:0:60:soft-hitwhistle.wav
320,192,30090,1,0,0:0:0:30:normal-hitfinish.wav
448,192,30090,1,0,0:0:0:0:
192,192,30248,1,0,0:0:0:30:normal-hitfinish.wav
448,192,30248,128,0,30563:0:0:0:60:soft-hitwhistle.wav
320,192,30563,1,0,0:0:0:70:soft-hitclap.wav
64,192,30563,1,0,0:0:0:30:normal-hitfinish.wav
192,192,30721,1,0,0:0:0:0:
320,192,30879,1,0,0:0:0:60:soft-hitwhistle.wav
448,192,31037,1,0,0:0:0:30:normal-hitfinish.wav
64,192,31037,1,0,0:0:0:0:
192,192,31353,1,0,0:0:0:30:normal-hitfinish.wav
320,192,31353,1,0,0:0:0:0:
320,192,31669,1,0,0:0:0:30:normal-hitfinish.wav
448,192,31669,1,0,0:0:0:0:
192,192,31827,1,0,0:0:0:30:normal-hitfinish.wav
64,192,31827,1,0,0:0:0:70:soft-hitclap.wav
320,192,31984,1,0,0:0:0:30:normal-hitfinish.wav
448,192,31984,1,0,0:0:0:0:
192,192,32142,1,0,0:0:0:55:soft-hitfinish.wav
64,192,32142,1,0,0:0:0:60:soft-hitwhistle.wav
320,192,32300,1,0,0:0:0:0:
448,192,32458,1,0,0:0:0:60:soft-hitwhistle.wav
64,192,32458,1,0,0:0:0:0:
192,192,32616,1,0,0:0:0:0:
64,192,32774,1,0,0:0:0:60:soft-hitwhistle.wav
320,192,32774,1,0,0:0:0:0:
448,192,32932,1,0,0:0:0:0:
192,192,33090,1,0,0:0:0:60:soft-hitwhistle.wav
64,192,33090,1,0,0:0:0:0:
448,192,33248,1,0,0:0:0:0:
320,192,33405,1,0,0:0:0:60:soft-hitwhistle.wav
64,192,33405,1,0,0:0:0:0:
192,192,33563,1,0,0:0:0:0:
320,192,33721,1,0,0:0:0:60:soft-hitwhistle.wav
448,192,33721,1,0,0:0:0:0:
64,192,33879,1,0,0:0:0:0:
448,192,34037,1,0,0:0:0:60:soft-hitwhistle.wav
192,192,34037,1,0,0:0:0:0:
320,192,34195,1,0,0:0:0:0:
192,192,34353,1,0,0:0:0:60:soft-hitwhistle.wav
64,192,34353,1,0,0:0:0:0:
320,192,34432,1,0,0:0:0:0:
448,192,34511,1,0,0:0:0:0:
64,192,34669,128,0,34984:0:0:0:60:soft-hitwhistle.wav
192,192,34669,1,0,0:0:0:30:normal-hitfinish.wav
320,192,34669,1,0,0:0:0:0:
320,192,34984,128,0,35300:0:0:0:60:soft-hitwhistle.wav
448,192,34984,1,0,0:0:0:0:
448,192,35300,128,0,35616:0:0:0:60:soft-hitwhistle.wav
64,192,35300,1,0,0:0:0:0:
192,192,35616,128,0,35932:0:0:0:60:soft-hitwhistle.wav
320,192,35616,1,0,0:0:0:0:
320,192,35932,128,0,36248:0:0:0:60:soft-hitwhistle.wav
448,192,35932,1,0,0:0:0:0:
64,192,36248,128,0,36563:0:0:0:60:soft-hitwhistle.wav
192,192,36248,1,0,0:0:0:0:
320,192,36405,1,0,0:0:0:0:
448,192,36563,1,0,0:0:0:60:soft-hitwhistle.wav
192,192,36563,1,0,0:0:0:0:
64,192,36721,1,0,0:0:0:0:
448,192,36879,1,0,0:0:0:60:soft-hitwhistle.wav
320,192,36984,1,0,0:0:0:60:soft-hitwhistle.wav
192,192,37090,1,0,0:0:0:60:soft-hitwhistle.wav
64,192,37195,1,0,0:0:0:60:soft-hitwhistle.wav
448,192,37195,1,0,0:0:0:0:
320,192,37353,1,0,0:0:0:0:
192,192,37511,1,0,0:0:0:60:soft-hitwhistle.wav
64,192,37511,1,0,0:0:0:0:
320,192,37669,1,0,0:0:0:0:
64,192,37827,1,0,0:0:0:60:soft-hitwhistle.wav
448,192,37827,1,0,0:0:0:0:
320,192,37905,1,0,0:0:0:0:
192,192,37984,1,0,0:0:0:0:
320,192,38142,1,0,0:0:0:60:soft-hitwhistle.wav
448,192,38142,1,0,0:0:0:0:
64,192,38300,1,0,0:0:0:0:
448,192,38458,1,0,0:0:0:60:soft-hitwhistle.wav
192,192,38458,1,0,0:0:0:0:
320,192,38616,1,0,0:0:0:0:
64,192,38774,1,0,0:0:0:60:soft-hitwhistle.wav
192,192,38774,1,0,0:0:0:0:
448,192,38932,1,0,0:0:0:0:
320,192,39090,1,0,0:0:0:60:soft-hitwhistle.wav
192,192,39090,1,0,0:0:0:0:
64,192,39248,1,0,0:0:0:0:
192,192,39405,1,0,0:0:0:60:soft-hitwhistle.wav
448,192,39405,1,0,0:0:0:0:
320,192,39563,1,0,0:0:0:0:
448,192,39721,1,0,0:0:0:60:soft-hitwhistle.wav
192,192,39721,1,0,0:0:0:30:normal-hitfinish.wav
64,192,39721,1,0,0:0:0:0:
320,192,39879,1,0,0:0:0:0:
448,192,40037,1,0,0:0:0:60:soft-hitwhistle.wav
64,192,40037,1,0,0:0:0:0:
192,192,40195,1,0,0:0:0:0:
320,192,40353,1,0,0:0:0:60:soft-hitwhistle.wav
448,192,40353,1,0,0:0:0:0:
192,192,40432,1,0,0:0:0:0:
64,192,40511,1,0,0:0:0:0:
320,192,40669,1,0,0:0:0:60:soft-hitwhistle.wav
448,192,40669,1,0,0:0:0:0:
192,192,40827,1,0,0:0:0:0:
320,192,40905,1,0,0:0:0:0:
448,192,40984,1,0,0:0:0:60:soft-hitwhistle.wav
64,192,41142,1,0,0:0:0:0:
320,192,41221,1,0,0:0:0:0:
192,192,41300,1,0,0:0:0:60:soft-hitwhistle.wav
320,192,41458,1,0,0:0:0:0:
448,192,41616,128,0,41932:0:0:0:60:soft-hitwhistle.wav
64,192,41616,1,0,0:0:0:0:
192,192,41774,1,0,0:0:0:0:
64,192,41932,128,0,42248:0:0:0:60:soft-hitwhistle.wav
320,192,41932,1,0,0:0:0:0:
320,192,42248,128,0,42563:0:0:0:60:soft-hitwhistle.wav
192,192,42563,1,0,0:0:0:60:soft-hitwhistle.wav
448,192,42563,1,0,0:0:0:0:
320,192,42721,1,0,0:0:0:0:
64,192,42879,1,0,0:0:0:60:soft-hitwhistle.wav
192,192,42879,1,0,0:0:0:0:
448,192,43037,1,0,0:0:0:0:
320,192,43195,1,0,0:0:0:60:soft-hitwhistle.wav
192,192,43195,1,0,0:0:0:0:
64,192,43353,1,0,0:0:0:0:
448,192,43511,1,0,0:0:0:60:soft-hitwhistle.wav
448,192,43669,1,0,0:0:0:60:soft-hitwhistle.wav
448,192,43827,1,0,0:0:0:60:soft-hitwhistle.wav
64,192,43984,1,0,0:0:0:60:soft-hitwhistle.wav
320,192,44142,1,0,0:0:0:60:soft-hitwhistle.wav
192,192,44300,1,0,0:0:0:60:soft-hitwhistle.wav
64,192,44458,128,0,44774:0:0:0:60:soft-hitwhistle.wav
320,192,44458,1,0,0:0:0:0:
448,192,44774,1,0,0:0:0:60:soft-hitwhistle.wav
448,192,45011,1,0,0:0:0:60:soft-hitwhistle.wav
64,192,45248,1,0,0:0:0:60:soft-hitwhistle.wav
192,192,45327,1,0,0:0:0:60:soft-hitwhistle.wav
320,192,45405,1,0,0:0:0:60:soft-hitwhistle.wav
448,192,45563,1,0,0:0:0:60:soft-hitwhistle.wav
192,192,45642,1,0,0:0:0:60:soft-hitwhistle.wav
64,192,45721,128,0,46037:0:0:0:60:soft-hitwhistle.wav
192,192,46037,128,0,46353:0:0:0:60:soft-hitwhistle.wav
320,192,46037,1,0,0:0:0:30:normal-hitfinish.wav
320,192,46353,128,0,46669:0:0:0:30:normal-hitfinish.wav
448,192,46353,1,0,0:0:0:60:soft-hitwhistle.wav
448,192,46669,128,0,46984:0:0:0:60:soft-hitwhistle.wav
64,192,46669,1,0,0:0:0:30:normal-hitfinish.wav
64,192,46984,128,0,47300:0:0:0:30:normal-hitfinish.wav
192,192,46984,1,0,0:0:0:60:soft-hitwhistle.wav
192,192,47300,1,0,0:0:0:60:soft-hitwhistle.wav
320,192,47300,1,0,0:0:0:0:
448,192,47458,1,0,0:0:0:0:
320,192,47616,1,0,0:0:0:60:soft-hitwhistle.wav
64,192,47616,1,0,0:0:0:0:
192,192,47774,1,0,0:0:0:0:
448,192,47932,128,0,48248:0:0:0:60:soft-hitwhistle.wav
320,192,47932,1,0,0:0:0:0:
64,192,48248,128,0,48563:0:0:0:60:soft-hitwhistle.wav
192,192,48248,1,0,0:0:0:0:
448,192,48405,1,0,0:0:0:0:
320,192,48563,1,0,0:0:0:60:soft-hitwhistle.wav
320,192,48721,1,0,0:0:0:60:soft-hitwhistle.wav
192,192,48879,1,0,0:0:0:60:soft-hitwhistle.wav
448,192,49037,1,0,0:0:0:60:soft-hitwhistle.wav
320,192,49195,1,0,0:0:0:60:soft-hitwhistle.wav
64,192,49353,1,0,0:0:0:60:soft-hitwhistle.wav
192,192,49511,1,0,0:0:0:60:soft-hitwhistle.wav
448,192,49511,1,0,0:0:0:0:
320,192,49669,1,0,0:0:0:60:soft-hitwhistle.wav
448,192,49827,1,0,0:0:0:60:soft-hitwhistle.wav
192,192,49827,1,0,0:0:0:30:normal-hitfinish.wav
64,192,49827,1,0,0:0:0:0:
320,192,49984,1,0,0:0:0:0:
192,192,50142,1,0,0:0:0:0:
64,192,50300,1,0,0:0:0:30:normal-hitfinish.wav
320,192,50300,1,0,0:0:0:60:soft-hitwhistle.wav
448,192,50300,1,0,0:0:0:0:
192,192,50458,1,0,0:0:0:0:
64,192,50616,1,0,0:0:0:0:
192,192,50774,1,0,0:0:0:60:soft-hitwhistle.wav
448,192,50774,1,0,0:0:0:30:normal-hitfinish.wav
320,192,50774,1,0,0:0:0:0:
320,192,50932,1,0,0:0:0:0:
64,192,51090,1,0,0:0:0:30:normal-hitfinish.wav
448,192,51090,1,0,0:0:0:60:soft-hitwhistle.wav
192,192,51090,1,0,0:0:0:0:
320,192,51248,1,0,0:0:0:0:
192,192,51405,1,0,0:0:0:0:
64,192,51563,128,0,52037:0:0:0:30:normal-hitfinish.wav
448,192,51563,1,0,0:0:0:60:soft-hitwhistle.wav
320,192,52037,128,0,52353:0:0:0:30:normal-hitfinish.wav
192,192,52037,1,0,0:0:0:60:soft-hitwhistle.wav
448,192,52353,1,0,0:0:0:60:soft-hitwhistle.wav
64,192,52353,1,0,0:0:0:30:normal-hitfinish.wav
192,192,52984,128,0,53616:0:0:0:0:
320,192,53300,128,0,53616:0:0:0:60:soft-hitwhistle.wav
448,192,53616,1,0,0:0:0:60:soft-hitwhistle.wav
64,192,53616,1,0,0:0:0:55:soft-hitfinish.wav
192,192,53774,1,0,0:0:0:0:
320,192,53932,1,0,0:0:0:70:soft-hitclap.wav
448,192,53932,1,0,0:0:0:0:
64,192,54090,1,0,0:0:0:0:
192,192,54248,1,0,0:0:0:60:soft-hitwhistle.wav
448,192,54248,1,0,0:0:0:0:
320,192,54405,1,0,0:0:0:0:
448,192,54563,1,0,0:0:0:70:soft-hitclap.wav
64,192,54563,1,0,0:0:0:0:
320,192,54721,1,0,0:0:0:0:
192,192,54879,1,0,0:0:0:60:soft-hitwhistle.wav
64,192,54879,1,0,0:0:0:0:
448,192,55037,1,0,0:0:0:0:
320,192,55195,1,0,0:0:0:70:soft-hitclap.wav
64,192,55195,1,0,0:0:0:0:
192,192,55353,1,0,0:0:0:0:
448,192,55511,1,0,0:0:0:60:soft-hitwhistle.wav
320,192,55511,1,0,0:0:0:0:
64,192,55669,1,0,0:0:0:0:
192,192,55827,1,0,0:0:0:70:soft-hitclap.wav
320,192,55827,1,0,0:0:0:0:
448,192,55984,1,0,0:0:0:0:
192,192,56142,1,0,0:0:0:60:soft-hitwhistle.wav
64,192,56142,128,0,56458:0:0:0:30:normal-hitfinish.wav
320,192,56300,1,0,0:0:0:0:
448,192,56458,1,0,0:0:0:30:normal-hitfinish.wav
192,192,56458,128,0,56774:0:0:0:70:soft-hitclap.wav
64,192,56616,1,0,0:0:0:0:
320,192,56774,1,0,0:0:0:30:normal-hitfinish.wav
448,192,56774,1,0,0:0:0:60:soft-hitwhistle.wav
192,192,56932,1,0,0:0:0:30:normal-hitfinish.wav
64,192,56932,1,0,0:0:0:0:
320,192,57090,1,0,0:0:0:70:soft-hitclap.wav
192,192,57248,128,0,57721:0:0:0:0:
448,192,57405,1,0,0:0:0:60:soft-hitwhistle.wav
64,192,57563,1,0,0:0:0:0:
448,192,57721,128,0,58037:0:0:0:30:normal-hitfinish.wav
320,192,57721,1,0,0:0:0:60:soft-hitwhistle.wav
64,192,57879,1,0,0:0:0:0:
320,192,58037,128,0,58353:0:0:0:30:normal-hitfinish.wav
192,192,58037,1,0,0:0:0:60:soft-hitwhistle.wav
64,192,58195,1,0,0:0:0:0:
192,192,58353,128,0,58669:0:0:0:30:normal-hitfinish.wav
448,192,58353,1,0,0:0:0:60:soft-hitwhistle.wav
320,192,58511,1,0,0:0:0:60:soft-hitwhistle.wav
448,192,58669,1,0,0:0:0:60:soft-hitwhistle.wav
64,192,58669,1,0,0:0:0:0:
192,192,58827,1,0,0:0:0:0:
320,192,58984,1,0,0:0:0:70:soft-hitclap.wav
448,192,58984,1,0,0:0:0:0:
192,192,59142,1,0,0:0:0:0:
64,192,59300,1,0,0:0:0:60:soft-hitwhistle.wav
448,192,59300,1,0,0:0:0:0:
320,192,59458,1,0,0:0:0:0:
192,192,59616,1,0,0:0:0:70:soft-hitclap.wav
448,192,59616,1,0,0:0:0:0:
320,192,59774,1,0,0:0:0:0:
192,192,59932,1,0,0:0:0:60:soft-hitwhistle.wav
64,192,59932,128,0,60248:0:0:0:30:normal-hitfinish.wav
448,192,60090,1,0,0:0:0:0:
192,192,60248,128,0,60563:0:0:0:30:normal-hitfinish.wav
320,192,60248,1,0,0:0:0:70:soft-hitclap.wav
64,192,60405,1,0,0:0:0:0:
448,192,60563,1,0,0:0:0:30:normal-hitfinish.wav
320,192,60563,128,0,60879:0:0:0:60:soft-hitwhistle.wav
192,192,60721,1,0,0:0:0:0:
64,192,60879,1,0,0:0:0:70:soft-hitclap.wav
448,192,60879,128,0,61195:0:0:0:30:normal-hitfinish.wav
320,192,61037,1,0,0:0:0:0:
192,192,61195,1,0,0:0:0:60:soft-hitwhistle.wav
64,192,61195,1,0,0:0:0:0:
320,192,61353,1,0,0:0:0:0:
448,192,61511,1,0,0:0:0:70:soft-hitclap.wav
64,192,61511,1,0,0:0:0:0:
192,192,61669,1,0,0:0:0:0:
320,192,61827,1,0,0:0:0:60:soft-hitwhistle.wav
448,192,61827,1,0,0:0:0:0:
64,192,61984,1,0,0:0:0:0:
192,192,62142,1,0,0:0:0:70:soft-hitclap.wav
448,192,62142,1,0,0:0:0:0:
320,192,62300,1,0,0:0:0:0:
192,192,62458,1,0,0:0:0:60:soft-hitwhistle.wav
64,192,62458,1,0,0:0:0:30:normal-hitfinish.wav
64,192,62616,1,0,0:0:0:30:normal-hitfinish.wav
448,192,62616,128,0,63405:0:0:0:60:soft-hitwhistle.wav
64,192,62932,128,0,63405:0:0:0:60:soft-hitwhistle.wav
192,192,63405,1,0,0:0:0:60:soft-hitwhistle.wav
320,192,63405,1,0,0:0:0:30:normal-hitfinish.wav
192,192,63563,1,0,0:0:0:60:soft-hitwhistle.wav
448,192,63721,128,0,63879:0:0:0:60:soft-hitwhistle.wav
320,192,63879,1,0,0:0:0:30:normal-hitfinish.wav
64,192,63879,1,0,0:0:0:0:
192,192,64037,128,0,64195:0:0:0:60:soft-hitwhistle.wav
320,192,64195,1,0,0:0:0:30:normal-hitfinish.wav
448,192,64195,1,0,0:0:0:0:
64,192,64353,128,0,64511:0:0:0:60:soft-hitwhistle.wav
192,192,64511,1,0,0:0:0:30:normal-hitfinish.wav
448,192,64511,1,0,0:0:0:0:
320,192,64669,128,0,64827:0:0:0:60:soft-hitwhistle.wav
192,192,64827,1,0,0:0:0:30:normal-hitfinish.wav
64,192,64827,1,0,0:0:0:0:
448,192,64984,128,0,65142:0:0:0:60:soft-hitwhistle.wav
320,192,65142,1,0,0:0:0:30:normal-hitfinish.wav
64,192,65142,1,0,0:0:0:0:
192,192,65300,128,0,65458:0:0:0:60:soft-hitwhistle.wav
320,192,65458,1,0,0:0:0:30:normal-hitfinish.wav
448,192,65458,1,0,0:0:0:0:
64,192,65616,128,0,65774:0:0:0:60:soft-hitwhistle.wav
192,192,65774,1,0,0:0:0:30:normal-hitfinish.wav
448,192,65774,1,0,0:0:0:0:
320,192,65932,128,0,66090:0:0:0:60:soft-hitwhistle.wav
448,192,66090,1,0,0:0:0:30:normal-hitfinish.wav
192,192,66090,1,0,0:0:0:0:
64,192,66248,128,0,66563:0:0:0:60:soft-hitwhistle.wav
448,192,66563,128,0,66879:0:0:0:60:soft-hitwhistle.wav
192,192,66879,1,0,0:0:0:60:soft-hitwhistle.wav
64,192,66879,1,0,0:0:0:30:normal-hitfinish.wav
448,192,67037,1,0,0:0:0:60:soft-hitwhistle.wav
320,192,67037,1,0,0:0:0:30:normal-hitfinish.wav
192,192,67195,1,0,0:0:0:60:soft-hitwhistle.wav
64,192,67353,1,0,0:0:0:0:
448,192,67511,128,0,67827:0:0:0:60:soft-hitwhistle.wav
320,192,67669,1,0,0:0:0:0:
64,192,67827,128,0,68142:0:0:0:30:normal-hitfinish.wav
192,192,67827,1,0,0:0:0:70:soft-hitclap.wav
448,192,67984,1,0,0:0:0:0:
320,192,68142,1,0,0:0:0:30:normal-hitfinish.wav
192,192,68142,128,0,68458:0:0:0:60:soft-hitwhistle.wav
64,192,68300,1,0,0:0:0:0:
320,192,68458,128,0,68774:0:0:0:30:normal-hitfinish.wav
448,192,68458,1,0,0:0:0:70:soft-hitclap.wav
192,192,68616,1,0,0:0:0:0:
64,192,68774,128,0,69090:0:0:0:60:soft-hitwhistle.wav
448,192,68774,1,0,0:0:0:30:normal-hitfinish.wav
320,192,68932,1,0,0:0:0:0:
192,192,69090,1,0,0:0:0:70:soft-hitclap.wav
448,192,69090,1,0,0:0:0:0:
320,192,69248,128,0,69563:0:0:0:0:
64,192,69405,1,0,0:0:0:60:soft-hitwhistle.wav
448,192,69563,1,0,0:0:0:0:
192,192,69721,1,0,0:0:0:70:soft-hitclap.wav
64,192,69721,1,0,0:0:0:0:
448,192,69879,1,0,0:0:0:0:
192,192,70037,1,0,0:0:0:60:soft-hitwhistle.wav
320,192,70037,1,0,0:0:0:0:
64,192,70195,1,0,0:0:0:0:
320,192,70353,128,0,70669:0:0:0:60:soft-hitwhistle.wav
192,192,70353,1,0,0:0:0:30:normal-hitfinish.wav
448,192,70511,1,0,0:0:0:0:
192,192,70669,128,0,70984:0:0:0:30:normal-hitfinish.wav
64,192,70669,1,0,0:0:0:60:soft-hitwhistle.wav
320,192,70827,1,0,0:0:0:0:
448,192,70984,1,0,0:0:0:60:soft-hitwhistle.wav
64,192,70984,128,0,71300:0:0:0:30:normal-hitfinish.wav
192,192,71142,1,0,0:0:0:0:
448,192,71300,128,0,71932:0:0:0:60:soft-hitwhistle.wav
320,192,71300,1,0,0:0:0:0:
64,192,71932,1,0,0:0:0:60:soft-hitwhistle.wav
192,192,72169,1,0,0:0:0:0:
320,192,72405,1,0,0:0:0:0:
448,192,72563,1,0,0:0:0:60:soft-hitwhistle.wav
64,192,72563,128,0,73037:0:0:0:30:normal-hitfinish.wav
192,192,73037,128,0,73511:0:0:0:60:soft-hitwhistle.wav
320,192,73037,1,0,0:0:0:30:normal-hitfinish.wav
64,192,73511,1,0,0:0:0:60:soft-hitwhistle.wav
448,192,73511,128,0,73669:0:0:0:30:normal-hitfinish.wav
320,192,73669,128,0,73827:0:0:0:60:soft-hitwhistle.wav
192,192,73827,1,0,0:0:0:60:soft-hitwhistle.wav
64,192,73827,1,0,0:0:0:55:soft-hitfinish.wav
448,192,73984,1,0,0:0:0:0:
320,192,74142,1,0,0:0:0:70:soft-hitclap.wav
64,192,74142,1,0,0:0:0:0:
192,192,74300,1,0,0:0:0:0:
448,192,74458,1,0,0:0:0:60:soft-hitwhistle.wav
64,192,74458,1,0,0:0:0:0:
320,192,74616,1,0,0:0:0:0:
192,192,74774,1,0,0:0:0:70:soft-hitclap.wav
64,192,74774,1,0,0:0:0:0:
320,192,74932,1,0,0:0:0:0:
448,192,75090,1,0,0:0:0:60:soft-hitwhistle.wav
64,192,75090,1,0,0:0:0:0:
192,192,75248,1,0,0:0:0:0:
320,192,75405,1,0,0:0:0:70:soft-hitclap.wav
448,192,75405,1,0,0:0:0:0:
64,192,75563,128,0,75879:0:0:0:0:
192,192,75721,1,0,0:0:0:60:soft-hitwhistle.wav
448,192,75879,1,0,0:0:0:0:
320,192,76037,1,0,0:0:0:70:soft-hitclap.wav
192,192,76037,1,0,0:0:0:0:
64,192,76195,1,0,0:0:0:0:
448,192,76353,1,0,0:0:0:60:soft-hitwhistle.wav
192,192,76353,1,0,0:0:0:0:
64,192,76511,1,0,0:0:0:0:
320,192,76669,1,0,0:0:0:70:soft-hitclap.wav
448,192,76669,1,0,0:0:0:0:
192,192,76827,128,0,77142:0:0:0:0:
64,192,76984,1,0,0:0:0:60:soft-hitwhistle.wav
320,192,77142,1,0,0:0:0:0:
192,192,77300,1,0,0:0:0:70:soft-hitclap.wav
448,192,77300,1,0,0:0:0:0:
64,192,77458,128,0,77774:0:0:0:0:
192,192,77616,1,0,0:0:0:60:soft-hitwhistle.wav
320,192,77616,1,0,0:0:0:0:
448,192,77774,128,0,77932:0:0:0:0:
320,192,77932,1,0,0:0:0:70:soft-hitclap.wav
192,192,77932,128,0,78090:0:0:0:0:
64,192,78090,128,0,78248:0:0:0:0:
320,192,78248,128,0,78563:0:0:0:60:soft-hitwhistle.wav
448,192,78248,1,0,0:0:0:0:
192,192,78405,1,0,0:0:0:0:
448,192,78563,1,0,0:0:0:70:soft-hitclap.wav
64,192,78563,1,0,0:0:0:30:normal-hitfinish.wav
192,192,78721,1,0,0:0:0:0:
320,192,78879,1,0,0:0:0:60:soft-hitwhistle.wav
448,192,78879,1,0,0:0:0:55:soft-hitfinish.wav
64,192,79037,1,0,0:0:0:0:
192,192,79116,1,0,0:0:0:0:
448,192,79195,1,0,0:0:0:70:soft-hitclap.wav
320,192,79353,1,0,0:0:0:0:
192,192,79432,1,0,0:0:0:0:
64,192,79511,1,0,0:0:0:60:soft-hitwhistle.wav
192,192,79669,1,0,0:0:0:0:
320,192,79748,1,0,0:0:0:0:
448,192,79827,1,0,0:0:0:70:soft-hitclap.wav
192,192,79984,1,0,0:0:0:0:
320,192,80063,1,0,0:0:0:0:
64,192,80142,1,0,0:0:0:60:soft-hitwhistle.wav
448,192,80142,1,0,0:0:0:0:
320,192,80300,1,0,0:0:0:0:
192,192,80458,1,0,0:0:0:70:soft-hitclap.wav
448,192,80458,128,0,80774:0:0:0:30:normal-hitfinish.wav
64,192,80616,1,0,0:0:0:0:
320,192,80774,128,0,81090:0:0:0:60:soft-hitwhistle.wav
192,192,80774,1,0,0:0:0:0:
448,192,80932,1,0,0:0:0:0:
192,192,81090,128,0,81405:0:0:0:30:normal-hitfinish.wav
64,192,81090,1,0,0:0:0:70:soft-hitclap.wav
320,192,81248,1,0,0:0:0:0:
448,192,81405,1,0,0:0:0:60:soft-hitwhistle.wav
64,192,81405,1,0,0:0:0:0:
320,192,81563,1,0,0:0:0:0:
192,192,81721,1,0,0:0:0:70:soft-hitclap.wav
64,192,81721,1,0,0:0:0:0:
448,192,81879,1,0,0:0:0:0:
320,192,82037,1,0,0:0:0:60:soft-hitwhistle.wav
192,192,82037,1,0,0:0:0:0:
64,192,82195,1,0,0:0:0:0:
448,192,82353,1,0,0:0:0:70:soft-hitclap.wav
192,192,82353,1,0,0:0:0:0:
64,192,82511,1,0,0:0:0:0:
448,192,82669,128,0,82984:0:0:0:60:soft-hitwhistle.wav
320,192,82669,1,0,0:0:0:30:normal-hitfinish.wav
320,192,82984,128,0,83300:0:0:0:70:soft-hitclap.wav
192,192,82984,1,0,0:0:0:30:normal-hitfinish.wav
192,192,83300,128,0,83616:0:0:0:60:soft-hitwhistle.wav
64,192,83300,1,0,0:0:0:30:normal-hitfinish.wav
64,192,83616,128,0,83932:0:0:0:30:normal-hitfinish.wav
448,192,83616,1,0,0:0:0:70:soft-hitclap.wav
320,192,83932,1,0,0:0:0:60:soft-hitwhistle.wav
448,192,83932,1,0,0:0:0:55:soft-hitfinish.wav
192,192,84090,1,0,0:0:0:0:
64,192,84248,1,0,0:0:0:70:soft-hitclap.wav
448,192,84248,1,0,0:0:0:0:
320,192,84405,1,0,0:0:0:0:
448,192,84563,1,0,0:0:0:60:soft-hitwhistle.wav
192,192,84563,1,0,0:0:0:0:
64,192,84721,1,0,0:0:0:0:
192,192,84879,1,0,0:0:0:70:soft-hitclap.wav
320,192,84879,1,0,0:0:0:0:
448,192,85037,1,0,0:0:0:0:
320,192,85195,1,0,0:0:0:60:soft-hitwhistle.wav
64,192,85195,1,0,0:0:0:0:
192,192,85353,1,0,0:0:0:0:
320,192,85511,1,0,0:0:0:70:soft-hitclap.wav
448,192,85511,1,0,0:0:0:0:
64,192,85669,1,0,0:0:0:0:
192,192,85827,1,0,0:0:0:60:soft-hitwhistle.wav
448,192,85827,1,0,0:0:0:30:normal-hitfinish.wav
320,192,85984,1,0,0:0:0:30:normal-hitfinish.wav
64,192,85984,1,0,0:0:0:0:
192,192,86142,1,0,0:0:0:70:soft-hitclap.wav
448,192,86142,1,0,0:0:0:30:normal-hitfinish.wav
320,192,86300,1,0,0:0:0:30:normal-hitfinish.wav
64,192,86300,1,0,0:0:0:0:
448,192,86458,128,0,87721:0:0:0:30:normal-hitfinish.wav
192,192,86458,1,0,0:0:0:60:soft-hitwhistle.wav
64,192,86616,1,0,0:0:0:0:
320,192,86774,1,0,0:0:0:60:soft-hitwhistle.wav
192,192,86932,1,0,0:0:0:0:
320,192,87090,1,0,0:0:0:60:soft-hitwhistle.wav
64,192,87248,1,0,0:0:0:0:
320,192,87405,1,0,0:0:0:60:soft-hitwhistle.wav
192,192,87563,1,0,0:0:0:0:
64,192,87721,1,0,0:0:0:60:soft-hitwhistle.wav
320,192,87721,1,0,0:0:0:0:
192,192,87879,1,0,0:0:0:0:
448,192,88037,1,0,0:0:0:70:soft-hitclap.wav
64,192,88037,1,0,0:0:0:0:
320,192,88195,1,0,0:0:0:0:
192,192,88353,128,0,88669:0:0:0:60:soft-hitwhistle.wav
64,192,88669,1,0,0:0:0:70:soft-hitclap.wav
448,192,88669,1,0,0:0:0:30:normal-hitfinish.wav
448,192,88984,1,0,0:0:0:60:soft-hitwhistle.wav
192,192,88984,1,0,0:0:0:55:soft-hitfinish.wav
320,192,89142,1,0,0:0:0:0:
448,192,89300,1,0,0:0:0:70:soft-hitclap.wav
64,192,89300,1,0,0:0:0:0:
192,192,89458,1,0,0:0:0:0:
320,192,89616,1,0,0:0:0:60:soft-hitwhistle.wav
448,192,89616,1,0,0:0:0:0:
192,192,89695,1,0,0:0:0:0:
64,192,89774,1,0,0:0:0:0:
448,192,89932,1,0,0:0:0:70:soft-hitclap.wav
192,192,89932,1,0,0:0:0:0:
320,192,90090,1,0,0:0:0:0:
64,192,90248,1,0,0:0:0:60:soft-hitwhistle.wav
192,192,90248,1,0,0:0:0:0:
320,192,90405,1,0,0:0:0:0:
192,192,90563,128,0,90879:0:0:0:70:soft-hitclap.wav
448,192,90563,1,0,0:0:0:30:normal-hitfinish.wav
320,192,90721,1,0,0:0:0:0:
448,192,90879,1,0,0:0:0:60:soft-hitwhistle.wav
64,192,90879,128,0,91195:0:0:0:30:normal-hitfinish.wav
192,192,91037,1,0,0:0:0:0:
320,192,91195,128,0,91511:0:0:0:70:soft-hitclap.wav
448,192,91195,1,0,0:0:0:30:normal-hitfinish.wav
192,192,91353,1,0,0:0:0:0:
64,192,91511,1,0,0:0:0:60:soft-hitwhistle.wav
448,192,91511,1,0,0:0:0:0:
192,192,91669,1,0,0:0:0:0:
320,192,91827,1,0,0:0:0:70:soft-hitclap.wav
448,192,91827,1,0,0:0:0:0:
64,192,91984,1,0,0:0:0:0:
448,192,92142,1,0,0:0:0:60:soft-hitwhistle.wav
192,192,92142,1,0,0:0:0:0:
320,192,92300,1,0,0:0:0:0:
192,192,92379,1,0,0:0:0:0:
64,192,92458,1,0,0:0:0:70:soft-hitclap.wav
448,192,92458,1,0,0:0:0:0:
320,192,92616,1,0,0:0:0:0:
448,192,92774,1,0,0:0:0:60:soft-hitwhistle.wav
192,192,92774,1,0,0:0:0:0:
64,192,93090,128,0,93405:0:0:0:0:
320,192,93405,128,0,93721:0:0:0:0:
64,192,93721,1,0,0:0:0:30:normal-hitfinish.wav
448,192,93721,1,0,0:0:0:60:soft-hitwhistle.wav
192,192,93721,1,0,0:0:0:0:
192,192,94037,1,0,0:0:0:60:soft-hitwhistle.wav
320,192,94037,1,0,0:0:0:55:soft-hitfinish.wav
64,192,94195,1,0,0:0:0:0:
448,192,94353,1,0,0:0:0:70:soft-hitclap.wav
320,192,94353,1,0,0:0:0:0:
192,192,94511,1,0,0:0:0:0:
64,192,94669,1,0,0:0:0:60:soft-hitwhistle.wav
320,192,94669,1,0,0:0:0:0:
448,192,94827,1,0,0:0:0:0:
64,192,94984,1,0,0:0:0:70:soft-hitclap.wav
192,192,94984,1,0,0:0:0:0:
320,192,95142,1,0,0:0:0:0:
448,192,95300,1,0,0:0:0:60:soft-hitwhistle.wav
192,192,95300,1,0,0:0:0:0:
320,192,95458,1,0,0:0:0:0:
64,192,95616,1,0,0:0:0:70:soft-hitclap.wav
448,192,95616,1,0,0:0:0:0:
192,192,95695,1,0,0:0:0:0:
320,192,95774,1,0,0:0:0:0:
448,192,95853,1,0,0:0:0:0:
64,192,95932,1,0,0:0:0:60:soft-hitwhistle.wav
448,192,96090,1,0,0:0:0:60:soft-hitwhistle.wav
320,192,96169,1,0,0:0:0:0:
192,192,96248,1,0,0:0:0:70:soft-hitclap.wav
64,192,96327,1,0,0:0:0:60:soft-hitwhistle.wav
192,192,96405,1,0,0:0:0:60:soft-hitwhistle.wav
320,192,96484,1,0,0:0:0:60:soft-hitwhistle.wav
448,192,96563,1,0,0:0:0:60:soft-hitwhistle.wav
192,192,96721,1,0,0:0:0:0:
64,192,96879,1,0,0:0:0:70:soft-hitclap.wav
448,192,96879,1,0,0:0:0:0:
320,192,97037,1,0,0:0:0:0:
192,192,97195,1,0,0:0:0:60:soft-hitwhistle.wav
64,192,97195,1,0,0:0:0:0:
448,192,97353,1,0,0:0:0:0:
192,192,97511,1,0,0:0:0:70:soft-hitclap.wav
320,192,97590,1,0,0:0:0:0:
448,192,97669,1,0,0:0:0:0:
64,192,97748,1,0,0:0:0:0:
448,192,97905,1,0,0:0:0:0:
64,192,98063,1,0,0:0:0:0:
320,192,98142,1,0,0:0:0:70:soft-hitclap.wav
192,192,98300,1,0,0:0:0:0:
320,192,98458,1,0,0:0:0:60:soft-hitwhistle.wav
448,192,98458,1,0,0:0:0:30:normal-hitfinish.wav
192,192,98616,1,0,0:0:0:30:normal-hitfinish.wav
64,192,98616,1,0,0:0:0:0:
320,192,98774,1,0,0:0:0:30:normal-hitfinish.wav
448,192,98774,128,0,99090:0:0:0:70:soft-hitclap.wav
320,192,99090,1,0,0:0:0:60:soft-hitwhistle.wav
64,192,99090,1,0,0:0:0:0:
192,192,99248,1,0,0:0:0:0:
320,192,99405,1,0,0:0:0:70:soft-hitclap.wav
448,192,99405,1,0,0:0:0:0:
64,192,99563,1,0,0:0:0:0:
192,192,99721,128,0,100037:0:0:0:60:soft-hitwhistle.wav
320,192,99879,1,0,0:0:0:60:soft-hitwhistle.wav
448,192,100037,1,0,0:0:0:70:soft-hitclap.wav
64,192,100037,1,0,0:0:0:0:
320,192,100195,1,0,0:0:0:0:
64,192,100353,1,0,0:0:0:60:soft-hitwhistle.wav
448,192,100353,1,0,0:0:0:0:
192,192,100432,1,0,0:0:0:0:
320,192,100511,1,0,0:0:0:0:
448,192,100590,1,0,0:0:0:0:
64,192,100669,1,0,0:0:0:70:soft-hitclap.wav
192,192,100748,1,0,0:0:0:0:
320,192,100827,1,0,0:0:0:0:
448,192,100905,1,0,0:0:0:0:
64,192,100984,1,0,0:0:0:60:soft-hitwhistle.wav
192,192,101083,1,0,0:0:0:0:
320,192,101142,1,0,0:0:0:0:
192,192,101221,1,0,0:0:0:0:
448,192,101300,1,0,0:0:0:60:soft-hitwhistle.wav
320,192,101399,1,0,0:0:0:0:
192,192,101458,1,0,0:0:0:0:
64,192,101537,1,0,0:0:0:0:
192,192,101616,1,0,0:0:0:60:soft-hitwhistle.wav
448,192,101616,1,0,0:0:0:55:soft-hitfinish.wav
320,192,101774,1,0,0:0:0:0:
448,192,101932,1,0,0:0:0:70:soft-hitclap.wav
64,192,101932,1,0,0:0:0:0:
192,192,102090,1,0,0:0:0:0:
448,192,102248,1,0,0:0:0:60:soft-hitwhistle.wav
64,192,102248,1,0,0:0:0:55:soft-hitfinish.wav
320,192,102327,1,0,0:0:0:0:
64,192,102484,1,0,0:0:0:0:
192,192,102721,1,0,0:0:0:0:
320,192,102800,1,0,0:0:0:0:
448,192,102879,1,0,0:0:0:60:soft-hitwhistle.wav
64,192,102879,1,0,0:0:0:0:
448,192,103116,1,0,0:0:0:60:soft-hitwhistle.wav
64,192,103116,1,0,0:0:0:0:
192,192,103353,1,0,0:0:0:60:soft-hitwhistle.wav
320,192,103353,1,0,0:0:0:0:
448,192,103511,1,0,0:0:0:60:soft-hitwhistle.wav
64,192,103511,1,0,0:0:0:0:
192,192,103827,1,0,0:0:0:60:soft-hitwhistle.wav
64,192,103827,1,0,0:0:0:30:normal-hitfinish.wav
448,192,103827,1,0,0:0:0:0:
320,192,104142,1,0,0:0:0:60:soft-hitwhistle.wav
448,192,104142,1,0,0:0:0:55:soft-hitfinish.wav
64,192,104300,1,0,0:0:0:0:
192,192,104379,1,0,0:0:0:0:
320,192,104458,1,0,0:0:0:70:soft-hitclap.wav
448,192,104537,1,0,0:0:0:0:
64,192,104616,1,0,0:0:0:0:
192,192,104695,1,0,0:0:0:0:
320,192,104774,1,0,0:0:0:60:soft-hitwhistle.wav
64,192,105011,1,0,0:0:0:0:
448,192,105090,1,0,0:0:0:70:soft-hitclap.wav
320,192,105248,1,0,0:0:0:0:
192,192,105327,1,0,0:0:0:0:
64,192,105405,1,0,0:0:0:60:soft-hitwhistle.wav
192,192,105484,1,0,0:0:0:0:
448,192,105563,1,0,0:0:0:0:
320,192,105642,1,0,0:0:0:0:
64,192,105721,1,0,0:0:0:70:soft-hitclap.wav
192,192,105800,1,0,0:0:0:0:
448,192,105879,1,0,0:0:0:0:
320,192,105958,1,0,0:0:0:0:
64,192,106037,1,0,0:0:0:60:soft-hitwhistle.wav
192,192,106116,1,0,0:0:0:0:
320,192,106195,1,0,0:0:0:0:
448,192,106274,1,0,0:0:0:0:
64,192,106353,1,0,0:0:0:70:soft-hitclap.wav
192,192,106432,1,0,0:0:0:0:
448,192,106511,1,0,0:0:0:0:
320,192,106590,1,0,0:0:0:0:
64,192,106669,1,0,0:0:0:60:soft-hitwhistle.wav
448,192,106827,1,0,0:0:0:0:
192,192,106905,1,0,0:0:0:0:
64,192,106984,1,0,0:0:0:70:soft-hitclap.wav
320,192,107063,1,0,0:0:0:0:
448,192,107142,1,0,0:0:0:0:
192,192,107221,1,0,0:0:0:0:
320,192,107379,1,0,0:0:0:0:
448,192,107537,1,0,0:0:0:0:
320,192,107616,1,0,0:0:0:70:soft-hitclap.wav
64,192,107616,1,0,0:0:0:0:
192,192,107774,1,0,0:0:0:0:
448,192,107932,1,0,0:0:0:60:soft-hitwhistle.wav
320,192,107932,1,0,0:0:0:0:
64,192,108090,1,0,0:0:0:0:
192,192,108169,1,0,0:0:0:0:
448,192,108248,1,0,0:0:0:70:soft-hitclap.wav
320,192,108248,1,0,0:0:0:0:
320,192,108405,1,0,0:0:0:0:
64,192,108563,1,0,0:0:0:60:soft-hitwhistle.wav
192,192,108563,1,0,0:0:0:0:
192,192,108721,1,0,0:0:0:60:soft-hitwhistle.wav
320,192,108721,1,0,0:0:0:0:
320,192,108879,1,0,0:0:0:70:soft-hitclap.wav
448,192,108879,128,0,109195:0:0:0:60:soft-hitwhistle.wav
192,192,109195,1,0,0:0:0:60:soft-hitwhistle.wav
64,192,109195,1,0,0:0:0:0:
320,192,109353,1,0,0:0:0:0:
192,192,109432,1,0,0:0:0:0:
64,192,109511,1,0,0:0:0:70:soft-hitclap.wav
192,192,109590,1,0,0:0:0:0:
320,192,109669,1,0,0:0:0:0:
448,192,109748,1,0,0:0:0:0:
320,192,109827,1,0,0:0:0:60:soft-hitwhistle.wav
192,192,109984,1,0,0:0:0:0:
320,192,110063,1,0,0:0:0:0:
64,192,110142,1,0,0:0:0:70:soft-hitclap.wav
192,192,110221,1,0,0:0:0:0:
320,192,110300,1,0,0:0:0:0:
448,192,110379,1,0,0:0:0:0:
64,192,110458,1,0,0:0:0:60:soft-hitwhistle.wav
320,192,110616,1,0,0:0:0:0:
192,192,110853,1,0,0:0:0:0:
64,192,111011,1,0,0:0:0:0:
448,192,111090,1,0,0:0:0:60:soft-hitwhistle.wav
320,192,111248,1,0,0:0:0:0:
192,192,111405,128,0,111721:0:0:0:70:soft-hitclap.wav
320,192,111721,1,0,0:0:0:60:soft-hitwhistle.wav
448,192,111721,1,0,0:0:0:30:normal-hitfinish.wav
192,192,111879,1,0,0:0:0:60:soft-hitwhistle.wav
64,192,111879,1,0,0:0:0:30:normal-hitfinish.wav
320,192,112037,1,0,0:0:0:60:soft-hitwhistle.wav
448,192,112037,1,0,0:0:0:30:normal-hitfinish.wav
192,192,112195,1,0,0:0:0:30:normal-hitfinish.wav
64,192,112195,1,0,0:0:0:60:soft-hitwhistle.wav
448,192,112511,1,0,0:0:0:60:soft-hitwhistle.wav
64,192,112511,1,0,0:0:0:30:normal-hitfinish.wav
192,192,112669,1,0,0:0:0:60:soft-hitwhistle.wav
320,192,112669,1,0,0:0:0:30:normal-hitfinish.wav
448,192,112827,128,0,114248:0:0:0:60:soft-hitwhistle.wav
64,192,112827,128,0,114248:0:0:0:30:normal-hitfinish.wav
